osu file format v14

[General]
AudioFilename: Justice.mp3
AudioLeadIn: 0
PreviewTime: 78037
Countdown: 0
SampleSet: Soft
StackLeniency: 0.7
Mode: 0
LetterboxInBreaks: 0
WidescreenStoryboard: 0

[Editor]
DistanceSpacing: 1.2
BeatDivisor: 4
GridSize: 32
TimelineZoom: 4.000001

[Metadata]
Title:IMAGINARY LIKE THE JUSTICE
TitleUnicode:IMAGINARY LIKE THE JUSTICE
Artist:Nanahoshi Kangengakudan
ArtistUnicode:ナナホシ管弦楽団
Creator:pkk
Version:Hard
Source:
Tags:pkmnyab kibbleru frostings captin1 vocaloid megpoid gumi vocarock orchestra illicit sexual relations Monaka モナカ EXIT TUNES PRESENTS Storytellers RPG FujuniseikouyuuP 不純異性交遊P Iwami Takashi 岩見陸
BeatmapID:494875
BeatmapSetID:210346

[Difficulty]
HPDrainRate:5
CircleSize:4
OverallDifficulty:6
ApproachRate:8
SliderMultiplier:1.5
SliderTickRate:1

[Events]
//Background and Video events
0,0,"BG.jpg",0,0
//Break Periods
2,100855,107168
2,189434,192905
2,204377,205537
//Storyboard Layer 0 (Background)
//Storyboard Layer 1 (Fail)
//Storyboard Layer 2 (Pass)
//Storyboard Layer 3 (Foreground)
//Storyboard Sound Samples

[TimingPoints]
1024,315.789473684211,4,2,2,35,1,0
10813,-100,4,2,2,45,0,0
11129,-100,4,2,2,55,0,0
11444,-100,4,2,2,35,0,0
11760,-100,4,2,2,65,0,0
12234,-100,4,2,2,80,0,0
12392,-100,4,2,2,60,0,0
22181,-100,4,1,1,60,0,0
22339,-100,4,2,2,60,0,0
32287,-100,4,1,1,60,0,0
32444,-100,4,2,2,55,0,0
37339,-100,4,1,1,55,0,0
37497,-100,4,2,2,55,0,0
52655,-100,4,2,2,60,0,0
53760,-100,4,2,2,35,0,0
53918,-100,4,2,2,60,0,0
54550,-100,4,2,2,35,0,0
54708,-100,4,2,2,60,0,0
57392,-100,4,2,2,45,0,0
57708,-100,4,2,2,60,0,0
59602,-100,4,2,2,40,0,0
59760,-100,4,2,2,60,0,0
60234,-100,4,2,2,40,0,0
60708,-100,4,2,2,50,0,0
61339,-100,4,2,2,60,0,0
61971,-100,4,1,1,60,0,0
62129,-100,4,2,2,60,0,0
67813,-100,4,2,2,65,0,0
75550,-100,4,1,1,40,0,0
75865,-100,4,1,1,50,0,0
76181,-100,4,1,1,65,0,0
76497,-100,4,1,1,75,0,0
76655,-100,4,1,1,85,0,0
76813,-100,4,2,2,65,0,0
77760,-100,4,2,2,70,0,0
78076,-100,4,1,3,75,0,1
78234,-100,4,2,2,75,0,1
87550,-100,4,2,2,75,0,1
87866,-100,4,2,2,50,0,0
88181,-100,4,2,2,75,0,1
92918,-100,4,2,2,45,0,1
93234,-100,4,2,2,75,0,1
96865,-100,4,1,1,75,0,1
98129,-100,4,1,3,75,0,1
100655,-100,4,2,2,50,0,0
107918,-100,4,2,2,55,0,0
117550,-100,4,1,1,55,0,0
118339,-100,4,2,2,60,0,0
123234,-100,4,1,1,60,0,0
123392,-100,4,2,2,60,0,0
133497,-100,4,2,2,65,0,0
141234,-100,4,1,1,65,0,0
142497,-133.333333333333,4,2,2,45,0,0
143760,-100,4,1,3,75,0,1
143918,-100,4,2,2,75,0,1
153234,-100,4,2,2,75,0,1
153550,-100,4,2,2,50,0,0
153866,-100,4,2,2,75,0,1
158602,-100,4,2,2,45,0,1
158918,-100,4,2,2,75,0,1
162550,-100,4,1,1,75,0,1
163813,-100,4,2,2,65,0,0
166339,-100,4,2,2,25,0,0
166497,-100,4,2,2,65,0,0
168076,-100,4,1,1,65,0,0
168708,-100,4,1,1,40,0,0
168865,-100,4,1,1,65,0,0
173444,-100,4,2,2,50,0,0
173918,-100,4,1,1,65,0,0
188129,-100,4,2,2,50,0,0
188444,-100,4,2,2,65,0,0
188602,-100,4,2,2,50,0,0
188918,-100,4,2,2,65,0,0
189234,-100,4,1,0,75,0,0
193655,-100,4,2,2,65,0,0
194287,-100,4,2,2,50,0,0
201865,-100,4,2,2,55,0,0
202497,-100,4,2,2,60,0,0
203129,-100,4,1,1,65,0,0
203444,-100,4,1,1,70,0,0
203760,-100,4,1,1,85,0,0
206287,-100,4,1,1,65,0,0
206918,-100,4,2,2,75,0,1
213865,-100,4,2,2,75,0,1
214181,-100,4,2,2,50,0,0
214497,-100,4,2,2,75,0,1
219234,-100,4,2,2,45,0,1
219550,-100,4,2,2,75,0,1
222076,-100,4,2,2,45,0,1
222392,-100,4,2,2,50,0,1
222708,-100,4,2,2,55,0,1
223181,-100,4,2,2,75,0,1
223497,-100,4,1,1,75,0,1
223813,-100,4,2,2,75,0,1
224287,-100,4,1,1,65,0,0
224602,-100,4,1,3,75,0,1
224760,-100,4,2,2,75,0,1
239287,-100,4,2,2,50,0,1
239444,-100,4,2,2,75,0,1
243392,-100,4,1,1,75,0,1
244655,-100,4,1,3,85,0,1
246076,-100,4,2,2,70,0,1
246392,-100,4,2,2,55,0,1
246708,-100,4,2,2,40,0,1
247181,-100,4,2,2,60,0,0

[Colours]
Combo1 : 252,221,44
Combo2 : 70,166,0
Combo3 : 77,116,221
Combo4 : 10,241,166

[HitObjects]
256,192,9708,12,0,11444,0:0:0:0:
144,60,11760,6,0,L|108:40,5,37.5,8|8|0|8|4|4,0:0|0:0|0:3|0:3|0:3|0:3,0:0:0:0:
68,52,12234,6,0,P|36:112|80:200,1,150,4|0,0:0|0:0,0:0:0:0:
164,180,12708,2,0,L|252:172,1,75,8|2,0:0|0:0,0:0:0:0:
353,250,13024,2,0,L|279:244,2,75,0|0|10,1:0|1:0|0:0,0:0:0:0:
408,178,13497,6,0,P|443:241|417:311,1,150,4|0,1:2|0:0,0:0:0:0:
330,333,13971,2,0,L|256:327,1,75,10|2,0:1|0:0,0:0:0:0:
145,260,14287,2,0,L|219:254,1,75,2|2,1:0|1:2,0:0:0:0:
284,172,14602,1,10,0:0:0:0:
392,256,14760,6,0,P|452:248|492:164,1,150,4|0,1:2|0:0,0:0:0:0:
400,96,15234,2,0,L|408:176,1,75,10|2,0:1|0:0,0:0:0:0:
312,212,15550,2,0,L|319:137,2,75,0|0|10,1:0|1:0|0:0,0:0:0:0:
228,268,16024,6,0,P|276:308|364:296,1,150,4|0,1:2|1:0,0:0:0:0:
432,248,16497,1,8,0:0:0:0:
444,160,16655,2,0,P|396:120|308:132,1,150,4|0,1:2|1:0,0:0:0:0:
248,192,17129,1,0,1:0:0:0:
140,240,17287,6,0,P|112:184|140:92,1,150,4|0,0:0|1:0,0:0:0:0:
224,16,17760,2,0,L|216:92,1,75,10|0,0:1|0:0,0:0:0:0:
276,156,18076,2,0,P|344:172|420:140,1,150,0|10,1:0|0:0,0:0:0:0:
500,72,18550,6,0,P|525:145|492:224,1,150,0|0,1:2|1:0,0:0:0:0:
424,256,19024,2,0,P|380:252|344:252,1,75,10|0,0:0|0:0,0:0:0:0:
271,204,19339,2,0,P|236:215|209:240,2,75,2|0|8,1:2|1:0|0:0,0:0:0:0:
352,146,19813,6,0,P|370:216|333:279,1,150,2|0,1:2|1:0,0:0:0:0:
209,241,20287,2,0,P|191:208|189:171,1,75,10|0,0:0|0:0,0:0:0:0:
293,61,20602,2,0,L|277:141,1,75,2|0,1:2|1:0,0:0:0:0:
189,171,20918,1,8,0:0:0:0:
210,60,21076,6,0,P|281:42|346:92,1,150,4|0,0:0|0:0,0:0:0:0:
432,160,21550,2,0,P|441:123|444:86,1,75,8|0,0:0|0:0,0:0:0:0:
326,165,21866,2,0,P|329:202|338:238,1,75,8|0,1:0|1:0,0:0:0:0:
409,294,22181,1,8,0:0:0:0:
304,335,22339,6,0,B|248:335|248:335|212:315|212:315|148:315,1,150,4|0,0:0|1:0,0:0:0:0:
39,250,22813,2,0,P|44:286|61:319,1,75,8|0,0:0|0:0,0:0:0:0:
102,177,23129,2,0,L|113:96,2,75,0|2|8,1:0|0:0|0:0,0:0:0:0:
185,229,23602,6,0,B|233:253|281:209|337:229,1,150,2|0,0:0|0:0,0:0:0:0:
406,279,24076,2,0,P|410:331|394:367,1,75,8|0,0:0|0:0,0:0:0:0:
333,228,24392,2,0,P|330:188|326:150,1,75,0|2,1:0|0:0,0:0:0:0:
269,82,24708,1,8,0:0:0:0:
160,104,24866,6,0,P|136:144|160:244,1,150,2|0,0:0|0:0,0:0:0:0:
244,216,25339,1,8,0:0:0:0:
316,272,25497,1,0,0:0:0:0:
400,244,25655,2,0,L|480:244,2,75,0|2|8,1:0|0:0|0:0,0:0:0:0:
316,272,26129,6,0,P|288:220|308:132,1,150,2|0,0:0|0:0,0:0:0:0:
395,123,26602,2,0,P|384:87|358:60,1,75,8|0,0:0|0:0,0:0:0:0:
252,60,26918,1,0,1:0:0:0:
252,60,27076,1,0,1:0:0:0:
252,60,27234,1,0,1:0:0:0:
148,104,27392,6,0,P|120:168|152:244,1,150,4|0,0:0|0:0,0:0:0:0:
236,232,27866,2,0,L|336:228,1,75,8|0,0:0|0:0,0:0:0:0:
392,188,28181,2,0,P|434:187|471:192,2,75,0|2|8,1:0|0:0|0:0,0:0:0:0:
332,108,28655,6,0,P|276:68|188:88,1,150,2|0,0:0|0:0,0:0:0:0:
196,211,29129,2,0,P|225:188|246:158,1,75,8|0,0:0|0:0,0:0:0:0:
332,108,29445,2,0,L|332:24,2,75,0|2|8,1:0|0:0|0:0,0:0:0:0:
428,168,29918,6,0,P|456:216|428:312,1,150,2|0,0:0|0:0,0:0:0:0:
340,244,30392,2,0,P|312:196|340:100,1,150,8|0,0:0|1:0,0:0:0:0:
404,52,30866,1,0,1:0:0:0:
288,44,31024,2,0,L|212:36,1,75,12|0,0:0|0:0,0:0:0:0:
112,108,31339,6,0,P|93:141|86:178,1,75,12|0,0:0|1:0,0:0:0:0:
221,229,31655,2,0,P|213:192|195:159,1,75,12|0,0:0|1:0,0:0:0:0:
112,108,31971,1,0,1:0:0:0:
196,59,32129,1,0,1:0:0:0:
277,112,32287,1,8,0:0:0:0:
277,112,32366,1,0,0:0:0:0:
277,112,32445,6,0,P|305:184|263:248,1,150,4|0,0:0|1:0,0:0:0:0:
173,233,32918,1,8,0:0:0:0:
101,299,33076,1,0,0:0:0:0:
51,214,33234,2,0,P|43:162|44:125,1,75,0|0,1:0|0:0,0:0:0:0:
178,170,33550,2,0,P|176:208|170:245,1,75,8|0,0:0|0:0,0:0:0:0:
117,121,33866,6,0,P|169:93|249:139,1,150,0|8,1:0|0:0,0:0:0:0:
332,174,34339,1,0,0:0:0:0:
332,174,34497,2,0,P|376:170|432:162,1,75,0|0,0:0|0:0,0:0:0:0:
504,165,34813,2,0,P|512:128|510:91,1,75,8|0,0:0|0:0,0:0:0:0:
422,178,35129,6,0,L|431:269,1,75,0|0,1:0|0:0,0:0:0:0:
352,321,35445,2,0,P|283:325|276:257,1,150,8|0,0:0|1:0,0:0:0:0:
340,180,35918,1,0,0:0:0:0:
263,227,36076,2,0,L|188:223,1,75,8|0,0:0|0:0,0:0:0:0:
100,246,36392,6,0,P|67:176|115:108,1,150,0|8,1:0|0:0,0:0:0:0:
347,99,37024,2,0,P|310:104|273:98,1,75,0|0,1:0|0:0,0:0:0:0:
392,37,37339,1,8,0:0:0:0:
392,37,37418,1,0,0:0:0:0:
392,37,37497,6,0,P|421:72|388:167,1,150,0|0,0:0|0:0,0:0:0:0:
318,215,37971,2,0,P|301:253|297:292,1,75,8|0,0:0|0:0,0:0:0:0:
422,331,38287,2,0,P|416:294|400:260,1,75,0|0,1:0|1:0,0:0:0:0:
318,215,38602,1,8,0:0:0:0:
239,295,38760,6,0,P|183:335|99:299,1,150,2|0,0:0|0:0,0:0:0:0:
40,244,39234,2,0,L|32:156,1,75,8|0,0:0|0:0,0:0:0:0:
121,90,39550,2,0,L|114:164,1,75,0|0,1:0|1:0,0:0:0:0:
159,250,39866,1,8,0:0:0:0:
270,262,40024,6,0,P|314:197|287:126,1,150,2|0,0:0|1:0,0:0:0:0:
222,66,40497,2,0,L|134:57,1,75,8|0,0:0|0:0,0:0:0:0:
50,74,40813,2,0,P|31:112|29:152,2,75,0|0|8,1:0|1:0|0:0,0:0:0:0:
146,94,41287,6,0,P|180:133|150:242,1,150,2|0,0:0|0:0,0:0:0:0:
89,282,41760,1,8,0:0:0:0:
143,363,41918,1,0,0:0:0:0:
228,315,42076,2,0,L|307:309,1,75,2|2,0:0|1:2,0:0:0:0:
393,347,42392,1,8,0:0:0:0:
468,266,42550,6,0,P|496:216|467:124,1,150,4|0,1:2|1:0,0:0:0:0:
380,71,43024,2,0,P|364:104|362:141,1,75,8|0,0:0|0:0,0:0:0:0:
290,197,43339,2,0,P|287:159|271:126,1,75,0|2,1:0|1:2,0:0:0:0:
188,163,43655,1,8,0:0:0:0:
223,257,43813,6,0,P|291:286|374:228,1,150,2|0,0:0|1:0,0:0:0:0:
422,194,44287,2,0,P|431:150|433:106,1,75,8|0,0:0|0:0,0:0:0:0:
356,256,44602,2,0,L|372:332,1,75,0|0,1:0|1:0,0:0:0:0:
450,374,44918,1,8,0:0:0:0:
450,374,45076,1,0,1:0:0:0:
487,292,45234,6,0,P|498:257|500:212,1,75,2|0,0:0|0:0,0:0:0:0:
424,168,45550,2,0,P|413:133|411:88,1,75,10|0,0:0|0:0,0:0:0:0:
289,144,45866,2,0,P|279:181|280:218,1,75,2|0,1:2|1:0,0:0:0:0:
371,235,46181,1,10,0:0:0:0:
372,114,46339,6,0,P|339:69|248:66,1,150,4|0,0:0|1:0,0:0:0:0:
180,132,46813,1,8,0:0:0:0:
226,208,46971,1,0,0:0:0:0:
101,184,47129,2,0,P|87:149|88:112,2,75,8|4|8,3:0|3:0|1:0,0:0:0:0:
226,208,47602,6,0,B|256:228|256:228|292:212|292:212|338:230|367:215,1,150,4|0,0:0|1:0,0:0:0:0:
415,142,48076,1,8,0:0:0:0:
468,214,48234,1,0,0:0:0:0:
504,131,48392,2,0,P|510:86|513:52,2,75,0|0|8,1:0|1:0|0:0,0:0:0:0:
390,217,48866,6,0,P|339:175|351:95,1,150,0|0,0:0|1:0,0:0:0:0:
282,35,49339,2,0,P|243:29|201:28,1,75,10|0,0:0|0:0,0:0:0:0:
160,105,49655,2,0,L|77:110,1,75,10|0,0:0|0:0,0:0:0:0:
23,175,49971,1,8,0:0:0:0:
79,244,50129,6,0,P|138:263|230:241,1,150,0|0,0:0|1:0,0:0:0:0:
289,185,50602,1,8,0:0:0:0:
374,156,50760,2,0,P|405:179|424:218,1,75,0|0,1:0|0:0,0:0:0:0:
491,269,51076,2,0,L|506:180,1,75,0|8,1:0|0:0,0:0:0:0:
426,90,51392,6,0,P|356:74|295:125,1,150,4|0,0:0|1:0,0:0:0:0:
244,192,51866,1,8,0:0:0:0:
93,146,52181,2,0,P|57:138|14:139,2,75,0|0|8,1:0|1:0|0:0,0:0:0:0:
164,224,52655,6,0,P|212:272|292:260,1,150,4|0,0:0|1:0,0:0:0:0:
360,207,53129,1,8,0:0:0:0:
440,243,53287,1,8,0:3:0:0:
440,243,53366,1,4,0:3:0:0:
440,243,53445,2,0,P|456:279|460:327,2,75,0|0|12,1:0|1:0|0:0,0:0:0:0:
303,273,53918,6,0,P|271:217|311:133,1,150,4|0,0:0|1:0,0:0:0:0:
387,119,54392,2,0,L|467:111,1,75,8|8,0:0|0:0,0:0:0:0:
371,30,54708,2,0,P|319:58|303:154,1,150,0|10,1:0|0:0,0:0:0:0:
398,209,55181,6,0,P|459:169|470:97,1,150,4|0,0:0|1:0,0:0:0:0:
371,30,55655,2,0,P|319:26|279:30,1,75,8|0,0:0|0:0,0:0:0:0:
251,37,55892,1,8,0:3:0:0:
251,37,55971,2,0,P|212:106|248:185,1,150,0|8,1:0|0:0,0:0:0:0:
318,220,56445,6,0,B|342:180|342:180|398:172|458:216,1,150,4|0,0:0|1:0,0:0:0:0:
502,268,56918,2,0,P|510:312|510:360,1,75,8|4,0:0|0:3,0:0:0:0:
440,204,57234,2,0,P|438:165|437:123,1,75,0|4,0:0|0:0,0:0:0:0:
453,40,57550,1,8,0:0:0:0:
358,95,57708,6,0,B|306:118|259:79|209:94,1,150,4|0,0:0|1:0,0:0:0:0:
124,116,58181,2,0,L|112:31,1,75,8|8,0:0|0:3,0:0:0:0:
40,92,58497,2,0,L|29:166,1,75,0|0,1:0|1:0,0:0:0:0:
56,252,58813,1,8,0:0:0:0:
140,308,58971,6,0,B|192:312|192:312|232:296|232:296|296:300,1,150,4|0,0:0|1:0,0:0:0:0:
368,336,59445,1,8,0:0:0:0:
432,271,59602,2,0,P|447:238|451:200,1,75,8|0,0:0|1:0,0:0:0:0:
364,172,59918,2,0,P|348:138|344:100,1,75,0|8,1:0|0:0,0:0:0:0:
451,199,60234,6,0,P|407:258|335:261,1,150,4|0,0:0|1:0,0:0:0:0:
272,196,60708,1,8,0:0:0:0:
192,231,60866,2,0,P|180:267|173:304,1,75,4|0,0:0|0:0,0:0:0:0:
108,211,61181,2,0,P|104:174|98:137,1,75,0|8,1:0|0:0,0:0:0:0:
180,69,61497,6,0,P|228:49|316:97,1,150,4|0,0:0|0:0,0:0:0:0:
367,166,61971,1,8,0:0:0:0:
367,166,62050,1,0,0:0:0:0:
367,166,62129,2,0,P|319:186|231:138,1,150,4|12,1:0|0:0,0:0:0:0:
180,69,62602,1,0,0:0:0:0:
96,143,62760,6,0,B|79:178|79:178|90:206|90:206|76:238|82:289,1,150,4|0,0:0|1:0,0:0:0:0:
170,268,63234,2,0,P|210:260|253:261,1,75,8|0,0:0|0:0,0:0:0:0:
331,284,63550,2,0,P|360:237|366:205,1,75,0|0,1:0|0:0,0:0:0:0:
312,145,63866,1,8,0:0:0:0:
244,260,64024,6,0,P|255:337|326:374,1,150,0|0,0:0|0:0,0:0:0:0:
394,335,64497,1,10,0:0:0:0:
468,283,64655,2,0,P|480:248|484:211,1,75,0|2,0:0|1:2,0:0:0:0:
386,144,64971,2,0,P|389:181|402:216,1,75,0|10,0:0|0:0,0:0:0:0:
467,116,65287,6,0,P|429:71|329:81,1,150,0|0,0:0|0:0,0:0:0:0:
269,122,65760,2,0,L|192:117,1,75,10|0,0:0|0:0,0:0:0:0:
113,157,66076,2,0,L|38:161,2,75,2|0|10,1:2|0:0|0:0,0:0:0:0:
204,208,66550,6,0,B|255:213|255:213|303:192|303:192|370:199,1,150,0|0,0:0|0:0,0:0:0:0:
433,227,67024,2,0,P|446:274|446:307,2,75,10|0|2,0:0|0:0|0:0,0:0:0:0:
439,111,67497,1,12,0:0:0:0:
349,196,67655,1,8,0:0:0:0:
266,111,67813,6,0,B|225:105|225:105|192:113|192:113|145:102|117:110,1,150,4|0,0:0|0:0,0:0:0:0:
72,198,68287,2,0,B|113:204|113:204|146:196|146:196|193:207|221:199,1,150,8|0,0:0|1:0,0:0:0:0:
287,139,68760,1,2,0:0:0:0:
365,183,68918,1,8,0:0:0:0:
322,278,69076,6,0,P|252:303|182:283,1,150,2|0,0:0|0:0,0:0:0:0:
91,279,69550,2,0,P|66:246|63:194,1,75,8|2,0:0|0:0,0:0:0:0:
112,137,69866,2,0,L|126:59,2,75,0|2|8,1:0|0:0|0:0,0:0:0:0:
185,191,70339,6,0,B|238:198|238:198|275:184|275:184|340:191,1,150,2|2,0:0|0:0,0:0:0:0:
428,124,70813,1,10,0:1:0:0:
428,124,71129,2,0,P|434:161|437:198,1,75,2|2,1:0|0:0,0:0:0:0:
348,192,71445,1,8,0:0:0:0:
357,88,71602,6,0,P|413:46|484:71,1,150,4|2,0:0|1:2,0:0:0:0:
501,162,72076,2,0,L|513:242,1,75,8|2,0:0|0:0,0:0:0:0:
400,312,72392,2,0,L|411:237,2,75,2|0|8,1:0|1:0|0:0,0:0:0:0:
312,260,72866,6,0,P|243:237|168:271,1,150,6|2,1:0|0:0,0:0:0:0:
82,329,73339,2,0,B|73:298|73:298|83:275|83:275|70:229|83:205|83:205|78:157,1,150,8|0,0:0|1:0,0:0:0:0:
164,105,73813,2,0,P|166:148|157:205,1,75,2|8,0:0|0:0,0:0:0:0:
86,66,74129,6,0,P|143:20|216:34,1,150,2|0,0:0|0:0,0:0:0:0:
279,98,74602,1,8,0:0:0:0:
279,98,74760,2,0,L|356:93,1,75,2|0,0:0|1:0,0:0:0:0:
436,56,75076,1,2,0:0:0:0:
499,153,75234,2,0,P|494:202|483:240,1,75,12|4,0:0|0:0,0:0:0:0:
352,232,75550,6,0,L|316:216,3,37.5,4|0|0|0,0:3|0:0|0:0|0:0,0:0:0:0:
276,232,75866,2,0,L|236:252,3,37.5,8|0|8|0,0:3|0:0|0:0|0:0,0:0:0:0:
200,232,76181,2,0,L|164:216,3,37.5,4|0|8|0,0:3|0:0|0:0|0:0,0:0:0:0:
124,232,76497,2,0,L|76:255,3,37.5,8|0|0|0,0:3|0:0|0:0|0:0,0:0:0:0:
48,232,76813,5,4,0:0:0:0:
396,80,77760,5,4,0:3:0:0:
396,80,78076,6,0,P|424:103|444:157,1,75,4|0,0:0|0:0,0:0:0:0:
328,232,78392,2,0,P|333:195|353:163,1,75,8|0,0:0|0:0,0:0:0:0:
420,228,78708,2,0,L|444:324,2,75,2|0|8,1:2|0:0|0:0,0:0:0:0:
352,164,79181,1,0,0:0:0:0:
256,188,79339,6,0,P|244:223|248:272,1,75,2|0,1:2|0:0,0:0:0:0:
352,164,79655,2,0,P|347:127|329:93,1,75,8|0,0:0|0:0,0:0:0:0:
236,96,79971,2,0,L|244:8,1,75,2|0,1:2|0:0,0:0:0:0:
140,100,80287,2,0,L|141:199,1,75,8|0,0:0|0:0,0:0:0:0:
88,244,80602,6,0,P|142:195|213:210,1,150,2|8,1:2|0:0,0:0:0:0:
300,237,81076,1,0,0:0:0:0:
300,237,81234,2,0,L|296:153,1,75,2|0,1:2|0:0,0:0:0:0:
235,54,81550,2,0,L|227:138,1,75,8|0,0:0|0:0,0:0:0:0:
313,134,81866,6,0,P|368:99|454:139,1,150,2|8,1:2|0:0,0:0:0:0:
497,197,82339,1,0,0:0:0:0:
497,197,82497,2,0,P|443:144|481:68,1,150,2|8,1:2|0:0,0:0:0:0:
270,71,83129,6,0,P|242:110|280:202,1,150,6|8,0:0|0:0,0:0:0:0:
360,174,83602,1,0,0:0:0:0:
360,174,83760,2,0,P|366:212|369:248,1,75,2|0,1:2|0:0,0:0:0:0:
443,189,84076,2,0,P|446:151|452:114,1,75,8|0,0:0|0:0,0:0:0:0:
512,224,84392,6,0,P|489:254|454:269,1,75,2|0,1:2|0:0,0:0:0:0:
304,219,84708,2,0,P|326:189|361:174,1,75,8|0,0:0|0:0,0:0:0:0:
336,291,85024,2,0,P|264:289|226:228,1,150,2|8,1:2|0:0,0:0:0:0:
103,92,85655,6,0,P|69:162|98:238,1,150,4|8,0:0|0:0,0:0:0:0:
179,245,86129,1,0,0:0:0:0:
202,158,86287,2,0,P|129:168|89:229,1,150,2|8,1:2|0:0,0:0:0:0:
115,313,86760,1,0,0:0:0:0:
202,290,86918,6,0,L|283:280,1,75,2|0,1:2|0:0,0:0:0:0:
365,261,87234,2,0,P|376:297|378:350,1,75,8|0,0:0|0:0,0:0:0:0:
295,207,87550,2,0,P|322:182|358:173,1,75,2|0,0:0|0:0,0:0:0:0:
240,266,87866,2,0,L|159:256,1,75,10|0,0:0|0:0,0:0:0:0:
84,215,88181,6,0,P|57:149|117:71,1,150,4|8,0:0|0:0,0:0:0:0:
180,104,88655,1,0,0:0:0:0:
180,104,88813,2,0,L|277:97,1,75,2|0,1:2|0:0,0:0:0:0:
378,176,89129,2,0,L|281:169,1,75,8|0,0:0|0:0,0:0:0:0:
421,106,89445,6,0,P|454:149|419:249,1,150,2|8,1:2|0:0,0:0:0:0:
345,254,89918,1,0,0:0:0:0:
345,254,90076,2,0,L|252:257,1,75,2|0,1:2|0:0,0:0:0:0:
166,181,90392,2,0,L|273:181,1,75,8|0,0:0|0:0,0:0:0:0:
321,107,90708,6,0,P|371:91|453:160,1,150,6|8,0:0|0:0,0:0:0:0:
412,224,91181,1,0,0:0:0:0:
412,224,91339,2,0,P|405:260|403:298,1,75,2|0,1:2|0:0,0:0:0:0:
501,217,91655,2,0,P|499:179|492:142,1,75,8|0,0:0|0:0,0:0:0:0:
436,71,91971,6,0,L|359:68,1,75,6|0,0:0|0:0,0:0:0:0:
263,137,92287,2,0,L|340:140,1,75,8|0,0:0|0:0,0:0:0:0:
241,60,92602,2,0,L|164:57,1,75,2|0,1:2|0:0,0:0:0:0:
29,166,92918,2,0,P|84:159|120:110,1,112.5,12|0,1:2|0:0,0:0:0:0:
114,110,93234,6,0,P|80:192|126:248,1,150,6|8,0:0|0:0,0:0:0:0:
186,285,93708,1,2,0:0:0:0:
262,237,93866,2,0,L|354:231,1,75,0|0,1:0|0:0,0:0:0:0:
425,214,94181,2,0,P|416:273|392:307,1,75,10|0,0:0|0:0,0:0:0:0:
367,151,94497,6,0,L|359:75,1,75,0|2,1:0|0:0,0:0:0:0:
273,48,94813,2,0,L|281:124,1,75,8|0,0:0|0:0,0:0:0:0:
224,192,95129,2,0,P|158:215|92:160,1,150,2|10,1:2|1:2,0:0:0:0:
87,74,95602,1,0,0:0:0:0:
2,148,95760,6,0,P|-2:183|7:222,1,75,6|0,1:2|0:0,0:0:0:0:
98,287,96076,2,0,P|106:250|103:213,1,75,12|0,1:2|0:0,0:0:0:0:
187,137,96392,2,0,P|183:172|192:211,1,75,6|0,1:2|0:0,0:0:0:0:
288,270,96708,2,0,P|296:233|293:196,1,75,8|0,1:0|0:0,0:0:0:0:
349,123,97024,5,4,0:0:0:0:
411,198,97181,1,4,0:0:0:0:
349,123,97339,2,0,P|309:113|262:101,1,75,8|0,0:0|0:0,0:0:0:0:
426,64,97655,2,0,P|446:136|409:198,1,150,14|8,0:2|0:0,0:0:0:0:
313,211,98129,5,4,0:0:0:0:
256,192,98287,12,4,100655,0:0:0:0:
135,131,107918,6,0,P|139:171|123:207,1,75,0|0,0:0|0:0,0:0:0:0:
55,113,108234,6,0,P|101:57|174:61,1,150,4|0,0:0|0:0,0:0:0:0:
243,123,108708,2,0,L|327:115,1,75,2|0,0:0|0:0,0:0:0:0:
173,61,109024,2,0,P|148:110|192:202,1,150,0|2,0:0|0:0,0:0:0:0:
264,224,109497,1,0,0:0:0:0:
264,224,109655,6,0,B|316:214|316:214|361:229|361:229|421:220,1,150,0|2,0:0|0:0,0:0:0:0:
470,154,110129,1,0,0:0:0:0:
470,154,110287,2,0,L|477:67,1,75,0|0,0:0|0:0,0:0:0:0:
387,27,110602,2,0,L|393:101,1,75,2|0,0:0|0:0,0:0:0:0:
313,172,110918,6,0,P|267:186|184:117,1,150,4|2,0:0|0:0,0:0:0:0:
108,88,111392,1,0,0:0:0:0:
34,139,111550,2,0,B|24:204|24:204|35:227|35:227|24:315,1,150,0|2,0:0|0:0,0:0:0:0:
106,347,112024,2,0,L|115:260,1,75,0|0,0:0|0:0,0:0:0:0:
300,95,112497,5,2,0:0:0:0:
264,176,112655,1,8,0:0:0:0:
389,149,112813,2,0,L|489:139,1,75,8|8,0:0|0:0,0:0:0:0:
475,136,113287,6,0,P|508:200|482:273,1,150,4|0,0:0|1:0,0:0:0:0:
396,272,113760,2,0,L|312:264,1,75,8|0,0:0|0:0,0:0:0:0:
257,201,114076,1,0,0:0:0:0:
257,201,114234,2,0,P|229:245|229:273,1,75,0|8,1:0|0:0,0:0:0:0:
321,264,114550,6,0,P|349:205|307:126,1,150,0|0,1:0|1:0,0:0:0:0:
240,82,115024,2,0,L|151:79,1,75,8|0,0:0|0:0,0:0:0:0:
92,160,115339,2,0,L|181:157,1,75,0|0,1:0|1:0,0:0:0:0:
240,82,115655,1,8,0:0:0:0:
287,167,115813,6,0,P|353:188|430:135,1,150,2|0,0:0|1:0,0:0:0:0:
494,87,116287,1,8,0:0:0:0:
494,87,116445,2,0,P|505:125|506:171,1,75,2|0,0:0|1:0,0:0:0:0:
409,225,116760,2,0,P|411:187|421:151,1,75,0|8,1:0|0:0,0:0:0:0:
486,262,117076,6,0,P|442:307|341:278,1,150,4|8,0:0|0:0,0:0:0:0:
277,259,117550,2,0,L|221:266,3,37.5,8|0|0|0,0:0|0:0|0:0|0:0,0:0:0:0:
198,240,117866,2,0,L|100:232,2,75,8|8|8,0:3|0:3|0:3,0:0:0:0:
278,334,118339,6,0,P|334:305|343:223,1,150,6|0,0:0|1:0,0:0:0:0:
282,157,118813,2,0,P|290:106|291:75,1,75,8|0,0:0|0:0,0:0:0:0:
391,44,119129,2,0,P|383:95|382:126,1,75,0|0,1:0|1:0,0:0:0:0:
437,189,119445,1,8,0:0:0:0:
501,268,119602,6,0,P|479:310|362:304,1,150,4|0,0:0|1:0,0:0:0:0:
313,267,120076,1,8,0:0:0:0:
226,290,120234,1,0,0:0:0:0:
258,206,120392,2,0,L|267:121,2,75,0|0|8,1:0|1:0|0:0,0:0:0:0:
281,338,120866,6,0,P|341:338|389:257,1,150,4|0,1:2|1:0,0:0:0:0:
348,188,121339,2,0,P|341:150|340:99,1,75,8|0,0:0|0:0,0:0:0:0:
429,64,121655,2,0,P|427:101|420:138,2,75,0|0|8,1:0|1:0|0:0,0:0:0:0:
332,36,122129,6,0,B|273:43|273:43|238:27|238:27|186:31,1,150,4|0,0:0|1:0,0:0:0:0:
108,77,122602,1,8,0:0:0:0:
175,136,122760,1,0,0:0:0:0:
60,147,122918,2,0,P|32:117|25:74,2,75,0|0|8,1:0|1:0|0:0,0:0:0:0:
175,136,123392,6,0,P|240:113|318:149,1,150,4|0,0:0|1:0,0:0:0:0:
401,153,123866,2,0,P|413:117|417:78,1,75,8|0,0:0|0:0,0:0:0:0:
312,143,124181,2,0,P|315:180|328:215,1,75,0|0,1:0|1:0,0:0:0:0:
401,269,124497,1,8,0:0:0:0:
485,236,124655,6,0,P|509:162|487:94,1,150,6|0,0:0|1:0,0:0:0:0:
405,58,125129,1,8,0:0:0:0:
405,58,125287,2,0,L|306:49,1,75,0|0,0:0|1:0,0:0:0:0:
264,112,125602,1,0,1:0:0:0:
209,40,125760,1,8,0:0:0:0:
104,68,125918,6,0,P|71:126|108:211,1,150,4|0,0:0|0:0,0:0:0:0:
172,252,126392,1,8,0:0:0:0:
252,212,126550,1,4,0:0:0:0:
252,212,126629,1,8,0:0:0:0:
252,212,126708,1,0,1:0:0:0:
336,244,126866,2,0,L|323:336,1,75,0|8,1:0|0:0,0:0:0:0:
429,277,127181,6,0,P|429:203|358:150,1,150,4|0,0:0|1:0,0:0:0:0:
252,212,127655,1,10,0:0:0:0:
252,212,127813,2,0,P|198:162|199:89,1,150,0|6,0:0|0:2,0:0:0:0:
288,64,128287,1,12,0:0:0:0:
333,175,128445,6,0,P|333:247|280:297,1,150,4|0,0:0|1:0,0:0:0:0:
200,252,128918,2,0,L|120:248,1,75,8|0,0:0|0:0,0:0:0:0:
20,324,129234,2,0,L|94:320,1,75,0|0,1:0|0:0,0:0:0:0:
200,252,129550,2,0,P|208:192|204:168,1,75,8|0,0:0|0:0,0:0:0:0:
235,94,129866,6,0,P|163:97|120:156,1,150,0|8,1:0|0:0,0:0:0:0:
206,178,130339,1,2,0:0:0:0:
300,160,130497,2,0,P|318:128|324:91,1,75,0|2,1:0|0:0,0:0:0:0:
404,28,130813,2,0,L|412:120,1,75,8|2,0:0|0:0,0:0:0:0:
464,176,131129,6,0,P|412:144|328:192,1,150,0|8,0:0|0:0,0:0:0:0:
272,240,131602,1,0,0:0:0:0:
192,196,131760,2,0,L|104:204,2,75,2|0|8,1:2|0:0|0:0,0:0:0:0:
102,280,132234,2,0,P|62:256|58:156,1,150,2|0,0:0|0:0,0:0:0:0:
124,104,132708,2,0,L|136:20,2,75,8|2|0,0:0|0:0|1:0,0:0:0:0:
232,120,133181,1,6,0:2:0:0:
156,200,133339,1,12,0:0:0:0:
292,200,133497,6,0,P|328:160|308:64,1,150,4|0,0:0|1:0,0:0:0:0:
236,24,133971,2,0,P|200:64|220:160,1,150,8|0,0:0|1:0,0:0:0:0:
292,200,134445,1,2,0:0:0:0:
212,240,134602,1,8,0:0:0:0:
279,315,134760,6,0,B|339:339|375:291|439:323,1,150,2|2,0:0|0:0,0:0:0:0:
501,266,135234,2,0,P|485:222|485:174,1,75,8|2,0:0|0:0,0:0:0:0:
405,146,135550,2,0,L|397:234,2,75,0|2|8,1:0|1:2|0:0,0:0:0:0:
462,76,136024,6,0,P|392:55|331:95,1,150,2|2,0:0|0:0,0:0:0:0:
293,176,136497,1,10,0:1:0:0:
293,176,136813,2,0,L|301:268,2,75,2|2|8,1:0|0:0|0:0,0:0:0:0:
372,271,137287,6,0,P|328:321|239:299,1,150,4|2,0:0|0:0,0:0:0:0:
188,246,137760,2,0,P|132:240|100:247,1,75,8|2,0:0|0:0,0:0:0:0:
28,273,138076,2,0,L|15:191,2,75,0|0|8,1:0|1:0|1:0,0:0:0:0:
114,243,138550,6,0,P|155:174|130:98,1,150,4|2,0:0|0:0,0:0:0:0:
49,122,139024,2,0,L|211:98,1,150,8|0,0:0|1:0,0:0:0:0:
269,45,139497,1,2,0:0:0:0:
347,92,139655,1,8,0:0:0:0:
335,183,139813,6,0,P|293:222|199:208,1,150,2|0,0:0|0:0,0:0:0:0:
199,122,140287,1,8,0:0:0:0:
199,122,140445,2,0,L|210:288,1,150,2|0,0:0|0:0,0:0:0:0:
297,329,140918,2,0,L|291:246,1,75,12|0,0:0|1:0,0:0:0:0:
309,147,141234,6,0,L|271:113,3,37.5,4|0|0|0,0:0|0:0|0:0|0:0,0:0:0:0:
236,116,141550,2,0,L|192:123,3,37.5,4|0|0|8,0:3|0:0|0:0|0:3,0:0:0:0:
160,97,141866,2,0,L|122:63,3,37.5,4|0|0|8,0:3|0:0|0:0|0:0,0:0:0:0:
87,63,142181,2,0,L|60:93,3,37.5,4|8|8|8,0:3|0:0|0:0|0:0,0:0:0:0:
32,108,142497,6,0,P|10:161|42:227,1,112.500004291535,4|0,0:0|0:0,0:0:0:0:
102,248,142971,1,2,0:0:0:0:
182,222,143129,2,0,L|191:166,1,56.2500021457673,2|0,0:0|0:0,0:0:0:0:
102,248,143445,2,0,L|111:304,1,56.2500021457673,2|2,0:0|0:0,0:0:0:0:
212,352,143760,6,0,P|276:373|365:338,1,150,4|8,0:0|0:0,0:0:0:0:
420,288,144234,1,0,0:0:0:0:
420,288,144392,2,0,L|423:201,1,75,2|0,1:2|0:0,0:0:0:0:
347,162,144708,2,0,L|344:236,1,75,8|0,0:0|0:0,0:0:0:0:
266,139,145024,6,0,P|281:104|311:84,1,75,2|0,1:2|0:0,0:0:0:0:
426,112,145339,2,0,P|440:77|445:40,1,75,8|0,0:0|0:0,0:0:0:0:
347,162,145655,2,0,L|355:244,1,75,2|0,1:2|0:0,0:0:0:0:
440,289,145971,2,0,L|432:207,1,75,8|0,0:0|0:0,0:0:0:0:
426,112,146287,6,0,P|365:70|294:85,1,150,2|8,1:2|0:0,0:0:0:0:
236,154,146760,1,0,0:0:0:0:
236,154,146918,2,0,L|150:144,1,75,2|0,1:2|0:0,0:0:0:0:
58,213,147234,2,0,L|144:223,1,75,8|0,0:0|0:0,0:0:0:0:
236,154,147550,6,0,P|280:201|251:298,1,150,2|8,1:2|0:0,0:0:0:0:
194,329,148024,1,0,0:0:0:0:
194,329,148181,2,0,P|149:281|178:184,1,150,2|8,1:2|0:0,0:0:0:0:
337,165,148813,6,0,P|352:112|358:75,1,75,6|0,0:0|0:0,0:0:0:0:
423,166,149129,2,0,P|438:219|444:256,1,75,8|0,0:0|0:0,0:0:0:0:
296,236,149445,2,0,P|270:211|257:173,1,75,2|0,1:2|0:0,0:0:0:0:
371,258,149760,2,0,P|338:302|244:296,1,150,8|2,0:0|1:2,0:0:0:0:
167,261,150234,5,0,0:0:0:0:
167,261,150392,2,0,L|90:264,1,75,8|0,0:0|0:0,0:0:0:0:
19,209,150708,2,0,P|-1:151|54:74,1,150,2|8,1:2|0:0,0:0:0:0:
204,158,151339,6,0,P|224:216|169:293,1,150,4|8,0:0|0:0,0:0:0:0:
131,211,151813,1,0,0:0:0:0:
131,211,151971,2,0,P|196:178|276:223,1,150,2|8,1:2|0:0,0:0:0:0:
313,280,152445,1,0,0:0:0:0:
388,230,152602,6,0,P|443:217|474:218,1,75,2|0,1:2|0:0,0:0:0:0:
508,294,152918,2,0,P|472:304|434:307,1,75,8|0,0:0|0:0,0:0:0:0:
313,280,153234,2,0,L|230:272,1,75,2|0,0:0|0:0,0:0:0:0:
156,312,153550,2,0,L|81:319,1,75,10|0,0:0|0:0,0:0:0:0:
15,258,153866,6,0,P|-10:189|36:113,1,150,6|8,0:0|0:0,0:0:0:0:
105,90,154339,1,0,0:0:0:0:
105,90,154497,2,0,L|188:80,1,75,2|0,1:2|0:0,0:0:0:0:
265,53,154813,2,0,L|257:150,1,75,8|0,0:0|0:0,0:0:0:0:
340,221,155129,6,0,P|342:184|335:147,1,75,2|0,1:2|0:0,0:0:0:0:
237,212,155445,2,0,P|235:249|242:286,1,75,8|0,0:0|0:0,0:0:0:0:
156,255,155760,2,0,L|74:244,1,75,2|0,1:2|0:0,0:0:0:0:
26,173,156076,2,0,P|3:116|59:46,1,150,8|4,0:0|0:0,0:0:0:0:
139,65,156550,5,0,0:0:0:0:
139,65,156708,2,0,L|223:61,1,75,8|0,0:0|0:0,0:0:0:0:
291,106,157024,2,0,L|375:102,2,75,2|0|8,1:2|0:0|0:0,0:0:0:0:
206,138,157497,1,0,0:0:0:0:
142,201,157655,6,0,P|122:254|132:297,1,75,4|0,0:0|0:0,0:0:0:0:
230,325,157971,2,0,P|228:287|211:254,1,75,8|0,0:0|0:0,0:0:0:0:
287,206,158287,2,0,L|375:198,1,75,2|0,1:2|0:0,0:0:0:0:
486,321,158602,2,0,P|434:297|418:238,1,112.5,12|0,0:0|2:0,0:0:0:0:
423,242,158918,6,0,P|404:312|335:330,1,150,6|8,0:0|0:0,0:0:0:0:
258,283,159392,1,2,0:0:0:0:
171,304,159550,2,0,L|83:311,1,75,0|0,1:0|0:0,0:0:0:0:
14,227,159866,2,0,L|102:234,1,75,10|0,0:0|0:0,0:0:0:0:
171,195,160181,6,0,P|203:178|240:174,1,75,0|2,1:0|0:0,0:0:0:0:
333,242,160497,2,0,P|385:193|366:114,1,150,8|2,1:0|1:2,0:0:0:0:
307,57,160971,1,0,0:0:0:0:
307,57,161129,2,0,L|211:48,1,75,10|0,1:2|0:0,0:0:0:0:
126,98,161445,6,0,P|106:130|103:167,1,75,6|0,1:2|0:0,0:0:0:0:
192,177,161760,2,0,L|287:172,1,75,12|0,1:2|0:0,0:0:0:0:
352,243,162076,2,0,L|257:248,1,75,6|0,1:2|0:0,0:0:0:0:
418,305,162392,2,0,P|438:273|441:236,1,75,8|0,1:0|0:0,0:0:0:0:
413,150,162708,5,4,0:0:0:0:
353,216,162866,1,4,0:0:0:0:
276,155,163024,2,0,L|196:142,1,75,8|0,0:0|0:0,0:0:0:0:
339,105,163339,2,0,P|353:175|293:235,1,150,14|8,0:2|0:0,0:0:0:0:
208,229,163813,5,12,0:0:0:0:
256,192,163971,12,4,166339,2:0:0:0:
451,101,167445,5,12,0:0:0:0:
451,101,167602,2,0,P|493:158|471:245,1,150,4|0,0:0|0:0,0:0:0:0:
403,279,168076,2,0,L|341:271,3,37.5,0|0|0|0,0:0|0:0|0:0|0:0,0:0:0:0:
328,300,168392,2,0,L|290:304,3,37.5,8|8|8|8,0:0|0:0|0:3|0:3,0:0:0:0:
254,276,168708,1,4,0:0:0:0:
174,315,168866,6,0,P|121:257|140:178,1,150,4|2,0:0|0:2,0:0:0:0:
212,115,169339,2,0,L|224:188,1,75,8|2,0:0|0:2,0:0:0:0:
132,110,169655,2,0,L|144:36,1,75,0|2,0:0|0:2,0:0:0:0:
258,34,169971,2,0,P|293:73|298:107,1,75,8|2,0:0|0:2,0:0:0:0:
341,173,170287,6,0,L|360:18,2,150,0|8|0,0:0|0:0|0:0,0:0:0:0:
411,229,171076,1,2,0:2:0:0:
411,229,171234,2,0,P|430:269|427:314,1,75,8|2,0:0|0:2,0:0:0:0:
341,281,171550,6,0,L|255:269,1,75,0|2,0:0|0:2,0:0:0:0:
175,224,171866,2,0,P|200:197|213:162,1,75,8|2,0:0|0:2,0:0:0:0:
301,139,172181,2,0,P|306:101|309:64,1,75,0|2,0:0|0:2,0:0:0:0:
409,207,172497,2,0,P|403:169|400:132,1,75,8|2,0:0|0:2,0:0:0:0:
498,202,172813,6,0,P|490:238|483:283,1,75,0|2,0:0|0:2,0:0:0:0:
404,357,173129,2,0,P|398:319|389:283,1,75,8|2,0:0|0:2,0:0:0:0:
313,235,173445,2,0,L|231:248,2,75,0|0|8,1:0|1:0|0:0,0:0:0:0:
261,160,173918,6,0,B|211:161|211:161|166:144|166:144|113:144,1,150,4|2,0:0|1:2,0:0:0:0:
36,190,174392,2,0,P|16:237|16:275,1,75,8|2,0:0|0:2,0:0:0:0:
75,327,174708,2,0,P|95:280|95:242,1,75,0|2,0:0|0:2,0:0:0:0:
195,234,175024,2,0,P|178:267|173:304,1,75,8|2,0:0|0:2,0:0:0:0:
271,311,175339,6,0,B|326:313|326:313|367:302|367:302|425:306,2,150,0|8|0,0:0|0:0|0:0,0:0:0:0:
199,255,176129,1,2,0:2:0:0:
111,276,176287,2,0,L|98:188,1,75,8|2,0:0|0:2,0:0:0:0:
163,137,176602,6,0,B|201:123|229:140|229:140|248:130|248:130|283:145|331:135,1,150,4|8,0:0|0:0,0:0:0:0:
378,82,177076,2,0,P|342:138|379:223,1,150,2|2,0:2|0:2,0:0:0:0:
449,177,177550,1,8,0:0:0:0:
509,243,177708,1,0,0:0:0:0:
464,320,177866,6,0,B|409:332|409:332|371:320|371:320|313:330,1,150,4|8,0:0|0:0,0:0:0:0:
236,368,178339,2,0,P|278:317|237:227,1,150,2|4,0:2|0:3,0:0:0:0:
178,197,178813,1,8,1:0:0:0:
244,136,178971,6,0,P|304:112|393:151,1,150,4|2,0:0|0:2,0:0:0:0:
446,199,179445,2,0,P|463:165|467:128,1,75,8|2,0:0|0:2,0:0:0:0:
366,221,179760,2,0,P|370:258|386:291,1,75,0|2,0:0|0:2,0:0:0:0:
298,312,180076,2,0,L|217:301,1,75,8|2,0:0|0:2,0:0:0:0:
143,258,180392,6,0,P|118:191|160:118,2,150,0|8|0,0:0|0:0|0:0,0:0:0:0:
223,301,181181,1,0,0:0:0:0:
296,249,181339,2,0,L|386:243,1,75,8|2,0:0|0:2,0:0:0:0:
431,176,181655,6,0,L|453:134,3,37.5,0|0|2|0,0:0|0:0|0:2|0:0,0:0:0:0:
491,129,181971,2,0,L|484:79,3,37.5,8|0|2|0,0:0|0:0|0:2|0:0,0:0:0:0:
468,49,182287,2,0,B|431:41|431:41|396:51|396:51|356:42|306:48,1,150,0|8,0:0|0:0,0:0:0:0:
204,26,182760,6,0,P|191:65|192:111,1,75,2|0,0:2|0:0,0:0:0:0:
253,162,183076,1,2,0:2:0:0:
342,156,183234,2,0,L|386:138,3,37.5,8|0|2|0,0:0|0:0|0:2|0:0,0:0:0:0:
413,169,183550,2,0,L|454:176,3,37.5,0|0|2|0,0:0|0:0|0:2|0:0,0:0:0:0:
472,214,183866,1,8,0:0:0:0:
440,298,184024,6,0,P|372:331|293:296,1,150,6|0,0:0|0:0,0:0:0:0:
225,265,184497,2,0,P|216:217|219:184,1,75,14|0,0:0|0:0,0:0:0:0:
307,176,184813,2,0,P|316:128|313:95,1,75,14|0,0:0|0:0,0:0:0:0:
240,26,185129,2,0,P|231:74|234:107,1,75,14|0,0:0|0:0,0:0:0:0:
307,176,185445,6,0,P|344:191|394:191,1,75,14|0,0:0|0:0,0:0:0:0:
448,134,185760,2,0,L|526:123,1,75,14|0,0:0|0:0,0:0:0:0:
437,53,186076,2,0,L|359:42,1,75,14|0,0:0|0:0,0:0:0:0:
290,97,186392,2,0,P|238:97|195:103,1,75,14|0,0:0|0:0,0:0:0:0:
148,161,186708,6,0,L|62:149,1,75,14|0,0:0|0:0,0:0:0:0:
93,238,187024,2,0,L|179:250,1,75,14|0,0:0|0:0,0:0:0:0:
245,201,187339,1,4,0:3:0:0:
307,265,187497,1,0,0:0:0:0:
378,209,187655,2,0,L|457:202,1,75,12|0,0:0|0:0,0:0:0:0:
494,123,187971,5,14,0:0:0:0:
504,33,188129,1,12,0:0:0:0:
341,108,188445,5,12,0:0:0:0:
331,198,188602,1,12,0:0:0:0:
422,42,188918,5,12,0:0:0:0:
275,146,189234,5,4,0:0:0:0:
414,102,193655,6,0,P|455:138|454:217,2,112.5,8|8|4,0:3|0:3|0:3,0:0:0:0:
331,140,194287,6,0,L|249:123,1,75,4|0,0:3|0:0,0:0:0:0:
187,179,194602,2,0,L|101:182,1,75,2|0,0:0|0:0,0:0:0:0:
22,167,194918,2,0,P|11:131|10:93,1,75,0|0,0:0|0:0,0:0:0:0:
112,182,195234,2,0,P|111:219|100:255,1,75,2|0,0:0|0:0,0:0:0:0:
174,308,195550,6,0,L|267:297,1,75,0|0,0:0|0:0,0:0:0:0:
307,230,195866,2,0,L|381:238,1,75,2|0,0:0|0:0,0:0:0:0:
249,299,196181,2,0,P|218:226|250:160,1,150,0|2,0:0|0:0,0:0:0:0:
324,122,196655,1,0,0:0:0:0:
324,122,196813,6,0,L|417:116,2,75,0|0|2,0:0|0:0|0:0,0:0:0:0:
245,76,197287,2,0,L|152:70,2,75,0|0|0,0:0|0:0|0:0,0:0:0:0:
199,153,197760,2,0,P|180:197|178:232,1,75,2|0,0:0|0:0,0:0:0:0:
235,293,198076,5,0,0:0:0:0:
235,293,198234,2,0,P|305:322|385:289,1,150,0|0,0:0|0:0,0:0:0:0:
427,227,198708,2,0,L|435:136,1,75,2|0,0:0|0:0,0:0:0:0:
356,103,199024,2,0,L|349:177,1,75,2|0,0:0|0:0,0:0:0:0:
251,227,199339,6,0,P|179:237|127:184,1,150,4|2,0:0|0:2,0:0:0:0:
58,106,199813,1,0,0:0:0:0:
58,106,199971,2,0,L|50:193,1,75,0|0,0:0|0:0,0:0:0:0:
140,104,200287,2,0,L|146:29,1,75,2|0,0:2|0:0,0:0:0:0:
229,92,200602,6,0,B|222:150|222:150|242:186|242:186|236:251,1,150,0|2,0:0|0:2,0:0:0:0:
322,268,201076,1,0,0:0:0:0:
322,268,201234,2,0,L|411:257,1,75,0|0,0:0|0:0,0:0:0:0:
472,181,201550,2,0,L|383:170,1,75,2|0,0:2|0:0,0:0:0:0:
272,109,201866,6,0,P|225:163|243:244,1,150,8|0,0:0|0:0,0:0:0:0:
300,299,202339,1,0,0:0:0:0:
373,247,202497,1,8,0:0:0:0:
373,247,202655,1,8,0:0:0:0:
456,280,202813,2,0,P|485:316|494:350,1,75,8|8,0:0|0:0,0:0:0:0:
512,219,203129,6,0,L|500:160,3,37.5,0|0|0|0,0:0|0:0|0:0|0:0,0:0:0:0:
470,147,203445,2,0,L|430:125,3,37.5,0|0|0|0,0:0|0:0|0:0|0:0,0:0:0:0:
387,127,203760,5,4,0:0:0:0:
172,84,206287,6,0,L|219:63,3,37.5,4|0|8|8,0:0|0:0|0:0|0:3,0:0:0:0:
126,79,206602,2,0,P|88:130|96:178,1,112.5,8|4,0:3|0:3,0:0:0:0:
106,192,206918,6,0,P|114:229|116:267,1,75,6|0,1:2|0:0,0:0:0:0:
195,311,207234,2,0,P|197:273|204:236,1,75,8|0,0:0|0:0,0:0:0:0:
292,219,207550,2,0,L|286:123,1,75,2|0,1:2|0:0,0:0:0:0:
375,76,207866,2,0,L|370:150,1,75,8|0,0:0|0:0,0:0:0:0:
421,237,208181,6,0,P|366:197|285:227,1,150,2|8,1:2|0:0,0:0:0:0:
219,272,208655,1,0,0:0:0:0:
219,272,208813,2,0,L|214:181,1,75,2|0,1:2|0:0,0:0:0:0:
138,148,209129,2,0,L|133:222,1,75,8|0,0:0|0:0,0:0:0:0:
64,129,209445,6,0,P|112:75|183:87,1,150,4|8,0:0|0:0,0:0:0:0:
249,148,209918,1,0,0:0:0:0:
330,110,210076,2,0,L|419:103,1,75,2|0,1:2|0:0,0:0:0:0:
490,173,210392,2,0,L|401:180,1,75,8|0,0:0|0:0,0:0:0:0:
334,219,210708,6,0,L|254:213,2,75,2|0|8,1:2|0:0|0:0,0:0:0:0:
415,178,211181,1,0,0:0:0:0:
437,91,211339,2,0,P|366:53|288:101,1,150,2|8,1:2|0:0,0:0:0:0:
144,254,211971,6,0,P|113:188|141:121,1,150,6|8,0:0|0:0,0:0:0:0:
230,87,212445,1,0,0:0:0:0:
230,87,212602,2,0,P|260:152|232:219,1,150,2|8,1:2|0:0,0:0:0:0:
283,294,213076,1,0,0:0:0:0:
283,294,213234,6,0,L|379:285,1,75,2|0,1:2|0:0,0:0:0:0:
447,298,213550,2,0,P|466:251|467:216,1,75,8|0,0:0|0:0,0:0:0:0:
400,127,213866,2,0,L|390:218,1,75,2|0,0:0|0:0,0:0:0:0:
316,140,214181,2,0,L|324:65,1,75,10|0,0:0|0:0,0:0:0:0:
221,135,214497,6,0,B|212:194|212:194|227:223|227:223|219:302,1,150,6|8,0:0|0:0,0:0:0:0:
150,337,214971,1,0,0:0:0:0:
80,280,215129,2,0,P|41:273|0:271,2,75,2|0|8,1:2|0:0|0:0,0:0:0:0:
150,337,215602,1,0,0:0:0:0:
225,287,215760,6,0,P|260:275|297:271,1,75,2|0,1:2|0:0,0:0:0:0:
374,318,216076,2,0,P|386:277|381:239,1,75,8|0,0:0|0:0,0:0:0:0:
309,192,216392,2,0,L|301:103,1,75,2|0,1:2|0:0,0:0:0:0:
390,52,216708,2,0,L|383:126,1,75,8|0,0:0|0:0,0:0:0:0:
309,192,217024,6,0,P|241:222|172:186,1,150,4|8,0:0|0:0,0:0:0:0:
113,126,217497,1,0,0:0:0:0:
35,172,217655,2,0,L|23:249,1,75,2|0,1:2|0:0,0:0:0:0:
97,320,217971,2,0,L|108:245,1,75,8|0,0:0|0:0,0:0:0:0:
194,185,218287,6,0,L|285:178,1,75,6|0,0:0|0:0,0:0:0:0:
362,261,218602,2,0,L|271:254,1,75,8|0,0:0|0:0,0:0:0:0:
405,188,218918,2,0,L|496:181,1,75,2|0,1:2|0:0,0:0:0:0:
362,261,219234,2,0,P|324:220|326:163,1,112.5,12|0,0:0|2:0,0:0:0:0:
331,148,219550,6,0,P|267:112|197:141,1,150,6|8,0:0|0:0,0:0:0:0:
159,221,220024,1,2,0:0:0:0:
159,221,220181,2,0,L|150:305,1,75,0|0,1:0|0:0,0:0:0:0:
71,252,220497,2,0,L|63:177,1,75,10|0,0:0|0:0,0:0:0:0:
132,118,220813,6,0,P|141:69|138:36,1,75,0|2,1:0|0:0,0:0:0:0:
44,132,221129,2,0,P|77:192|163:199,1,150,8|2,0:0|1:2,0:0:0:0:
223,147,221602,1,0,0:0:0:0:
223,147,221760,2,0,L|316:137,1,75,10|0,0:0|0:0,0:0:0:0:
411,170,222076,6,0,P|432:200|438:237,1,75,4|0,0:0|0:0,0:0:0:0:
380,307,222392,2,0,P|358:276|352:239,1,75,12|0,0:0|0:0,0:0:0:0:
270,200,222708,2,0,P|271:237|256:271,1,75,4|0,0:0|0:0,0:0:0:0:
171,301,223024,1,8,0:0:0:0:
192,173,223181,6,0,P|237:126|324:145,1,150,6|0,0:0|0:0,0:0:0:0:
388,191,223655,1,8,0:0:0:0:
377,280,223813,2,0,P|332:327|245:308,1,150,0|0,1:0|1:0,0:0:0:0:
177,248,224287,2,0,L|150:212,3,37.5,4|0|4|0,0:2|0:0|0:3|0:0,0:0:0:0:
109,223,224602,6,0,P|100:263|102:301,1,75,4|2,0:0|0:0,0:0:0:0:
25,207,224918,2,0,L|18:126,1,75,8|2,0:0|1:2,0:0:0:0:
139,61,225234,1,0,1:2:0:0:
104,146,225392,1,2,0:0:0:0:
205,98,225550,2,0,P|244:90|288:88,1,75,8|2,0:0|0:0,0:0:0:0:
350,142,225866,6,0,P|358:178|362:224,1,75,0|2,1:0|0:0,0:0:0:0:
433,160,226181,2,0,P|436:122|444:86,1,75,8|2,0:0|1:2,0:0:0:0:
507,186,226497,2,0,L|512:272,1,75,0|2,1:0|0:0,0:0:0:0:
428,314,226813,2,0,L|432:239,1,75,8|0,0:0|0:0,0:0:0:0:
357,148,227129,6,0,P|285:116|206:166,1,150,0|8,1:0|0:0,0:0:0:0:
190,225,227602,1,2,1:2:0:0:
120,168,227760,2,0,L|112:89,1,75,0|2,1:0|0:0,0:0:0:0:
29,162,228076,2,0,L|21:236,1,75,8|2,0:0|0:0,0:0:0:0:
105,303,228392,6,0,P|159:338|243:307,1,150,0|8,1:0|0:0,0:0:0:0:
289,241,228866,1,2,1:2:0:0:
377,224,229024,2,0,P|389:262|391:300,1,75,0|2,1:0|0:0,0:0:0:0:
289,241,229339,2,0,P|291:203|303:168,1,75,8|2,0:0|0:0,0:0:0:0:
397,127,229655,6,0,P|331:146|274:75,1,150,4|8,0:0|0:0,0:0:0:0:
209,31,230129,1,2,1:2:0:0:
209,31,230287,2,0,L|193:133,1,75,0|2,1:0|0:0,0:0:0:0:
113,136,230602,2,0,L|129:238,1,75,8|0,0:0|0:0,0:0:0:0:
82,290,230918,6,0,P|119:243|212:263,1,150,0|8,1:0|0:0,0:0:0:0:
261,320,231392,1,2,1:2:0:0:
261,320,231550,2,0,P|331:334|380:282,1,150,0|8,1:0|0:0,0:0:0:0:
298,121,232181,6,0,P|240:101|163:156,1,150,4|8,0:0|0:0,0:0:0:0:
245,194,232655,1,2,1:2:0:0:
245,194,232813,2,0,P|278:129|233:49,1,150,0|8,1:0|0:0,0:0:0:0:
169,21,233287,1,2,0:0:0:0:
89,62,233445,6,0,P|67:92|58:128,1,75,0|2,1:0|0:0,0:0:0:0:
150,206,233760,2,0,L|139:125,1,75,8|2,0:0|0:0,0:0:0:0:
65,209,234076,2,0,L|54:283,1,75,0|2,1:2|0:0,0:0:0:0:
170,285,234392,2,0,P|211:264|226:236,1,75,8|2,0:0|0:0,0:0:0:0:
285,143,234708,6,0,L|302:237,1,75,4|0,0:2|0:0,0:0:0:0:
366,149,235024,2,0,P|370:102|375:70,1,75,8|0,0:0|0:0,0:0:0:0:
446,129,235339,2,0,P|454:162|457:207,2,75,2|0|8,1:2|0:0|0:0,0:0:0:0:
374,74,235813,1,0,0:0:0:0:
293,114,235971,6,0,P|256:125|189:119,1,75,6|0,0:0|0:0,0:0:0:0:
131,146,236287,2,0,P|145:180|174:203,1,75,8|0,0:0|0:0,0:0:0:0:
280,188,236602,2,0,L|294:110,1,75,12|0,0:0|1:0,0:0:0:0:
175,203,236918,2,0,P|179:241|188:276,1,75,8|0,0:0|0:0,0:0:0:0:
287,319,237234,6,0,L|372:322,2,75,8|8|8,1:3|1:3|0:0,0:0:0:0:
202,284,237708,1,8,0:3:0:0:
202,284,237866,2,0,L|116:276,1,75,0|0,1:0|0:0,0:0:0:0:
39,202,238181,2,0,P|34:242|47:290,1,75,6|0,0:0|0:0,0:0:0:0:
132,199,238497,6,0,L|141:118,1,75,0|0,1:0|1:0,0:0:0:0:
214,71,238813,2,0,L|222:145,1,75,8|4,0:0|0:3,0:0:0:0:
306,178,239129,2,0,L|314:103,1,75,4|12,0:3|0:0,0:0:0:0:
240,227,239445,2,0,P|271:252|349:244,1,112.5,4|0,0:0|0:0,0:0:0:0:
356,235,239760,6,0,P|398:224|449:236,1,75,6|0,1:2|0:0,0:0:0:0:
501,143,240076,2,0,L|422:137,1,75,8|0,0:0|0:0,0:0:0:0:
382,45,240392,2,0,P|385:115|315:152,1,150,6|8,1:2|0:0,0:0:0:0:
245,106,240866,1,0,0:0:0:0:
163,144,241024,6,0,L|147:227,1,75,6|0,1:2|0:0,0:0:0:0:
236,240,241339,2,0,P|295:201|373:225,1,150,8|2,0:0|1:2,0:0:0:0:
437,277,241813,1,0,0:0:0:0:
367,334,241971,1,10,0:0:0:0:
490,332,242129,6,0,P|514:264|446:201,1,150
374,152,242602,2,0,P|373:192|377:231,1,75,12|0,0:0|0:0,0:0:0:0:
293,264,242918,2,0,P|296:226|295:189,1,75,6|0,0:0|0:0,0:0:0:0:
209,130,243234,2,0,L|218:222,1,75,12|0,0:0|0:0,0:0:0:0:
103,238,243550,5,12,0:0:0:0:
184,291,243708,1,12,0:0:0:0:
75,246,243866,2,0,P|52:195|56:153,1,75,0|12,0:0|0:0,0:0:0:0:
149,96,244181,2,0,P|99:131|14:100,1,150,14|14,0:2|0:2,0:0:0:0:
81,30,244655,5,4,0:0:0:0:
256,192,244734,12,4,247181,0:0:0:0:
