osu file format v14

[General]
AudioFilename: MP3 LIKE THE JUSTICE.mp3
AudioLeadIn: 0
PreviewTime: 75650
Countdown: 0
SampleSet: Normal
StackLeniency: 0.7
Mode: 0
LetterboxInBreaks: 1
EpilepsyWarning: 1
WidescreenStoryboard: 1

[Editor]
Bookmarks: 10519,30887,67993,74308,75414,76835,97124,106677,124756,136834,172360,182782,192414,223361,224624,225887,227151,228414,229677,230940,232203,233466,234730,235993,237256,238598,239782,241045
DistanceSpacing: 1.2
BeatDivisor: 2
GridSize: 4
TimelineZoom: 2.3

[Metadata]
Title:IMAGINARY LIKE THE JUSTICE
TitleUnicode:IMAGINARY LIKE THE JUSTICE
Artist:Nanahoshi Kangengakudan
ArtistUnicode:ナナホシ管弦楽団
Creator:Faan
Version:Normal
Source:
Tags:Best Leesinged Borokuzu lZenxl Z3nx megpoid gumi vocaloid Orchestra Illicit Sexual Relations 不純異性交遊P hujuniseikouyuup fujuniseikouyuup Monaka モナカ EXIT TUNES PRESENTS Storytellers RPG Vocarock Orchestra
BeatmapID:402615
BeatmapSetID:164068

[Difficulty]
HPDrainRate:4.5
CircleSize:3.5
OverallDifficulty:4.5
ApproachRate:5
SliderMultiplier:0.999999999999999
SliderTickRate:1

[Events]
//Background and Video events
0,0,"BG.jpg",0,0
//Break Periods
2,99613,105476
2,165297,174002
2,187876,191213
//Storyboard Layer 0 (Background)
//Storyboard Layer 1 (Fail)
//Storyboard Layer 2 (Pass)
//Storyboard Layer 3 (Foreground)
//Storyboard Sound Samples

[TimingPoints]
1045,315.789473684211,4,1,1,80,1,0
22360,-100,4,1,1,80,0,0
26151,-100,4,1,1,80,0,0
27414,-100,4,1,1,80,0,0
29782,-100,4,2,0,80,0,0
31045,-100,4,1,1,80,0,0
36256,-100,4,1,1,80,0,0
38782,-100,4,1,1,80,0,0
46361,-100,4,1,1,80,0,0
74308,-100,4,3,1,40,0,0
74624,-100,4,3,1,50,0,0
74940,-100,4,3,1,60,0,0
75256,-100,4,3,1,70,0,0
75572,-100,4,1,1,80,0,0
75730,-100,4,2,1,50,0,0
76834,-100,4,1,2,75,0,1
76914,-100,4,1,1,100,0,1
99255,-100,4,1,1,80,0,0
137861,-100,4,1,1,40,0,0
138730,-100,4,1,1,80,0,0
139993,-100,4,3,1,40,0,0
140308,-100,4,3,1,50,0,0
140624,-100,4,3,1,60,0,0
140940,-100,4,3,1,70,0,0
141256,-100,4,1,1,80,0,0
141414,-100,4,2,1,50,0,0
142518,-100,4,1,2,75,0,1
142598,-100,4,1,1,100,0,1
164939,-100,4,1,1,80,0,0
167466,-100,4,3,2,80,0,0
175203,-100,4,1,1,80,0,0
177730,-100,4,3,1,80,0,0
183256,-100,4,1,1,80,0,0
202518,-100,4,2,1,80,0,0
203151,-100,4,2,1,50,0,0
205045,-100,4,3,1,70,0,0
205676,-100,4,1,1,85,0,1
223361,-100,4,1,2,100,0,1
223440,-100,4,1,1,100,0,1
245781,-100,4,1,1,70,0,0

[Colours]
Combo1 : 0,255,128
Combo2 : 0,255,0
Combo3 : 0,255,255
Combo4 : 242,24,57
Combo5 : 0,128,0
Combo6 : 255,255,0
Combo7 : 128,128,128
Combo8 : 172,255,81

[HitObjects]
255,190,10518,5,0,0:0:0:0:
196,364,10992,6,0,P|136:336|88:256,1,150,0|8,0:0|0:0,0:0:0:0:
100,144,11781,1,2,0:0:0:0:
0,76,12097,6,0,P|24:52|52:32,1,50,8|0,0:0|0:0,0:0:0:0:
216,16,12729,2,0,P|256:24|304:80,2,99.9999999999999,8|0|8,0:0|0:0|0:0,0:0:0:0:
160,36,13518,1,0,0:0:0:0:
52,180,13992,6,0,P|44:224|76:284,1,99.9999999999999,8|0,0:0|0:0,0:0:0:0:
232,344,14781,2,0,P|305:352|367:312,1,150,0|8,0:0|0:0,0:0:0:0:
412,272,15413,2,0,P|432:196|396:124,1,150,0|8,0:0|0:0,0:0:0:0:
368,84,16045,86,0,P|307:45|223:58,1,150,0|8,0:0|0:0,0:0:0:0:
280,164,16834,2,8,P|300:220|268:268,1,99.9999999999999,0|8,0:0|0:0,0:0:0:0:
244,300,17308,2,0,P|168:312|112:224,1,150,0|8,0:0|0:0,0:0:0:0:
96,148,18097,6,0,P|204:96|248:96,1,150,8|0,0:0|0:0,0:0:0:0:
352,120,18887,2,0,L|408:148,1,50,0|8,0:0|0:0,0:0:0:0:
508,92,19360,2,8,L|384:28,1,99.9999999999999,0|8,0:0|0:0,0:0:0:0:
364,24,19834,6,0,L|212:72,1,150,4|8,0:0|0:0,0:0:0:0:
124,140,20623,2,0,L|64:272,1,99.9999999999999,0|8,0:0|0:0,0:0:0:0:
65,288,21097,2,0,P|173:312|213:300,1,150,0|8,0:0|0:0,0:0:0:0:
304,236,21887,86,0,L|348:204,2,50,0|0|8,0:0|0:0|0:0,0:0:0:0:
244,227,22360,2,8,P|160:187|128:123,1,150
101,23,23150,2,8,P|69:22|41:7,2,50,0|0|8,0:0|0:0|0:0,0:0:0:0:
160,25,23623,2,0,P|268:41|320:89,1,150,0|8,0:0|0:0,0:0:0:0:
392,139,24413,6,8,L|436:171,2,50,0|0|8,0:0|0:0|0:0,0:0:0:0:
340,168,24887,2,0,B|316:236|244:192|208:260,1,150,0|8,0:0|0:0,0:0:0:0:
192,364,25676,2,0,P|131:334|112:302,1,99.9999999999999,0|8,0:0|0:0,0:0:0:0:
82,257,26150,6,0,P|60:188|88:96,1,150,0|8,0:0|0:0,0:0:0:0:
144,16,26939,2,8,L|80:-4,2,50,0|0|8,0:0|0:0|0:0,0:0:0:0:
200,36,27413,2,0,P|260:68|308:140,1,150,0|8,0:0|0:0,0:0:0:0:
304,256,28202,2,0,P|256:246|212:204,1,99.9999999999999,0|8,0:0|0:0,3:0:0:0:
172,176,28676,86,0,P|100:248|128:280,1,150,0|8,0:0|0:0,0:0:0:0:
212,336,29466,2,0,P|284:360|328:352,1,99.9999999999999,0|12,0:0|0:0,0:0:0:0:
420,320,30097,5,0,0:0:0:0:
444,204,30413,1,8,0:0:0:0:
322,173,30729,2,0,P|264:168|208:176,1,99.9999999999999,0|8,0:0|0:0,0:0:0:0:
164,188,31202,6,0,P|120:148|156:68,1,150,0|8,0:0|0:0,0:0:0:0:
264,40,31992,1,0,0:0:0:0:
384,40,32308,2,0,L|452:20,2,50,8|0|0,0:0|0:0|0:0,0:0:0:0:
381,160,32939,2,0,P|334:143|313:148,1,50,8|0,0:0|0:0,0:0:0:0:
278,248,33413,86,0,L|234:300,2,50,0|8|0,0:0|0:0|0:0,0:0:0:0:
333,223,33887,2,0,P|385:262|402:305,1,99.9999999999999,0|8,0:0|0:0,0:0:0:0:
296,354,34518,2,0,P|252:378|168:358,1,99.9999999999999,0|8,0:0|0:0,0:0:0:0:
198,256,35150,1,0,0:0:0:0:
112,174,35466,1,8,0:0:0:0:
92,295,35781,2,0,P|44:279|8:231,1,99.9999999999999,0|8,0:0|0:0,0:0:0:0:
1,183,36255,6,0,P|44:88|141:63,1,200,0|0,0:0|0:0,3:0:0:0:
236,115,37202,2,8,L|267:154,1,50
288,210,37518,2,0,P|252:298|148:334,1,200
185,220,38466,1,0,0:0:0:0:
87,150,38781,2,0,P|72:99|90:52,1,99.9999999999999
146,68,39255,2,0,P|197:83|244:65,2,99.9999999999999,8|0|8,0:0|0:0|0:0,0:0:0:0:
106,22,40045,5,0,0:0:0:0:
28,112,40360,1,2,0:0:0:0:
59,227,40676,2,0,P|103:195|107:163,2,50,0|0|0,0:0|0:0|0:0,0:0:0:0:
20,340,41308,1,4,0:0:0:0:
136,304,41623,86,0,P|198:343|272:344,1,150
328,364,42255,2,0,P|356:332|364:240,1,99.9999999999999
256,236,42887,2,0,P|280:192|332:161,1,99.9999999999999
380,158,43360,2,0,P|428:169|472:211,1,99.9999999999999
375,281,43992,1,0,0:0:0:0:
270,339,44308,1,8,0:0:0:0:
155,305,44623,2,8,P|84:326|16:298,1,150,0|0,0:0|0:0,0:0:0:0:
90,203,45413,2,0,L|75:129,1,50,0|8,0:0|0:0,0:0:0:0:
200,153,45887,6,8,L|260:153,2,50,0|0|8,0:0|0:0|0:0,0:0:0:0:
160,108,46360,1,0,0:0:0:0:
56,48,46676,2,0,L|2:-5,2,50,0|8|0,0:0|0:0|0:0,0:0:0:0:
28,164,47308,2,0,P|20:216|0:260,1,99.9999999999999
112,240,47939,2,0,L|112:324,2,50,0|8|0,0:0|0:0|0:0,0:0:0:0:
168,216,48413,86,0,P|236:232|324:200,1,150,0|0,0:0|0:0,0:0:0:0:
400,128,49202,2,0,L|433:91,2,50,0|8|0,0:0|0:0|0:0,0:0:0:0:
412,248,49834,2,0,L|460:236,2,50,0|8|0,0:0|0:0|0:0,0:0:0:0:
468,354,50466,2,0,L|368:354,1,99.9999999999999,0|0,0:0|0:0,0:0:0:0:
309,338,50939,1,0,0:0:0:0:
188,363,51255,1,8,0:0:0:0:
134,337,51413,6,0,P|96:273|97:191,1,150,0|8,0:0|0:0,0:0:0:0:
188,116,52202,2,0,L|248:116,2,50,0|0|8,0:0|0:0|0:0,0:0:0:0:
128,112,52676,2,0,P|46:130|4:194,1,150,0|8,0:0|0:0,0:0:0:0:
16,300,53466,2,0,P|57:327|164:316,1,150,0|0,0:0|0:0,0:0:0:0:
260,268,54255,6,0,L|324:280,1,50,0|8,0:0|0:0,0:0:0:0:
382,372,54729,2,0,P|462:352|498:288,1,150,0|0,0:0|0:0,0:0:0:0:
476,188,55518,2,0,L|452:141,1,50,0|8,0:0|0:0,0:0:0:0:
328,84,55992,2,0,P|293:194|311:242,1,150,0|0,0:0|0:0,0:0:0:0:
340,336,56781,1,0,0:0:0:0:
396,357,56939,6,0,P|460:320|467:282,1,99.9999999999999,8|0,0:0|0:0,0:0:0:0:
483,241,57413,2,0,L|459:123,1,99.9999999999999
356,80,58045,1,0,0:0:0:0:
236,92,58360,1,0,0:0:0:0:
269,209,58676,2,0,P|219:216|172:203,1,99.9999999999999
60,160,59308,2,0,P|54:213|74:273,1,99.9999999999999
127,363,59939,2,0,L|239:352,1,99.9999999999999
329,290,60571,86,0,P|343:234|300:148,1,150,0|0,0:0|0:0,0:0:0:0:
260,116,61202,2,0,P|208:104|156:124,1,99.9999999999999
168,238,61834,2,0,L|126:302,1,50,0|8,0:0|0:0,0:0:0:0:
26,253,62308,1,0,0:0:0:0:
43,134,62623,1,8,0:0:0:0:
159,162,62939,6,0,P|220:194|247:231,1,99.9999999999999,0|8,0:0|0:0,0:0:0:0:
288,327,63571,2,0,P|325:302|357:240,1,99.9999999999999,0|8,0:0|0:0,0:0:0:0:
364,136,64202,2,0,P|413:118|481:118,2,99.9999999999999,0|8|0,0:0|0:0|0:0,0:0:0:0:
272,216,65150,1,8,0:0:0:0:
152,200,65466,1,0,0:0:0:0:
114,86,65781,2,0,P|162:78|218:97,1,99.9999999999999,8|0,0:0|0:0,0:0:0:0:
260,128,66255,102,0,L|316:172,1,50,0|8,0:0|0:0,0:0:0:0:
360,168,66571,2,0,P|424:132|456:64,1,150,0|8,0:0|0:0,0:0:0:0:
336,56,67360,1,0,0:0:0:0:
336,56,67676,1,8,0:0:0:0:
216,76,67992,2,0,P|232:128|292:164,1,99.9999999999999,0|8,0:0|0:0,0:0:0:0:
372,212,68623,2,0,L|424:240,2,50,0|0|8,0:0|0:0|0:0,0:0:0:0:
256,236,69255,1,0,0:0:0:0:
136,268,69571,1,8,0:0:0:0:
192,376,69887,2,0,L|304:380,1,99.9999999999999,0|8,0:0|0:0,0:0:0:0:
352,376,70360,6,0,P|416:320|440:240,1,150,0|8,0:0|0:0,0:0:0:0:
372,144,71150,2,0,L|428:120,2,50,0|0|8,0:0|0:0|0:0,0:0:0:0:
324,184,71623,2,0,P|300:240|204:276,1,150,4|8,0:0|0:0,0:0:0:0:
112,232,72413,1,0,0:0:0:0:
132,116,72729,2,8,P|184:104|232:120,1,99.9999999999999,8|0,0:0|0:0,0:0:0:0:
292,224,73360,2,0,P|288:256|284:284,1,50,8|0,0:0|0:0,0:0:0:0:
212,356,73834,1,0,0:0:0:0:
151,354,73992,6,0,L|87:326,2,50,8|0|0,0:0|0:0|0:0,0:0:0:0:
136,234,74623,1,8,0:0:0:0:
244,180,74939,1,0,0:0:0:0:
324,92,75255,1,10,0:0:0:0:
396,188,75571,22,0,B|444:232|416:296|416:296,1,99.9999999999999,0|8,0:0|0:0,0:0:0:0:
324,348,76202,2,0,L|216:332,1,99.9999999999999,0|8,0:0|0:0,0:0:0:0:
124,268,76834,38,0,P|96:196|104:148,1,99.9999999999999,4|8,0:0|0:0,2:0:0:0:
184,92,77466,2,0,P|209:133|216:182,1,99.9999999999999,0|8,0:0|0:0,2:0:0:0:
220,304,78097,2,0,P|303:268|323:229,1,99.9999999999999,0|8,0:0|0:0,0:0:0:0:
376,160,78729,2,0,P|406:159|429:152,2,50,0|0|8,0:0|0:0|0:0,0:0:0:0:
328,48,79360,6,0,P|284:28|208:68,1,99.9999999999999,0|8,0:0|0:0,0:0:0:0:
164,136,79992,1,0,0:0:0:0:
280,172,80308,1,8,0:0:0:0:
216,272,80623,2,0,P|284:296|324:276,1,99.9999999999999,0|8,0:0|0:0,0:0:0:0:
408,220,81255,1,0,0:0:0:0:
500,296,81571,1,8,0:0:0:0:
496,176,81887,102,0,P|444:128|380:120,1,99.9999999999999,0|8,0:0|0:0,0:0:0:0:
296,116,82518,2,0,P|244:132|196:128,1,99.9999999999999,0|8,0:0|0:0,0:0:0:0:
97,64,83150,1,0,0:0:0:0:
26,161,83466,2,0,L|0:204,2,50,8|0|0,0:0|0:0|0:0,0:0:0:0:
140,196,84097,5,8,0:0:0:0:
76,296,84413,2,0,P|176:308|252:240,1,200,0|0,0:0|0:0,0:0:0:0:
248,128,85360,1,8,0:0:0:0:
332,212,85676,2,0,P|360:172|364:108,1,99.9999999999999,0|8,0:0|0:0,0:0:0:0:
282,36,86308,2,0,P|226:33|174:64,1,99.9999999999999,0|8,0:0|0:0,0:0:0:0:
139,161,86939,102,0,P|118:249|129:292,1,99.9999999999999
228,308,87571,2,0,P|264:224|260:180,1,99.9999999999999,0|8,0:0|0:0,0:0:0:0:
276,96,88202,1,0,0:0:0:0:
276,96,88518,1,8,0:0:0:0:
376,161,88834,2,0,P|360:177|328:193,2,50,0|0|8,0:0|0:0|0:0,0:0:0:0:
420,49,89466,6,0,P|485:111|493:147,1,99.9999999999999,0|8,0:0|0:0,3:0:0:0:
479,237,90097,2,0,P|417:302|381:310,1,99.9999999999999,0|8,0:0|0:0,3:0:0:0:
339,206,90729,2,0,P|323:225|291:239,2,50,0|0|8,0:0|0:0|0:0,0:0:0:0:
388,96,91360,1,0,0:0:0:0:
276,52,91676,101,8,0:0:0:0:
156,48,91992,2,0,B|152:104|192:168|268:172|268:172|260:264|224:292,1,300,0|8,0:0|0:0,0:0:0:0:
128,336,93255,2,0,P|116:276|128:228,1,99.9999999999999,0|8,0:0|0:0,0:0:0:0:
188,136,93887,1,2,0:0:0:0:
276,56,94202,1,10,0:0:0:0:
396,88,94518,6,0,P|459:121|482:179,1,99.9999999999999,0|8,0:0|0:0,0:0:0:0:
444,260,95150,2,0,P|396:234|369:187,1,99.9999999999999,0|8,0:0|0:0,0:0:0:0:
312,92,95781,1,0,0:0:0:0:
200,136,96097,2,0,P|164:188|164:252,1,99.9999999999999,8|0,0:0|0:0,0:0:0:0:
280,236,96729,2,0,L|276:304,1,50,8|0,0:0|0:0,0:0:0:0:
184,364,97202,1,0,0:0:0:0:
256,192,97360,12,4,99413,0:0:0:0:
200,64,106676,6,0,L|216:180,1,99.9999999999999
214,283,107308,2,0,L|250:336,1,50,0|8,0:0|0:0,0:0:0:0:
356,288,107781,1,0,0:0:0:0:
300,180,108097,2,0,L|368:160,2,50,8|0|0,0:0|0:0|0:0,0:0:0:0:
188,228,108729,2,0,P|164:252|144:280,1,50,8|0,0:0|0:0,0:0:0:0:
248,340,109202,6,0,P|312:368|376:316,1,150,0|0,0:0|0:0,0:0:0:0:
432,220,109992,2,0,L|464:176,2,50,8|0|0,0:0|0:0|0:0,0:0:0:0:
252,240,110781,2,0,L|192:256,1,50,0|0,0:0|0:0,0:0:0:0:
156,140,111255,1,8,0:0:0:0:
276,120,111571,1,0,0:0:0:0:
432,20,112045,86,0,P|460:68|448:168,1,150,0|8,0:0|0:0,0:0:0:0:
472,276,112834,2,0,P|424:274|375:249,1,99.9999999999999,0|8,0:0|0:0,0:0:0:0:
330,214,113308,1,0,0:0:0:0:
264,316,113623,2,0,L|306:352,2,50,0|8|0,0:0|0:0|0:0,0:0:0:0:
148,284,114255,2,0,L|156:348,2,50,0|8|0,0:0|0:0|0:0,0:0:0:0:
76,188,114887,2,0,L|40:248,2,50,0|8|0,0:0|0:0|0:0,0:0:0:0:
64,68,115518,2,0,L|-8:92,2,50,0|8|0,0:0|0:0|0:0,0:0:0:0:
364,36,116623,6,0,P|436:72|448:152,1,150,0|0,0:0|0:0,0:0:0:0:
386,235,117413,2,0,L|343:284,1,50,0|8,0:0|0:0,0:0:0:0:
236,312,117887,2,0,P|172:301|141:257,1,99.9999999999999,0|8,0:0|0:0,0:0:0:0:
128,220,118360,2,0,P|144:140|212:108,1,150,0|8,0:0|0:0,0:0:0:0:
224,228,119150,2,0,P|272:220|308:172,1,99.9999999999999,0|8,0:0|0:0,0:0:0:0:
332,128,119623,6,0,P|308:44|248:24,1,150,0|8,0:0|0:0,0:0:0:0:
140,56,120413,2,0,P|84:92|52:132,1,99.9999999999999,0|8,0:0|0:0,0:0:0:0:
32,168,120887,2,0,B|4:208|16:256|16:256|68:296,1,150,0|8,0:0|0:0,0:0:0:0:
172,340,121676,2,0,P|232:356|308:324,1,99.9999999999999,0|8,0:0|0:0,0:0:0:0:
324,324,122150,2,0,B|380:296|396:260|396:260|372:212,1,150,0|8,0:0|0:0,0:0:0:0:
328,100,122939,2,0,L|368:60,2,50,0|0|8,0:0|0:0|0:0,0:0:0:0:
290,146,123413,85,0,0:0:0:0:
211,236,123729,1,0,0:0:0:0:
302,315,124045,1,0,0:0:0:0:
381,225,124360,2,0,L|444:270,2,50
302,315,124992,2,0,L|325:360,2,50,0|8|0,0:0|0:0|0:0,0:0:0:0:
186,282,125623,2,0,L|170:370,2,50,0|8|0,0:0|0:0|0:0,0:0:0:0:
188,160,126255,6,0,P|284:108|372:152,1,200
440,232,127202,1,0,0:0:0:0:
343,302,127518,86,0,L|283:310,1,50,0|8,0:0|0:0,0:0:0:0:
168,256,127992,2,0,P|232:192|292:184,1,150,0|0,0:0|0:0,0:0:0:0:
404,148,128781,2,0,L|415:90,2,50,0|8|0,0:0|0:0|0:0,3:0:0:0:
408,268,129413,2,0,L|360:308,1,50,0|8,0:0|0:0,3:0:0:0:
312,312,129729,6,0,P|228:308|172:344,1,150,0|8,0:0|0:0,0:0:0:0:
60,308,130518,2,0,P|72:336|88:360,2,50,0|0|8,0:0|0:0|0:0,0:0:0:0:
52,248,130992,2,0,B|60:180|44:132|44:132|120:96,1,200
228,48,131939,6,0,L|308:68,1,50,0|8,0:0|0:0,0:0:0:0:
336,72,132255,2,0,B|312:123|312:123|322:171|322:171|263:185|263:185|289:239|289:239|247:277|247:277|247:298|247:298|214:345,1,350,0|8,0:0|0:0,0:0:0:0:
164,356,133518,2,0,P|84:340|16:268,1,150,0|8,0:0|0:0,0:0:0:0:
64,180,134308,2,0,P|31:173|-3:191,2,50,0|0|8,0:0|0:0|0:0,0:0:0:0:
116,208,134781,1,0,0:0:0:0:
224,259,135097,2,0,L|268:287,1,50,0|8,0:0|0:0,0:0:0:0:
348,196,135571,2,0,L|372:260,1,50,0|0,0:0|0:0,0:0:0:0:
460,316,136045,86,0,P|396:356|308:352,1,150,0|8,0:0|0:0,0:0:0:0:
212,312,136834,2,0,P|137:313|75:352,1,150,0|0,0:0|0:0,0:0:0:0:
160,196,137781,5,12,0:0:0:0:
40,200,138097,1,0,0:0:0:0:
80,88,138413,1,12,0:0:0:0:
180,24,138729,2,0,P|252:0|348:36,1,150,0|4,0:0|0:0,0:0:0:0:
256,116,139518,2,0,L|256:176,1,50,0|8,0:0|0:0,0:0:0:0:
184,264,139992,5,0,0:0:0:0:
296,312,140308,1,8,0:0:0:0:
404,260,140623,2,8,P|440:224|448:164,1,99.9999999999999,0|8,0:0|0:0,0:0:0:0:
408,64,141255,1,0,0:0:0:0:
104,56,142518,69,4,0:0:0:0:
204,124,142834,1,8,0:0:0:0:
264,228,143150,2,0,P|285:281|278:332,1,99.9999999999999,0|8,0:0|0:0,0:0:0:0:
164,294,143781,101,0,0:0:0:0:
164,294,144097,1,8,0:0:0:0:
47,322,144413,2,0,P|17:251|19:219,1,99.9999999999999,0|8,0:0|0:0,0:0:0:0:
134,201,145045,6,0,P|136:124|152:96,1,99.9999999999999,0|8,0:0|0:0,3:0:0:0:
252,164,145676,2,0,P|292:98|320:82,1,99.9999999999999,0|8,0:0|0:0,3:0:0:0:
432,80,146308,1,0,0:0:0:0:
492,184,146623,1,8,0:0:0:0:
492,304,146939,2,0,P|441:291|397:256,1,99.9999999999999,0|8,0:0|0:0,0:0:0:0:
288,296,147571,101,0,0:0:0:0:
168,304,147887,1,8,0:0:0:0:
84,212,148202,2,0,P|120:160|152:144,1,99.9999999999999,0|8,0:0|0:0,0:0:0:0:
230,235,148834,2,8,P|294:191|309:156,1,99.9999999999999,0|8,0:0|0:0,0:0:0:0:
263,59,149466,1,0,0:0:0:0:
144,40,149781,1,8,0:0:0:0:
52,124,150097,6,8,B|88:160|80:204|80:204|136:220|136:220|156:280,1,200,0|0,0:0|0:0,0:0:0:0:
264,324,151045,1,8,0:0:0:0:
384,308,151360,2,8,P|424:252|408:156,1,150,0|0,0:0|0:0,0:0:0:0:
384,124,151992,2,0,P|344:96|284:120,1,99.9999999999999,0|8,0:0|0:0,0:0:0:0:
208,188,152623,101,0,0:0:0:0:
104,248,152939,1,8,0:0:0:0:
40,148,153255,2,8,P|60:84|84:60,1,99.9999999999999,0|8,0:0|0:0,0:0:0:0:
160,156,153887,2,0,P|228:120|260:120,1,99.9999999999999,0|8,0:0|0:0,3:0:0:0:
364,156,154518,2,8,P|390:149|408:132,2,50,0|0|8,0:0|0:0|0:0,0:0:0:0:
380,276,155150,6,8,P|336:324|288:324,1,99.9999999999999,0|8,0:0|0:0,0:0:0:0:
188,304,155781,2,8,P|139:260|139:212,1,99.9999999999999,0|8,3:0|0:0,0:0:0:0:
184,116,156413,1,0,0:0:0:0:
116,16,156729,2,8,P|88:40|80:72,2,50,8|0|0,0:0|0:0|0:0,0:0:0:0:
236,24,157360,101,8,0:0:0:0:
348,64,157676,2,8,B|380:92|428:92|428:92|416:152|416:152|440:184|428:224,1,200,0|0,0:0|0:0,0:0:0:0:
260,260,158781,5,0,0:0:0:0:
204,244,158939,2,8,P|160:188|160:156,1,99.9999999999999,0|8,0:0|0:0,0:0:0:0:
140,44,159571,2,8,P|100:52|80:72,2,50,0|0|8,0:0|0:0|0:0,0:0:0:0:
260,36,160202,101,0,0:0:0:0:
256,156,160518,1,8,0:0:0:0:
260,276,160834,2,0,P|312:264|356:212,1,99.9999999999999,0|8,0:0|0:0,0:0:0:0:
424,140,161466,1,4,0:0:0:0:
500,236,161781,6,8,B|484:272|496:292|496:292|448:332,1,99.9999999999999,8|0,0:0|0:0,0:0:0:0:
348,356,162413,2,0,L|284:356,1,50,8|0,0:0|0:0,0:0:0:0:
172,336,162887,1,0,0:0:0:0:
256,192,163045,12,4,165097,0:0:0:0:
128,72,175202,38,8,P|92:132|80:220,1,150
188,264,175992,2,0,P|160:301|123:322,2,74.9999999999999,0|0|0,0:0|0:0|0:0,3:0:0:0:
216,208,176623,1,0,0:0:0:0:
228,88,176939,2,8,P|312:138|330:238,1,200,8|8,0:0|0:0,0:0:0:0:
305,287,177729,86,2,L|344:343,2,50,0|0|0,0:0|0:0|0:0,0:0:0:0:
187,261,178360,1,2,0:0:0:0:
94,184,178676,1,0,0:0:0:0:
94,63,178992,2,2,L|34:38,2,50,0|0|0,0:0|0:0|0:0,0:3:0:0:
208,100,179623,1,2,0:0:0:0:
274,200,179939,1,0,0:0:0:0:
175,268,180255,2,2,L|121:304,2,50,0|0|0,0:0|0:0|0:0,0:3:0:0:
294,269,180887,2,2,L|289:328,2,50,0|0|0,0:0|0:0|0:0,0:3:0:0:
336,156,181518,5,0,0:0:0:0:
304,104,181676,2,0,P|262:67|196:68,1,99.9999999999999,0|8,0:0|0:0,0:0:0:0:
216,180,182308,1,0,0:0:0:0:
68,252,182781,6,8,B|56:284|24:300|24:300|24:332|24:332|8:344|8:344|4:376,1,150,0|8,0:0|0:0,0:0:0:0:
124,360,183571,2,8,L|244:300,1,99.9999999999999,0|8,0:0|0:0,0:0:0:0:
328,284,184202,1,0,0:0:0:0:
433,340,184518,1,0,0:0:0:0:
467,224,184834,2,8,L|465:105,1,99.9999999999999,0|8,0:0|0:0,0:0:0:0:
349,156,185466,2,8,L|309:36,1,99.9999999999999,0|8,0:0|0:0,0:0:0:0:
199,38,186097,1,0,0:0:0:0:
121,129,186413,1,8,0:0:0:0:
180,233,186729,86,0,L|141:263,1,50,0|8,0:0|0:0,0:0:0:0:
28,220,187202,2,0,L|67:190,1,50,0|8,0:0|0:0,0:0:0:0:
63,69,187676,1,12,0:0:0:0:
248,128,192413,6,0,P|200:104|184:72,2,74.9999999999999,0|0|0,0:0|0:0|0:0,0:0:0:0:
308,132,193045,2,8,P|360:176|368:224,1,99.9999999999999,0|8,0:0|0:0,0:0:0:0:
368,324,193676,2,8,P|316:312|276:280,1,99.9999999999999,0|8,0:0|0:0,0:0:0:0:
212,184,194308,5,0,0:0:0:0:
136,92,194623,1,8,0:0:0:0:
36,156,194939,1,0,0:0:0:0:
64,272,195255,2,0,L|64:344,1,50,8|0,0:0|0:0,0:0:0:0:
124,332,195571,2,8,P|180:348|228:328,1,99.9999999999999,0|8,0:0|0:0,0:0:0:0:
316,268,196202,2,8,P|363:255|410:271,1,99.9999999999999,0|8,0:0|0:0,0:0:0:0:
352,376,196834,2,0,L|292:356,1,50,0|0,0:0|0:0,0:0:0:0:
232,264,197308,86,0,B|224:200|240:164|240:164|208:116,1,150
120,48,198097,2,0,B|112:100|64:164|64:164|92:252,1,200
164,324,199045,1,8,0:0:0:0:
276,288,199360,6,0,B|272:240|288:196|288:196|292:132|260:92,1,200
160,48,200308,1,8,0:0:0:0:
88,143,200623,2,8,B|58:238|154:282,1,150,0|0,0:0|0:0,0:0:0:0:
191,251,201255,2,0,B|239:283|247:331|247:331|299:355|367:339,1,200
320,225,202202,1,8,0:0:0:0:
439,209,202518,1,6,0:0:0:0:
220,108,203150,54,0,P|192:152|192:208,1,99.9999999999999
268,288,203781,2,0,P|295:246|298:197,1,99.9999999999999
292,76,204413,2,0,P|355:88|387:120,1,99.9999999999999,0|0,0:0|0:0,3:0:0:0:
428,220,205045,2,0,L|476:248,2,50,0|0|8,0:0|0:0|0:0,0:0:0:0:
312,160,205676,38,8,P|256:172|228:212,1,99.9999999999999,4|8,0:0|0:0,0:0:0:0:
256,320,206308,2,8,P|304:312|337:276,1,99.9999999999999,0|8,0:0|0:0,0:0:0:0:
392,168,206939,2,8,P|384:120|348:87,1,99.9999999999999,0|8,0:0|0:0,0:0:0:0:
228,88,207571,1,0,0:0:0:0:
184,200,207887,1,8,0:0:0:0:
108,292,208202,6,8,P|72:248|64:200,1,99.9999999999999,0|8,0:0|0:0,0:0:0:0:
72,88,208834,2,8,P|151:83|186:130,1,99.9999999999999,0|8,0:0|0:0,0:0:0:0:
220,200,209466,1,0,0:0:0:0:
288,300,209781,2,0,L|344:336,2,50,8|0|0,0:0|0:0|0:0,0:0:0:0:
336,188,210413,101,8,0:0:0:0:
268,88,210729,2,0,P|172:68|132:156,1,200,0|0,0:0|0:0,0:0:0:0:
154,263,211676,1,0,0:0:0:0:
254,329,211992,2,0,P|350:349|390:261,1,200
383,151,212939,1,0,0:0:0:0:
288,76,213255,6,8,L|168:136,1,99.9999999999999,0|8,0:0|0:0,0:0:0:0:
112,204,213887,2,8,L|212:272,1,99.9999999999999,0|8,0:0|0:0,0:0:0:0:
316,272,214518,2,8,L|212:360,1,99.9999999999999,0|8,0:0|0:0,0:0:0:0:
120,360,215150,2,8,L|76:320,2,50,0|0|8,0:0|0:0|0:0,0:0:0:0:
184,260,215781,102,8,P|152:220|152:168,1,99.9999999999999,0|8,0:0|0:0,0:0:0:0:
136,61,216413,2,8,P|197:68|236:100,1,99.9999999999999,0|8,0:0|0:0,0:0:0:0:
320,164,217045,2,8,P|336:144|344:120,2,50,0|0|8,0:0|0:0|0:0,0:0:0:0:
220,228,217676,1,0,0:0:0:0:
308,308,217992,5,8,0:0:0:0:
424,284,218308,2,8,B|436:232|436:232|460:188|460:188|440:156|440:156|460:128|440:92,1,200,0|0,0:0|0:0,0:0:0:0:
328,72,219255,1,0,0:0:0:0:
216,24,219571,2,8,P|136:52|124:92,1,99.9999999999999,0|8,0:0|0:0,0:0:0:0:
128,180,220202,2,8,L|84:156,2,50,0|0|8,0:0|0:0|0:0,0:0:0:0:
244,208,220834,102,8,L|260:324,1,99.9999999999999,0|8,0:0|0:0,0:0:0:0:
376,316,221466,2,8,L|368:392,2,50,0|0|8,0:0|0:0|0:0,0:0:0:0:
412,268,221939,22,0,P|452:224|476:100,2,175,0|0|8,0:0|0:0|0:0,0:0:0:0:
296,300,223360,53,4,0:0:0:0:
296,300,223676,1,8,0:0:0:0:
176,280,223992,2,8,P|128:240|116:204,1,99.9999999999999,0|8,0:0|0:0,0:0:0:0:
140,88,224623,1,0,0:0:0:0:
140,88,224939,1,8,0:0:0:0:
252,44,225255,2,8,L|216:4,2,50,0|0|8,0:0|0:0|0:0,0:0:0:0:
344,124,225887,6,8,P|384:156|440:160,1,99.9999999999999,0|8,0:0|0:0,0:0:0:0:
504,228,226518,2,8,P|464:264|416:280,1,99.9999999999999,0|8,0:0|0:0,0:0:0:0:
300,284,227150,2,8,P|246:281|201:258,1,99.9999999999999,0|8,0:0|0:0,0:0:0:0:
148,156,227781,1,0,0:0:0:0:
148,156,228097,1,8,0:0:0:0:
216,56,228413,6,8,P|252:100|268:152,1,99.9999999999999,0|8,0:0|0:0,0:0:0:0:
364,68,229045,2,8,P|373:124|361:177,1,99.9999999999999,0|8,0:0|0:0,0:0:0:0:
484,176,229676,2,8,P|463:229|426:269,1,99.9999999999999,0|8,0:0|0:0,0:0:0:0:
328,312,230308,1,0,0:0:0:0:
208,308,230623,53,8,0:0:0:0:
96,264,230939,2,8,B|92:224|92:224|52:200|52:200|96:148|36:84|36:84|68:44|116:44,1,300,0|8,0:0|0:0,0:0:0:0:
184,136,232202,2,8,P|216:180|256:200,1,99.9999999999999,0|8,0:0|0:0,0:0:0:0:
375,182,232834,2,0,L|422:76,1,99.9999999999999,0|8,0:0|0:0,0:0:0:0:
320,16,233466,38,0,L|279:107,1,99.9999999999999,0|8,0:0|0:0,0:0:0:0:
245,222,234097,2,0,P|237:282|273:322,1,99.9999999999999,0|8,0:0|0:0,0:0:0:0:
372,352,234729,2,0,P|413:326|426:278,1,99.9999999999999,0|8,0:0|0:0,0:0:0:0:
416,160,235360,1,0,0:0:0:0:
328,80,235676,1,8,0:0:0:0:
212,112,235992,6,8,L|104:172,1,99.9999999999999,0|8,0:0|0:0,0:0:0:0:
28,88,236623,2,8,P|4:164|12:200,1,99.9999999999999,0|8,0:0|0:0,0:0:0:0:
52,296,237255,2,8,L|-4:288,2,50,0|0|8,0:0|0:0|0:0,0:0:0:0:
111,304,237729,2,8,L|160:311,1,50,0|0,0:0|0:0,0:0:0:0:
238,221,238202,5,12,0:0:0:0:
358,221,238518,2,8,B|370:313|334:365|334:365|262:337|226:353|194:381,1,300,0|8,0:0|0:0,0:0:0:0:
84,336,239781,38,8,P|127:278|170:257,1,99.9999999999999,0|8,0:0|0:0,0:0:0:0:
264,224,240413,1,0,0:0:0:0:
384,244,240729,1,8,0:0:0:0:
492,300,241045,2,8,L|470:178,1,99.9999999999999,0|8,0:0|0:0,0:0:0:0:
368,144,241676,2,8,L|390:22,1,99.9999999999999,0|8,0:0|0:0,0:0:0:0:
268,20,242308,1,0,0:0:0:0:
196,116,242623,22,8,P|144:80|116:36,1,99.9999999999999,8|0,0:0|0:0,0:0:0:0:
56,148,243255,2,0,L|88:220,1,50,8|0,0:0|0:0,0:0:0:0:
164,276,243729,1,0,0:0:0:0:
256,192,243887,12,4,245939,0:0:0:0:
