osu file format v14

[General]
AudioFilename: MP3 LIKE THE JUSTICE.mp3
AudioLeadIn: 0
PreviewTime: 75650
Countdown: 0
SampleSet: Normal
StackLeniency: 0.7
Mode: 0
LetterboxInBreaks: 1
EpilepsyWarning: 1
WidescreenStoryboard: 1

[Editor]
Bookmarks: 10519,30887,67993,74308,75414,76835,97124,106677,124756,136834,172360,182782,192414,223361,224624,225887,227151,228414,229677,230940,232203,233466,234730,235993,237256,238598,239782,241045
DistanceSpacing: 1
BeatDivisor: 2
GridSize: 4
TimelineZoom: 1

[Metadata]
Title:IMAGINARY LIKE THE JUSTICE
TitleUnicode:IMAGINARY LIKE THE JUSTICE
Artist:Nanahoshi Kangengakudan
ArtistUnicode:ナナホシ管弦楽団
Creator:Faan
Version:Easy
Source:
Tags:Best Leesinged Borokuzu lZenxl Z3nx megpoid gumi vocaloid Orchestra Illicit Sexual Relations 不純異性交遊P hujuniseikouyuup fujuniseikouyuup Monaka モナカ EXIT TUNES PRESENTS Storytellers RPG Vocarock Orchestra
BeatmapID:427260
BeatmapSetID:164068

[Difficulty]
HPDrainRate:2
CircleSize:3
OverallDifficulty:2
ApproachRate:2.5
SliderMultiplier:0.799999999999999
SliderTickRate:1

[Events]
//Background and Video events
0,0,"BG.jpg",0,0
//Break Periods
2,21297,29387
2,99613,105492
2,165139,173702
2,177929,181281
2,187876,191545
2,202718,204176
//Storyboard Layer 0 (Background)
//Storyboard Layer 1 (Fail)
//Storyboard Layer 2 (Pass)
//Storyboard Layer 3 (Foreground)
//Storyboard Sound Samples

[TimingPoints]
1045,315.789473684211,4,1,1,80,1,0
31045,-100,4,1,1,80,0,0
36256,-100,4,1,1,80,0,0
38782,-100,4,1,1,80,0,0
46361,-100,4,1,1,80,0,0
74308,-100,4,3,1,40,0,0
74624,-100,4,3,1,50,0,0
74940,-100,4,3,1,60,0,0
75256,-100,4,3,1,70,0,0
75572,-100,4,1,1,80,0,0
75730,-100,4,2,1,50,0,0
76834,-100,4,1,2,75,0,1
76914,-100,4,1,1,100,0,1
99255,-100,4,1,1,80,0,0
137861,-100,4,1,1,40,0,0
138730,-100,4,1,1,80,0,0
139993,-100,4,3,1,40,0,0
140308,-100,4,3,1,50,0,0
140624,-100,4,3,1,60,0,0
140940,-100,4,3,1,70,0,0
141256,-100,4,1,1,80,0,0
141414,-100,4,2,1,50,0,0
142518,-100,4,1,2,75,0,1
142598,-100,4,1,1,100,0,1
164939,-100,4,1,1,80,0,0
167466,-100,4,3,2,80,0,0
175203,-100,4,1,1,80,0,0
177730,-100,4,3,1,80,0,0
183256,-100,4,1,1,80,0,0
193045,-100,4,1,1,60,0,0
202518,-100,4,2,1,60,0,0
203151,-100,4,2,1,50,0,0
205045,-100,4,3,1,70,0,0
205676,-100,4,1,1,85,0,1
223361,-100,4,1,2,100,0,1
223440,-100,4,1,1,100,0,1
245781,-100,4,1,1,70,0,0
258098,-100,4,1,1,70,0,0
258572,-100,4,1,1,50,0,0
258887,-100,4,1,1,30,0,0

[Colours]
Combo1 : 0,255,128
Combo2 : 0,255,0
Combo3 : 0,255,255
Combo4 : 242,24,57
Combo5 : 0,128,0
Combo6 : 255,255,0
Combo7 : 128,128,128
Combo8 : 172,255,81

[HitObjects]
224,140,10992,5,4,0:0:0:0:
192,24,11466,2,0,P|236:20|276:32,1,79.9999999999999,8|0,0:0|0:0,0:0:0:0:
376,88,12255,1,0,0:0:0:0:
424,196,12729,2,0,P|380:280|280:280,1,200,8|0,0:0|0:0,0:0:0:0:
172,236,13992,6,0,L|96:200,1,79.9999999999999,8|0,0:0|0:0,0:0:0:0:
112,80,14781,2,8,P|184:53|275:86,2,160,8|8|8,0:0|0:0|0:0,0:0:0:0:
190,171,16518,6,0,L|276:172,1,79.9999999999999
265,287,17308,1,0,0:0:0:0:
148,316,17781,2,0,P|84:280|72:160,1,200,8|0,0:0|0:0,0:0:0:0:
116,60,19045,6,0,P|146:28|196:20,1,79.9999999999999,8|0,0:0|0:0,0:0:0:0:
212,132,19834,1,4,0:0:0:0:
268,28,20308,2,0,P|304:51|321:99,1,79.9999999999999,8|0,0:0|0:0,0:0:0:0:
424,140,21097,1,4,0:0:0:0:
172,48,30887,85,0,0:0:0:0:
108,92,31202,2,0,P|68:136|64:220,1,120,0|8,0:0|0:0,0:0:0:0:
68,272,31992,1,0,0:0:0:0:
212,340,32623,2,0,P|296:280|292:204,1,160
280,72,33887,1,0,0:0:0:0:
124,116,34518,1,0,0:0:0:0:
100,276,35150,6,0,P|176:308|256:284,1,160
184,188,36255,2,0,P|248:136|332:116,1,160
476,164,37518,2,0,P|415:215|339:236,1,160
180,256,38781,6,0,P|188:316|252:364,1,120,0|8,0:0|0:0,0:0:0:0:
308,348,39571,2,4,P|356:296|368:292,1,79.9999999999999,0|8,0:0|0:0,0:0:0:0:
432,256,40202,1,0,0:0:0:0:
460,180,40518,2,0,P|428:100|328:52,1,200,8|0,0:0|0:0,0:0:0:0:
209,52,41781,86,0,P|183:88|260:228,1,200,8|0,0:0|0:0,0:0:0:0:
248,340,43045,1,0,0:0:0:0:
168,356,43360,2,0,L|84:368,1,79.9999999999999,0|8,0:0|0:0,0:0:0:0:
20,324,43992,6,0,B|40:264|24:216|24:216|72:200|100:168,1,200
136,96,45097,1,0,0:0:0:0:
472,60,46360,6,0,B|516:136|480:192|480:192|408:176,1,200,0|0,0:0|0:0,0:0:0:0:
312,128,47623,2,0,B|284:44|219:33|219:33|182:97,1,200,0|0,0:0|0:0,0:0:0:0:
188,208,48887,86,0,P|108:172|72:96,2,160
324,352,50939,2,0,P|388:344|432:272,1,120
349,274,51729,6,0,P|280:281|237:350,2,120
337,154,53150,1,8,0:0:0:0:
337,74,53466,2,0,P|281:93|258:159,1,120,0|0,0:0|0:0,2:0:0:0:
282,262,54413,1,8,0:0:0:0:
357,234,54729,2,0,P|353:298|281:342,1,120,0|0,0:0|0:0,0:0:0:0:
234,337,55518,5,0,0:0:0:0:
137,265,55992,2,0,P|109:181|117:145,1,120
170,46,56939,1,8,0:0:0:0:
250,44,57255,2,0,P|306:57|366:94,1,120,0|0,0:0|0:0,0:0:0:0:
409,151,58045,85,0,0:0:0:0:
431,227,58360,1,0,0:0:0:0:
428,307,58676,2,0,L|316:307,1,79.9999999999999
317,232,59308,2,0,P|245:224|205:232,1,79.9999999999999
214,148,59939,2,0,P|146:116|110:124,1,79.9999999999999
65,98,60571,6,0,P|109:42|161:38,2,120
14,207,61992,1,8,0:0:0:0:
68,268,62308,2,0,P|104:296|148:300,1,79.9999999999999,0|8,0:0|0:0,0:0:0:0:
216,300,62939,1,0,0:0:0:0:
296,296,63255,2,0,L|387:262,1,79.9999999999999,8|0,0:0|0:0,0:0:0:0:
444,172,64045,6,0,P|388:88|293:127,1,200
210,185,65308,2,0,P|116:209|66:133,1,200
150,47,66571,1,0,0:0:0:0:
269,71,67045,86,0,L|345:39,2,79.9999999999999,8|0|8,0:0|0:0|0:0,0:0:0:0:
267,151,67992,2,0,P|307:171|327:207,1,79.9999999999999,0|8,0:0|0:0,0:0:0:0:
307,278,68623,2,0,P|267:258|247:222,1,79.9999999999999,0|8,0:0|0:0,0:0:0:0:
190,174,69255,1,0,0:0:0:0:
209,96,69571,1,8,0:0:0:0:
281,59,69887,1,0,0:0:0:0:
399,77,70360,6,0,P|416:147|397:221,1,120
375,265,71150,1,0,0:0:0:0:
269,321,71623,2,0,P|218:297|154:290,1,120,4|0,0:0|0:0,0:0:0:0:
75,314,72413,2,0,P|87:242|115:214,1,79.9999999999999,0|8,0:0|0:0,0:0:0:0:
145,179,73045,2,0,P|193:147|209:115,1,79.9999999999999,0|8,0:0|0:0,0:0:0:0:
238,54,73676,1,0,0:0:0:0:
314,28,73992,1,8,0:0:0:0:
391,46,74308,5,0,0:0:0:0:
436,111,74623,1,8,0:0:0:0:
445,190,74939,2,0,L|417:282,1,79.9999999999999,0|8,0:0|0:0,0:0:0:0:
378,334,75571,1,4,0:0:0:0:
248,48,76834,70,0,P|112:124|104:216,1,240,4|8,0:0|0:0,0:0:0:0:
68,268,78097,2,0,P|140:264|160:248,1,79.9999999999999,0|8,0:0|0:0,0:0:0:0:
212,216,78729,2,0,P|216:168|248:148,1,79.9999999999999,0|8,0:0|0:0,0:0:0:0:
320,156,79360,6,0,B|344:236|396:288|396:288|332:348,1,240,0|8,0:0|0:0,0:0:0:0:
252,344,80623,2,0,P|168:332|112:276,1,160
84,208,81571,1,8,0:0:0:0:
152,166,81887,102,0,L|166:78,1,79.9999999999999
238,55,82518,2,0,P|302:55|330:91,1,79.9999999999999,0|8,0:0|0:0,0:0:0:0:
375,112,83150,2,0,L|415:192,2,79.9999999999999,0|8|0,0:0|0:0|0:0,0:0:0:0:
305,145,84097,5,8,0:0:0:0:
256,208,84413,2,0,P|182:174|120:220,1,160,0|0,0:0|0:0,0:0:0:0:
192,256,85360,1,8,0:0:0:0:
240,320,85676,2,0,P|312:352|400:336,1,160
456,292,86623,1,8,0:0:0:0:
472,212,86939,6,0,L|478:118,1,79.9999999999999
412,72,87571,2,0,P|448:44|492:32,2,79.9999999999999,0|8|0,0:0|0:0|0:0,0:0:0:0:
348,120,88518,1,8,0:0:0:0:
348,200,88834,2,0,P|328:240|276:260,1,79.9999999999999,0|8,0:0|0:0,0:0:0:0:
240,204,89466,101,0,0:0:0:0:
184,144,89781,1,8,0:0:0:0:
116,100,90097,2,0,L|80:176,1,79.9999999999999
112,248,90729,2,0,P|30:234|12:209,2,79.9999999999999,0|8|0,0:0|0:0|0:0,0:0:0:0:
252,324,91992,6,0,B|360:336|380:284|380:284|344:232|376:184,1,240
416,128,93255,2,0,P|384:112|324:128,1,79.9999999999999,0|8,0:0|0:0,0:0:0:0:
264,144,93887,2,0,P|224:160|176:148,1,79.9999999999999,0|8,0:0|0:0,0:0:0:0:
108,140,94518,102,0,L|72:232,1,79.9999999999999,0|8,0:0|0:0,0:0:0:0:
132,276,95150,2,0,L|188:356,1,79.9999999999999,0|8,0:0|0:0,0:0:0:0:
256,348,95781,1,0,0:0:0:0:
336,348,96097,2,0,P|420:304|468:204,1,200,8|0,0:0|0:0,0:0:0:0:
256,192,97202,12,4,99413,0:0:0:0:
116,148,106992,6,0,P|72:236|76:284,1,120,0|8,0:0|0:0,0:0:0:0:
96,336,107781,1,0,0:0:0:0:
256,340,108413,2,0,P|356:292|388:220,1,160
412,180,109360,1,8,0:0:0:0:
424,100,109676,6,0,P|312:68|240:88,1,160
200,112,110623,1,8,0:0:0:0:
120,104,110939,2,0,P|131:153|156:180,1,79.9999999999999,0|8,0:0|0:0,0:0:0:0:
220,216,111571,1,0,0:0:0:0:
336,192,112045,86,0,P|316:288|232:336,1,200
160,308,113150,1,0,0:0:0:0:
100,256,113466,2,0,B|72:184|100:136|100:136|152:116,1,160
204,88,114413,2,0,L|298:68,1,79.9999999999999
384,140,115202,5,0,0:0:0:0:
380,220,115518,2,0,P|400:288|392:324,1,79.9999999999999
212,340,116623,2,0,P|148:328|124:280,1,120,8|0,0:0|0:0,0:0:0:0:
100,164,117571,5,8,0:0:0:0:
140,96,117887,1,0,0:0:0:0:
216,72,118202,2,0,L|340:88,1,120,8|0,0:0|0:0,0:0:0:0:
416,176,119150,1,0,0:0:0:0:
460,272,119623,86,0,B|401:298|337:250,1,120,0|8,0:0|0:0,0:0:0:0:
270,230,120413,2,0,P|214:250|168:288,1,120
96,324,121202,1,0,0:0:0:0:
52,212,121676,1,0,0:0:0:0:
148,140,122150,6,0,B|88:87|88:87|0:96,2,160
224,168,123729,1,0,0:0:0:0:
292,212,124045,1,0,0:0:0:0:
292,292,124360,2,0,P|246:282|220:232,1,79.9999999999999,0|4,0:0|0:0,0:0:0:0:
192,100,125308,5,4,0:0:0:0:
59,197,125939,1,4,0:0:0:0:
152,328,126571,2,0,P|206:337|246:314,1,79.9999999999999
298,288,127202,2,0,P|306:230|281:176,1,120,0|8,0:0|0:0,0:0:0:0:
331,113,127992,86,0,P|407:97|463:121,2,120,0|0|8,0:0|0:0|0:0,0:0:0:0:
282,177,129255,2,0,P|238:201|186:197,1,79.9999999999999,0|8,0:0|0:0,0:0:0:0:
132,196,129887,2,0,P|104:132|144:40,1,160,0|0,0:0|0:0,0:0:0:0:
209,27,130834,2,8,P|275:83|363:95,1,160
402,152,131781,1,0,0:0:0:0:
256,192,132255,12,0,133676,0:0:0:0:
288,80,134308,6,0,P|218:77|175:121,2,120,0|0|8,0:0|0:0|0:0,0:0:0:0:
252,151,135571,2,0,L|224:195,1,40,0|0,0:0|0:0,0:0:0:0:
202,260,136045,2,0,P|234:319|297:337,1,120,0|8,0:0|0:0,0:0:0:0:
285,257,136834,2,0,P|305:209|365:177,1,120,0|0,0:0|0:0,0:0:0:0:
488,168,137781,5,8,0:0:0:0:
440,316,138413,1,8,0:0:0:0:
292,356,139045,2,0,P|204:328|184:300,2,120,8|0|0,0:0|0:0|0:0,0:0:0:0:
332,288,140308,1,8,0:0:0:0:
332,208,140623,2,0,P|324:172|336:132,1,79.9999999999999,0|8,0:0|0:0,0:0:0:0:
368,56,141255,1,0,0:0:0:0:
52,44,142518,86,0,P|64:208|128:276,1,240,4|8,0:0|0:0,0:0:0:0:
167,316,143781,2,0,P|235:296|275:300,1,79.9999999999999,0|8,0:0|0:0,0:0:0:0:
320,316,144413,2,0,P|372:312|400:284,1,79.9999999999999,0|8,0:0|0:0,0:0:0:0:
448,240,145045,102,0,P|446:153|324:65,1,240
272,12,146308,2,0,P|252:60|268:116,1,79.9999999999999,0|8,0:0|0:0,0:0:0:0:
272,164,146939,2,0,P|288:220|284:248,1,79.9999999999999,0|8,0:0|0:0,0:0:0:0:
312,316,147571,6,0,P|200:356|148:324,1,160,0|0,0:0|0:0,0:0:0:0:
112,288,148518,1,8,0:0:0:0:
104,208,148834,2,0,P|172:172|172:88,1,160,0|0,0:0|0:0,0:0:0:0:
104,128,149781,1,8,0:0:0:0:
28,152,150097,102,0,P|28:260|152:288,1,240,0|8,0:0|0:0,0:0:0:0:
184,228,151360,2,0,P|229:202|272:184,2,79.9999999999999,0|8|0,0:0|0:0|0:0,0:0:0:0:
144,376,152623,6,0,B|233:356|265:281|265:281|342:240,1,240
416,220,153887,2,0,P|467:154|423:72,1,160,0|0,0:0|0:0,3:0:0:0:
384,144,154834,1,8,0:0:0:0:
304,144,155150,86,0,P|180:112|140:76,1,160,0|0,0:0|0:0,0:0:0:0:
88,56,156097,1,8,0:0:0:0:
36,116,156413,2,0,P|-8:216|12:264,1,160
68,309,157360,5,8,0:0:0:0:
142,337,157676,2,0,P|278:305|362:225,1,240,0|8,0:0|0:0,0:0:0:0:
392,168,158939,2,0,P|420:112|424:80,1,79.9999999999999,0|8,0:0|0:0,0:0:0:0:
400,20,159571,2,0,P|344:36|320:80,1,79.9999999999999,0|8,0:0|0:0,0:0:0:0:
228,176,160518,5,8,0:0:0:0:
184,328,161150,2,4,P|236:348|284:324,1,79.9999999999999,0|4,0:0|0:0,0:0:0:0:
336,320,161781,2,0,P|416:232|416:144,1,200,8|0,0:0|0:0,0:0:0:0:
256,192,162887,12,4,164939,0:0:0:0:
165,85,175202,118,0,P|118:127|116:188,1,120,0|8,0:0|0:0,0:0:0:0:
190,160,175992,2,0,P|261:193|265:280,1,160,0|0,0:0|0:0,0:0:0:0:
195,241,176939,1,8,0:0:0:0:
195,241,177729,1,0,0:0:0:0:
248,32,182781,86,0,P|188:64|156:112,1,120,0|8,0:0|0:0,0:0:0:0:
147,185,183571,1,0,0:0:0:0:
182,256,183887,1,8,0:0:0:0:
248,300,184202,2,0,P|287:309|329:289,1,79.9999999999999,0|8,0:0|0:0,0:0:0:0:
355,221,184834,2,0,P|316:212|274:232,1,79.9999999999999,0|8,0:0|0:0,0:0:0:0:
202,207,185466,5,0,0:0:0:0:
165,136,185781,1,8,0:0:0:0:
162,55,186097,2,0,P|116:70|92:105,1,79.9999999999999,0|8,0:0|0:0,0:0:0:0:
85,173,186729,2,0,P|31:143|18:79,2,120
304,52,193045,6,0,P|388:92|404:164,1,160,0|0,0:0|0:0,0:0:0:0:
399,231,193992,1,0,0:0:0:0:
376,308,194308,2,0,P|292:268|276:196,1,160
300,132,195255,1,0,0:0:0:0:
304,52,195571,2,0,P|236:52|212:72,1,79.9999999999999,0|8,0:0|0:0,0:0:0:0:
158,96,196202,2,0,P|125:118|80:124,1,79.9999999999999,0|8,0:0|0:0,0:0:0:0:
60,200,196834,6,0,L|76:268,1,40
132,288,197308,2,0,P|198:297|258:327,1,120,0|8,0:0|0:0,0:0:0:0:
328,332,198097,2,0,P|416:248|424:184,1,160
432,135,199045,1,0,0:0:0:0:
432,56,199360,6,0,P|348:60|296:116,1,160
262,183,200308,1,8,0:0:0:0:
228,256,200623,2,0,P|152:300|68:272,1,160,0|0,0:0|0:0,0:0:0:0:
24,232,201571,1,8,0:0:0:0:
28,151,201887,86,8,P|80:93|158:82,1,160,0|4,0:0|0:0,0:0:0:0:
180,48,205676,86,8,P|124:152|132:208,1,160,4|8,0:0|0:0,0:0:0:0:
220,320,206939,2,0,P|276:216|268:160,1,160,0|0,0:0|0:0,0:0:0:0:
260,100,207887,1,8,0:0:0:0:
212,36,208202,6,0,P|140:52|60:136,2,160,0|0|0,0:0|0:0|0:0,0:0:0:0:
290,49,209781,1,8,0:0:0:0:
384,168,210413,5,8,0:0:0:0:
392,248,210729,2,0,B|340:288|296:296|296:296|300:264|284:228|232:216|188:252,1,240,0|8,0:0|0:0,0:0:0:0:
184,164,211992,102,0,L|84:208,1,79.9999999999999,0|8,0:0|0:0,0:0:0:0:
60,256,212623,2,0,P|80:304|116:324,1,79.9999999999999,0|8,0:0|0:0,0:0:0:0:
180,335,213255,2,0,P|268:335|364:219,1,240,0|8,0:0|0:0,0:0:0:0:
381,149,214518,6,0,B|320:59|287:65|287:65|259:125|180:134,1,240,0|8,0:0|0:0,0:0:0:0:
149,188,215781,2,0,B|210:278|243:272|243:272|271:212|350:203,1,240,0|8,0:0|0:0,0:0:0:0:
406,200,217045,102,0,P|474:164|486:140,2,79.9999999999999,0|8|0,0:0|0:0|0:0,0:0:0:0:
406,119,217992,1,8,0:0:0:0:
338,75,218308,2,0,P|253:61|196:108,1,160
132,249,219571,6,0,P|101:309|56:333,2,120,0|0|8,0:0|0:0|0:0,0:0:0:0:
151,171,220834,2,0,P|159:114|150:77,1,79.9999999999999,0|8,0:0|0:0,0:0:0:0:
109,26,221466,1,0,0:0:0:0:
34,55,221781,1,8,0:0:0:0:
54,132,222097,6,0,P|13:192|34:255,2,120
91,202,223360,54,0,P|169:196|211:122,1,160,4|0,0:0|0:0,0:0:0:0:
183,56,224308,1,8,0:0:0:0:
257,26,224623,2,0,P|312:58|355:155,1,160
340,221,225571,1,8,0:0:0:0:
309,295,225887,6,0,P|249:347|171:354,1,160,0|0,0:0|0:0,0:0:0:0:
134,283,226834,1,8,0:0:0:0:
175,214,227150,2,0,L|259:230,2,79.9999999999999,0|8|0,0:0|0:0|0:0,0:0:0:0:
204,139,228097,1,8,0:0:0:0:
277,107,228413,6,0,P|217:59|144:87,1,160
92,145,229360,1,8,0:0:0:0:
67,221,229676,1,0,0:0:0:0:
52,300,229992,2,0,P|62:341|56:380,2,79.9999999999999,8|0|8,0:0|0:0|0:0,0:0:0:0:
66,221,230939,54,0,B|146:249|174:173|174:173|294:209,1,240,0|8,0:0|0:0,0:0:0:0:
353,218,232202,2,0,P|405:198|417:166,1,79.9999999999999,0|8,0:0|0:0,0:0:0:0:
460,114,232834,2,0,L|492:82,2,40,0|0|8,0:0|0:0|0:0,0:0:0:0:
380,100,233466,22,0,P|292:76|216:104,1,160,0|0,0:0|0:0,0:0:0:0:
160,140,234413,1,8,0:0:0:0:
104,200,234729,2,0,P|160:272|240:280,1,160,0|0,0:0|0:0,0:0:0:0:
304,272,235676,1,8,0:0:0:0:
364,219,235992,6,0,L|440:263,1,79.9999999999999,0|8,0:0|0:0,0:0:0:0:
498,213,236623,2,0,L|453:125,1,79.9999999999999,0|8,0:0|0:0,0:0:0:0:
421,72,237255,2,0,P|489:68|501:76,2,79.9999999999999,0|8|0,0:0|0:0|0:0,0:0:0:0:
351,108,238202,1,8,0:0:0:0:
301,171,238518,6,0,P|201:239|57:223,1,240,0|8,0:0|0:0,0:0:0:0:
43,167,239781,2,0,P|47:131|79:91,1,79.9999999999999,0|8,0:0|0:0,0:0:0:0:
107,23,240413,2,0,P|151:83|103:171,1,160
95,232,241360,53,8,0:0:0:0:
217,315,241992,1,8,0:0:0:0:
359,253,242623,2,0,P|399:189|399:173,1,79.9999999999999,8|0,0:0|0:0,0:0:0:0:
408,107,243255,2,0,L|380:59,1,40,8|0,0:0|0:0,0:0:0:0:
256,192,243729,12,4,245939,0:0:0:0:
