osu file format v14

[General]
AudioFilename: viva happy.mp3
AudioLeadIn: 0
PreviewTime: 62000
Countdown: 0
SampleSet: Soft
StackLeniency: 0.3
Mode: 0
LetterboxInBreaks: 0
WidescreenStoryboard: 1

[Editor]
DistanceSpacing: 0.9
BeatDivisor: 4
GridSize: 4
TimelineZoom: 1.3

[Metadata]
Title:Viva Happy
TitleUnicode:ビバハピ
Artist:Nanahira
ArtistUnicode:ななひら
Creator:Frey
Version:Normal
Source:初音ミク -Project DIVA- X
Tags:Meltical sugar wave VOCALOID Mitchie M Hatsune Miku Chaoslitz cover
BeatmapID:1469230
BeatmapSetID:672621

[Difficulty]
HPDrainRate:3
CircleSize:3
OverallDifficulty:3
ApproachRate:4
SliderMultiplier:1.2
SliderTickRate:1

[Events]
//Background and Video events
0,0,"peco.jpg",0,0
//Break Periods
2,157676,162842
//Storyboard Layer 0 (Background)
//Storyboard Layer 1 (Fail)
//Storyboard Layer 2 (Pass)
//Storyboard Layer 3 (Foreground)
//Storyboard Sound Samples

[TimingPoints]
379,405.405405405405,4,2,0,40,1,0
6460,-100,4,2,0,70,0,0
10210,-100,4,2,0,50,0,0
10311,-100,4,2,0,70,0,0
11020,-100,4,2,0,50,0,0
11122,-100,4,2,0,70,0,0
25108,-100,4,2,0,73,0,0
25514,-100,4,2,0,76,0,0
25919,-100,4,2,0,79,0,0
26324,-100,4,2,0,70,0,0
31595,-100,4,2,0,75,0,0
32811,-100,4,2,0,70,0,0
60378,-100,4,2,0,80,0,0
60784,-100,4,2,0,75,0,0
62000,-100,4,2,0,80,0,1
84703,-100,4,2,0,70,0,0
99297,-100,4,1,0,40,0,0
100919,-100,4,2,0,70,0,0
121493,-100,4,2,0,40,0,0
121595,-100,4,2,0,70,0,0
126865,-100,4,2,0,60,0,0
127068,-100,4,2,0,70,0,0
128487,-100,4,2,0,80,0,0
128892,-100,4,2,0,70,0,0
130514,-100,4,2,0,75,0,0
131730,-100,4,2,0,80,0,1
143081,-100,4,2,0,65,0,0
143487,-100,4,2,0,70,0,0
143892,-100,4,2,0,75,0,0
144297,-100,4,2,0,80,0,0
145108,-100,4,2,0,80,0,1
151189,-100,4,2,0,70,0,0
157270,-100,4,2,0,40,0,0
163960,-100,4,2,0,70,0,0
164568,-100,4,2,0,45,0,0
164669,-100,4,2,0,70,0,0
166189,-100,4,2,0,45,0,0
166291,-100,4,2,0,70,0,0
167811,-100,4,2,0,45,0,0
167912,-100,4,2,0,70,0,0
168622,-100,4,2,0,45,0,0
168723,-100,4,2,0,70,0,0
171054,-100,4,2,0,45,0,0
171156,-100,4,2,0,70,0,0
171865,-100,4,2,0,45,0,0
171966,-100,4,2,0,70,0,0
172676,-100,4,2,0,45,0,0
172777,-100,4,2,0,70,0,0
175919,-100,4,2,0,45,0,0
176020,-100,4,2,0,70,0,0
177541,-100,4,2,0,65,0,0
177946,-100,4,2,0,60,0,0
178351,-100,4,2,0,55,0,0
178757,-100,4,2,0,50,0,0
179162,-100,4,2,0,45,0,0
179568,-100,4,2,0,40,0,0
179973,-100,4,2,0,70,0,0
180378,-100,4,2,0,40,0,0
181189,-100,4,2,0,45,0,0
182000,-100,4,2,0,50,0,0
182811,-100,4,2,0,55,0,0
183622,-100,4,2,0,60,0,0
184433,-100,4,2,0,65,0,0
185243,-100,4,2,0,70,0,0
186054,-100,4,2,0,75,0,0
186865,-100,4,2,0,80,0,1
194973,-100,4,2,0,70,0,0
196595,-100,4,2,0,80,0,1
198014,-100,4,2,0,80,0,0
199838,-100,4,2,0,80,0,1
203081,-100,4,2,0,70,0,0

[Colours]
Combo1 : 255,32,121
Combo2 : 166,255,32
Combo3 : 255,77,32
Combo4 : 32,255,255

[HitObjects]
256,192,3014,12,0,4838,0:0:0:0:
104,72,6460,6,0,L|96:136,1,60,2|2,2:0|2:0,0:0:0:0:
92,184,6865,2,0,L|216:168,1,120,6|0,1:1|1:0,3:3:0:0:
284,88,7676,2,0,P|338:110|397:102,1,120,0|0,1:0|1:0,0:0:0:0:
444,72,8284,1,6,1:0:0:0:
484,36,8487,2,0,L|472:160,1,120,6|0,1:0|1:0,0:0:0:0:
400,236,9297,2,0,P|344:232|276:272,1,120,0|0,1:0|1:0,0:0:0:0:
256,304,9906,1,6,1:0:0:0:
224,259,10108,6,0,P|171:232|112:236,1,120,6|0,1:0|1:0,0:0:0:0:
32,164,10919,1,0,1:0:0:0:
44,56,11324,1,0,1:0:0:0:
132,120,11730,2,0,L|252:108,1,120,0|2,1:0|0:0,0:0:0:0:
295,77,12338,1,2,0:0:0:0:
336,44,12541,1,2,1:0:0:0:
432,92,12946,1,2,1:0:0:0:
348,160,13351,6,0,P|328:216|336:288,1,120,2|12,0:0|1:2,0:0:0:0:
432,316,14162,2,0,P|452:260|444:188,1,120,0|8,1:0|1:2,0:0:0:0:
432,92,14973,2,0,L|292:72,1,120,0|8,1:0|1:2,0:0:0:0:
224,12,15784,1,0,1:0:0:0:
212,120,16189,1,8,1:2:0:0:
136,196,16595,6,0,P|80:220|20:212,1,120,0|8,1:0|1:2,0:0:0:0:
68,312,17406,2,0,P|126:305|181:329,1,120,0|8,1:0|1:2,0:0:0:0:
256,248,18216,1,0,1:0:0:0:
256,136,18622,1,8,1:2:0:0:
256,28,19027,1,2,1:2:0:0:
352,80,19433,2,0,L|352:148,1,60,2|2,0:0|0:0,0:0:0:0:
352,196,19838,1,4,1:2:0:0:
352,304,20243,6,0,L|280:348,1,60,10|0,1:2|0:0,0:0:0:0:
256,364,20649,1,0,1:0:0:0:
160,304,21054,1,8,1:2:0:0:
256,244,21460,2,0,L|256:180,1,60,2|0,1:2|0:0,0:0:0:0:
256,128,21865,1,8,1:2:0:0:
336,56,22270,1,2,1:0:0:0:
440,88,22676,1,2,1:0:0:0:
468,192,23081,6,0,P|404:196|360:228,1,120,4|10,1:0|1:2,0:0:0:0:
328,272,23689,1,0,0:0:0:0:
304,320,23892,2,0,L|180:304,1,120,0|8,1:0|1:2,0:0:0:0:
100,372,24703,1,6,1:2:0:0:
80,268,25108,1,14,1:2:0:0:
132,172,25514,1,6,1:2:0:0:
112,68,25919,1,14,1:2:0:0:
216,100,26324,6,0,P|288:80|352:72,1,120,4|8,1:2|1:2,0:0:0:0:
388,68,26933,1,0,0:0:0:0:
444,72,27135,2,0,P|456:136|416:184,1,120,0|8,1:0|1:2,0:0:0:0:
332,232,27946,2,0,L|340:308,1,60,2|0,1:2|0:0,0:0:0:0:
344,344,28351,1,8,1:2:0:0:
452,364,28757,1,2,1:0:0:0:
496,264,29162,1,2,1:0:0:0:
426,178,29568,6,0,P|334:166|298:134,1,120,4|8,1:0|1:2,0:0:0:0:
280,108,30176,1,0,0:0:0:0:
256,60,30378,2,0,L|132:48,1,120,2|8,1:2|1:2,0:0:0:0:
40,96,31189,5,2,0:0:0:0:
28,204,31595,1,2,3:2:0:0:
108,276,32000,2,0,P|224:284|284:180,1,240,2|6,3:1|1:0,0:0:0:0:
256,84,33216,6,0,L|68:108,1,180,2|0,1:2|1:0,0:0:0:0:
24,116,34027,1,2,1:2:0:0:
4,168,34230,2,0,B|-16:256|48:244|28:344,2,180,2|2|0,1:0|1:2|1:0,0:0:0:0:
24,116,35649,1,2,1:2:0:0:
104,40,36054,6,0,P|168:56|224:52,1,120,6|2,3:2|3:2,0:0:0:0:
328,28,36865,1,2,3:2:0:0:
420,84,37271,1,2,3:2:0:0:
364,176,37676,2,0,P|300:192|244:188,1,120,2|2,3:2|3:2,0:0:0:0:
164,120,38487,1,2,3:1:0:0:
72,176,38893,1,2,1:2:0:0:
80,284,39297,5,6,1:0:0:0:
180,328,39703,2,0,B|280:352|268:288|356:312,1,180,2|0,1:2|1:0,0:0:0:0:
404,332,40514,1,2,1:2:0:0:
456,352,40716,2,0,L|472:172,2,180,2|2|0,1:0|1:2|1:0,0:0:0:0:
404,332,42135,1,2,1:2:0:0:
304,292,42541,6,0,L|316:156,1,120,6|2,3:2|3:2,0:0:0:0:
404,112,43351,1,2,3:2:0:0:
332,32,43757,1,2,3:2:0:0:
243,91,44162,2,0,P|192:116|130:118,1,120,2|2,3:2|3:2,0:0:0:0:
24,104,44973,1,2,1:0:0:0:
60,204,45378,1,2,1:2:0:0:
164,224,45784,6,0,L|312:208,1,120,4|2,1:2|0:0,0:0:0:0:
376,268,46595,2,0,L|384:132,1,120,2|2,1:2|0:0,0:0:0:0:
388,95,47203,1,0,1:0:0:0:
392,40,47406,2,0,P|476:56|504:160,2,180,2|0|8,1:2|1:0|3:2,0:0:0:0:
344,64,48824,1,8,3:2:0:0:
264,208,49433,6,0,P|200:212|148:184,1,120,2|2,0:0|1:2,0:0:0:0:
84,104,50243,1,2,0:0:0:0:
8,180,50649,2,0,L|24:360,2,180,0|0|0,1:0|1:0|0:0,0:0:0:0:
4,128,52068,1,8,0:0:0:0:
0,76,52270,5,0,1:0:0:0:
100,116,52676,2,0,P|172:92|200:40,1,120,2|2,0:0|1:2,0:0:0:0:
288,112,53487,2,0,L|276:188,1,60,2|2,0:0|1:2,0:0:0:0:
272,224,53892,2,0,P|209:233|80:256,1,180,0|0,1:0|1:0,0:0:0:0:
164,340,54906,6,0,P|198:335|236:328,1,60,2|2,1:2|1:2,0:0:0:0:
276,320,55311,1,6,1:0:0:0:
376,272,55716,2,0,P|396:217|385:159,1,120,0|2,1:0|0:0,0:0:0:0:
328,69,56527,2,0,L|240:57,1,60,2|10,1:2|1:2,0:0:0:0:
216,53,56933,1,6,1:0:0:0:
200,160,57338,2,0,L|182:278,1,120,0|2,1:0|0:0,0:0:0:0:
92,340,58149,2,0,P|92:304|80:280,1,60,2|2,1:2|1:2,0:0:0:0:
56,236,58554,1,6,1:0:0:0:
80,72,59162,5,2,1:0:0:0:
151,151,59568,2,0,P|256:200|364:148,1,240,4|4,1:0|1:2,0:0:0:0:
432,72,60784,5,2,0:0:0:0:
464,176,61189,1,2,0:0:0:0:
393,252,61595,1,10,0:0:0:0:
287,231,62000,6,0,P|229:241|186:281,1,120,4|8,1:2|1:2,0:0:0:0:
276,340,62811,2,0,L|408:360,1,120,0|8,1:0|1:2,0:0:0:0:
496,316,63622,1,0,1:0:0:0:
480,208,64027,1,8,1:2:0:0:
372,192,64433,2,0,L|360:104,1,60,2|2,1:2|0:0,0:0:0:0:
356,80,64838,1,10,1:2:0:0:
256,36,65243,6,0,P|192:40|148:76,1,120,0|8,1:0|1:2,0:0:0:0:
76,152,66054,2,0,L|68:276,1,120,0|8,1:0|1:2,0:0:0:0:
164,324,66865,1,0,1:0:0:0:
172,216,67270,1,8,1:2:0:0:
280,220,67676,2,0,P|328:204|356:184,1,60,2|2,1:2|0:0,0:0:0:0:
380,168,68081,1,10,1:2:0:0:
432,264,68487,6,0,P|380:300|304:320,1,120,0|8,1:0|1:2,0:0:0:0:
240,384,69297,2,0,L|96:364,1,120,0|8,1:0|1:2,0:0:0:0:
80,332,69906,2,2,P|56:276|68:220,1,120,0|0,0:0|0:0,0:0:0:0:
96,172,70514,1,8,1:2:0:0:
196,212,70919,1,0,0:0:0:0:
236,112,71324,1,8,1:2:0:0:
136,72,71730,6,0,P|71:82|12:88,1,120,0|8,1:0|1:2,0:0:0:0:
28,196,72541,2,0,P|87:186|146:180,1,120,0|8,1:0|1:2,0:0:0:0:
224,256,73351,1,0,1:0:0:0:
332,268,73757,2,0,L|340:188,1,60,10|2,1:2|0:2,0:0:0:0:
344,156,74162,1,2,1:2:0:0:
452,172,74568,2,0,L|446:231,1,60,2|2,1:2|1:2,0:0:0:0:
440,284,74973,5,4,1:2:0:0:
367,368,75378,2,0,P|308:371|256:344,1,120,8|0,1:2|1:0,0:0:0:0:
224,240,76189,1,8,1:2:0:0:
148,164,76595,2,0,P|40:180|4:180,1,120,0|8,1:0|1:2,0:0:0:0:
32,288,77406,2,0,L|96:332,1,60,2|2,1:2|0:0,0:0:0:0:
128,352,77811,1,10,1:2:0:0:
196,264,78216,6,0,P|260:264|308:304,1,120,0|8,1:0|1:2,0:0:0:0:
348,200,79027,2,0,P|406:201|455:167,1,120,0|8,1:0|1:2,0:0:0:0:
476,60,79838,1,0,1:0:0:0:
372,36,80243,1,8,1:2:0:0:
272,72,80649,2,0,P|261:106|260:136,1,60,2|2,1:2|0:0,0:0:0:0:
256,184,81054,1,10,1:2:0:0:
336,256,81460,6,0,P|400:252|444:204,1,120,0|8,1:0|1:2,0:0:0:0:
452,108,82270,2,0,P|380:100|328:88,1,120,0|8,1:0|1:2,0:0:0:0:
288,116,82878,1,0,0:0:0:0:
240,140,83081,2,0,P|181:127|121:121,1,120,2|8,1:2|1:2,0:0:0:0:
68,128,83689,2,0,P|40:72|52:12,2,120,2|2|2,0:0|0:0|0:0,0:0:0:0:
104,168,84703,5,0,3:0:0:0:
208,192,85108,2,0,L|192:272,1,60,2|0,0:0|0:0,0:0:0:0:
188,304,85514,1,0,3:0:0:0:
104,372,85919,2,0,P|60:380|28:388,1,60,2|0,0:0|0:0,0:0:0:0:
8,344,86324,2,0,B|0:256|48:260|40:168,1,180,2|2,3:2|0:0,0:0:0:0:
32,116,87135,1,0,3:0:0:0:
119,51,87541,2,0,P|135:77|139:107,1,60,2|2,0:0|0:0,0:0:0:0:
132,160,87946,6,0,P|196:156|252:176,1,120,4|10,1:2|1:2,0:0:0:0:
272,124,88554,1,0,0:0:0:0:
296,76,88757,2,0,P|360:80|416:60,1,120,0|8,1:0|1:2,0:0:0:0:
508,108,89568,2,0,L|496:176,1,60,2|0,1:2|0:0,0:0:0:0:
488,220,89973,1,8,1:2:0:0:
384,244,90378,1,2,1:0:0:0:
360,348,90784,1,2,1:0:0:0:
280,272,91189,6,0,P|240:232|208:172,1,120,4|10,1:0|1:2,0:0:0:0:
200,124,91797,1,0,0:0:0:0:
192,72,92000,2,0,P|132:80|44:84,1,120,0|8,1:0|1:2,0:0:0:0:
16,176,92811,1,2,0:0:0:0:
4,284,93216,1,8,1:2:0:0:
112,296,93622,1,2,0:0:0:0:
124,188,94027,1,8,1:2:0:0:
204,112,94433,6,0,P|256:96|324:104,1,120,0|14,0:0|1:2,0:0:0:0:
372,124,95041,1,0,0:0:0:0:
412,160,95243,2,0,P|472:128|492:68,1,120,0|8,1:2|1:2,0:0:0:0:
412,8,96054,2,0,L|324:16,1,60,2|0,1:2|0:0,0:0:0:0:
300,20,96460,1,8,1:2:0:0:
212,84,96865,1,2,1:0:0:0:
280,168,97270,1,2,1:0:0:0:
364,100,97676,6,0,P|373:173|376:232,1,120,4|8,1:0|1:2,0:0:0:0:
352,268,98284,1,0,0:0:0:0:
316,308,98487,2,0,P|242:317|184:320,1,120,2|2,1:2|0:0,0:0:0:0:
144,320,99095,1,2,0:0:0:0:
100,292,99297,6,0,P|92:232|116:180,1,120,0|0,0:0|0:0,0:0:0:0:
216,136,100108,2,0,P|181:87|125:71,1,120,0|2,0:0|0:2,0:0:0:0:
20,96,100919,5,6,1:0:0:0:
8,204,101324,2,0,P|88:288|168:280,1,180,2|0,1:2|1:0,0:0:0:0:
192,264,102135,1,2,1:2:0:0:
240,240,102338,2,0,P|308:224|432:232,2,180,2|2|0,1:0|1:2|1:0,0:0:0:0:
192,264,103757,1,2,1:2:0:0:
119,343,104162,6,0,P|87:294|87:235,1,120,6|2,3:2|3:2,0:0:0:0:
132,136,104973,1,2,3:2:0:0:
240,148,105378,1,2,3:2:0:0:
308,232,105784,2,0,L|320:380,1,120,2|2,3:2|3:2,0:0:0:0:
424,340,106595,2,0,L|404:92,1,240,2|6,0:0|1:0,0:0:0:0:
324,28,107811,6,0,B|272:4|196:28|168:80,1,180,2|0,1:2|1:0,0:0:0:0:
136,124,108622,1,2,1:2:0:0:
120,176,108824,2,0,P|64:116|76:24,2,180,2|2|0,1:0|1:2|1:0,0:0:0:0:
168,200,110243,1,2,1:2:0:0:
276,180,110649,6,0,L|416:156,1,120,6|2,3:2|3:2,0:0:0:0:
492,112,111460,1,2,3:2:0:0:
484,220,111865,1,2,3:2:0:0:
420,308,112270,2,0,P|364:312|304:284,1,120,2|2,3:2|3:2,0:0:0:0:
276,180,113081,1,2,1:0:0:0:
172,156,113487,1,2,1:2:0:0:
87,227,113892,6,0,P|69:115|159:44,1,240,4|2,1:2|1:2,0:0:0:0:
252,100,115108,2,0,L|260:160,1,60,2|0,0:0|1:0,0:0:0:0:
268,212,115514,2,0,B|359:203|357:238|452:228,2,180,0|0|8,1:0|1:0|3:2,0:0:0:0:
228,248,116933,1,8,3:2:0:0:
128,372,117541,6,0,P|116:316|72:264,1,120,2|2,0:0|1:2,0:0:0:0:
0,196,118351,1,2,0:0:0:0:
100,160,118757,2,0,L|288:184,2,180,0|0|0,1:0|1:0|0:0,0:0:0:0:
80,112,120176,1,0,0:0:0:0:
60,60,120378,5,0,1:0:0:0:
168,72,120784,2,0,L|287:86,1,120,2|2,0:0|0:0,0:0:0:0:
396,100,121595,1,2,0:0:0:0:
484,40,122000,2,0,P|500:124|496:180,1,120,2|2,0:0|0:0,0:0:0:0:
492,212,122608,1,2,0:0:0:0:
424,296,123014,6,0,P|376:272|368:260,1,60,2|2,1:2|1:2,0:0:0:0:
340,224,123419,1,6,1:0:0:0:
232,236,123824,2,0,L|248:372,1,120,0|2,1:0|0:0,0:0:0:0:
152,304,124635,2,0,L|76:312,1,60,2|10,1:2|1:2,0:0:0:0:
40,316,125041,1,6,1:0:0:0:
24,208,125446,2,0,P|96:176|120:136,1,120,0|2,1:0|0:0,0:0:0:0:
144,40,126257,2,0,L|212:52,1,60,2|10,1:2|1:2,0:0:0:0:
256,60,126662,2,0,L|256:196,1,120,6|2,1:0|0:0,0:0:0:0:
256,236,127270,5,2,1:0:0:0:
160,288,127676,2,0,P|257:348|356:284,1,240,6|6,1:0|1:2,0:0:0:0:
420,200,128892,2,0,L|432:52,1,120,2|2,0:0|0:0,0:0:0:0:
320,72,129703,2,0,L|310:191,1,120,2|2,0:0|0:0,0:0:0:0:
200,192,130514,5,2,0:0:0:0:
196,84,130919,1,2,0:0:0:0:
84,92,131324,1,10,0:0:0:0:
92,200,131730,6,0,L|101:319,1,120,4|8,1:2|1:2,0:0:0:0:
200,364,132541,2,0,P|240:312|232:248,1,120,0|8,1:2|1:2,0:0:0:0:
192,164,133351,1,0,1:0:0:0:
92,200,133757,1,8,1:2:0:0:
112,92,134162,2,0,P|144:88|176:68,1,60,2|2,1:2|0:0,0:0:0:0:
216,48,134568,1,10,1:2:0:0:
296,128,134973,6,0,L|308:256,1,120,0|8,1:0|1:2,0:0:0:0:
380,328,135784,1,0,1:0:0:0:
488,340,136189,1,8,1:2:0:0:
444,236,136595,2,0,P|440:172|460:120,1,120,0|2,1:0|0:0,0:0:0:0:
504,24,137406,2,0,L|420:32,1,60,2|0,1:2|0:0,0:0:0:0:
388,36,137811,1,2,0:0:0:0:
324,124,138216,6,0,P|248:104|224:56,1,120,4|8,1:2|1:2,0:0:0:0:
128,28,139027,2,0,P|108:88|100:152,1,120,0|8,1:0|1:2,0:0:0:0:
128,192,139635,2,0,P|184:211|244:219,1,120,2|2,0:0|0:0,0:0:0:0:
300,220,140243,1,8,1:2:0:0:
340,320,140649,1,0,1:0:0:0:
256,384,141054,1,8,1:2:0:0:
148,372,141460,6,0,P|88:363|31:344,1,120,0|8,1:0|1:2,0:0:0:0:
24,236,142270,1,0,1:0:0:0:
16,128,142676,1,8,1:2:0:0:
116,176,143081,1,0,3:0:0:0:
108,68,143487,6,0,L|192:60,1,60,10|2,3:2|3:2,0:0:0:0:
220,56,143892,1,2,3:2:0:0:
292,136,144297,2,0,L|376:144,1,60,10|0,3:2|3:2,0:0:0:0:
404,148,144702,1,2,0:0:0:0:
500,100,145108,6,0,P|511:158|490:213,1,120,12|0,1:2|1:0,0:0:0:0:
392,264,145919,1,8,1:2:0:0:
408,372,146324,1,0,1:2:0:0:
308,332,146730,1,8,1:2:0:0:
292,224,147135,2,0,P|260:224|212:208,1,60,2|2,1:2|0:0,0:0:0:0:
180,200,147541,1,10,1:2:0:0:
99,132,147946,6,0,P|74:185|83:243,1,120,0|8,1:0|1:2,0:0:0:0:
148,332,148757,2,0,P|228:320|288:304,1,120,0|8,1:0|1:2,0:0:0:0:
372,284,149568,1,0,1:0:0:0:
476,256,149973,1,8,1:2:0:0:
396,180,150378,2,0,P|384:152|380:116,1,60,2|2,1:2|0:0,0:0:0:0:
380,68,150784,1,10,1:2:0:0:
480,36,151189,6,0,P|500:92|512:152,1,120,0|2,1:0|0:0,0:0:0:0:
475,256,152000,2,0,P|426:288|360:284,1,120,0|2,1:0|0:0,0:0:0:0:
320,260,152608,1,0,0:0:0:0:
280,224,152811,2,0,P|220:222|171:254,2,120,0|2|0,1:0|1:2|1:0,0:0:0:0:
356,148,154027,2,0,P|348:113|344:76,1,60,2|0,1:2|1:0,0:0:0:0:
336,36,154433,5,0,3:0:0:0:
228,28,154838,2,0,L|144:20,1,60,2|0,0:0|0:0,0:0:0:0:
116,20,155243,1,0,3:0:0:0:
36,92,155649,2,0,L|52:152,1,60,2|0,0:0|0:0,0:0:0:0:
68,200,156054,2,0,B|163:209|142:144|243:157,1,180,2|2,3:2|0:0,0:0:0:0:
285,186,156865,1,0,0:0:0:0:
220,272,157270,1,0,0:0:0:0:
256,272,164162,6,0,L|256:148,1,120,2|8,1:0|0:0,0:0:0:0:
256,100,164770,1,0,1:0:0:0:
256,44,164973,2,0,P|200:48|140:28,1,120,2|0,1:2|0:0,0:0:0:0:
44,80,165784,2,0,L|56:216,1,120,2|8,1:0|0:0,0:0:0:0:
60,252,166392,1,0,1:0:0:0:
64,304,166595,2,0,P|124:284|184:292,1,120,2|0,1:2|0:0,0:0:0:0:
256,216,167406,6,0,P|315:222|371:202,1,120,2|8,1:0|0:0,0:0:0:0:
408,160,168014,1,0,0:0:0:0:
444,120,168216,2,0,P|480:172|480:232,1,120,2|8,1:2|0:0,0:0:0:0:
452,332,169027,2,0,L|268:316,1,180,2|2,1:2|1:2,0:0:0:0:
240,272,169838,2,0,L|60:287,1,180,2|2,1:0|1:0,0:0:0:0:
16,320,170649,6,0,P|-4:260|8:200,1,120,6|8,1:0|0:0,0:0:0:0:
28,156,171257,1,0,1:0:0:0:
64,116,171460,2,0,L|200:128,1,120,2|8,1:2|0:0,0:0:0:0:
284,168,172270,2,0,P|246:218|220:284,1,120,2|8,1:0|0:0,0:0:0:0:
208,320,172878,1,0,1:0:0:0:
196,372,173081,1,2,3:2:0:0:
412,356,173892,6,0,L|392:168,1,180,6|2,1:0|1:2,0:0:0:0:
388,124,174703,2,0,P|308:140|232:64,1,180,2|2,1:2|3:2,0:0:0:0:
228,28,175514,1,2,1:0:0:0:
124,56,175919,2,0,L|-8:84,1,120,8|2,0:0|1:2,0:0:0:0:
24,188,176730,2,2,P|60:192|96:208,1,60,2|2,3:2|3:2,3:3:0:0:
128,228,177135,5,6,1:0:0:0:
256,192,177237,12,2,179973,0:0:0:0:
184,124,181189,6,0,L|204:260,1,120,0|2,3:0|3:2,0:0:0:0:
310,242,182000,2,0,L|328:124,1,120,0|0,0:0|3:0,0:0:0:0:
344,16,182811,1,2,3:2:0:0:
452,4,183216,2,0,P|463:47|480:72,1,60,2|2,3:2|0:0,0:0:0:0:
500,104,183622,6,0,P|488:164|436:200,1,120,0|2,3:0|3:2,0:0:0:0:
336,176,184433,2,0,L|204:148,1,120,0|2,3:0|3:2,0:0:0:0:
184,48,185243,1,0,3:0:0:0:
80,80,185649,1,2,3:2:0:0:
112,184,186054,1,0,3:0:0:0:
218,151,186460,1,2,0:0:0:0:
292,72,186865,6,0,P|326:119|321:177,1,120,4|8,1:2|1:2,0:0:0:0:
240,248,187676,2,0,L|219:371,1,120,0|8,1:0|1:2,0:0:0:0:
168,349,188284,2,0,P|106:335|36:328,1,120,2|2,0:0|0:0,0:0:0:0:
16,284,188892,1,8,1:2:0:0:
32,176,189297,1,0,1:0:0:0:
116,108,189703,1,8,1:2:0:0:
220,132,190108,6,0,P|296:124|332:88,1,120,0|8,1:0|1:2,0:0:0:0:
392,12,190919,2,0,L|512:28,1,120,0|8,1:0|1:2,0:0:0:0:
500,136,191730,1,0,1:0:0:0:
428,216,192135,2,0,L|352:228,1,60,10|2,1:2|0:2,0:0:0:0:
316,232,192541,1,2,1:2:0:0:
256,140,192946,2,0,L|180:152,1,60,2|2,1:2|1:2,0:0:0:0:
144,156,193352,5,4,1:2:0:0:
56,91,193757,2,0,P|35:147|48:205,1,120,8|0,1:2|1:0,0:0:0:0:
96,300,194568,1,8,1:2:0:0:
204,316,194973,2,0,P|216:216|216:176,1,120,2|0,3:2|0:0,0:0:0:0:
216,144,195581,1,2,3:2:0:0:
208,92,195784,2,0,P|148:101|88:104,1,120,2|0,3:2|0:0,0:0:0:0:
24,188,196595,5,0,1:0:0:0:
100,264,197000,1,8,1:2:0:0:
168,180,197406,2,0,P|227:170|287:167,1,120,0|8,1:0|1:2,0:0:0:0:
332,200,198014,2,0,P|408:196|276:92,1,420,2|0,3:2|0:0,0:0:0:0:
228,160,199838,6,0,L|244:292,1,120,0|8,1:0|1:2,0:0:0:0:
140,316,200649,2,0,L|125:196,1,120,0|8,1:0|1:2,0:0:0:0:
120,144,201256,1,2,0:0:0:0:
112,92,201460,2,0,P|176:88|224:56,1,120,0|8,1:0|1:2,0:0:0:0:
264,24,202068,2,0,P|312:48|348:104,2,120,2|2|0,0:0|0:0|1:0,0:0:0:0:
212,8,203081,5,0,1:0:0:0:
200,260,204906,6,0,B|236:284|276:284|312:260,1,120,2|2,0:0|0:0,0:0:0:0:
348,160,205716,1,2,0:0:0:0:
312,120,205919,2,0,B|276:96|236:96|200:120,1,120,2|2,0:0|0:0,0:0:0:0:
164,160,206527,1,2,0:0:0:0:
