osu file format v14

[General]
AudioFilename: viva happy.mp3
AudioLeadIn: 0
PreviewTime: 62000
Countdown: 0
SampleSet: Soft
StackLeniency: 0.3
Mode: 0
LetterboxInBreaks: 0
WidescreenStoryboard: 1

[Editor]
Bookmarks: 84703
DistanceSpacing: 1.2
BeatDivisor: 4
GridSize: 4
TimelineZoom: 1

[Metadata]
Title:Viva Happy
TitleUnicode:ビバハピ
Artist:Nanahira
ArtistUnicode:ななひら
Creator:Frey
Version:M I K U !
Source:初音ミク -Project DIVA- X
Tags:Meltical sugar wave VOCALOID Mitchie M Hatsune Miku Chaoslitz cover
BeatmapID:1421827
BeatmapSetID:672621

[Difficulty]
HPDrainRate:6.5
CircleSize:4
OverallDifficulty:7.5
ApproachRate:8.5
SliderMultiplier:2
SliderTickRate:1

[Events]
//Background and Video events
0,0,"peco.jpg",0,0
//Break Periods
2,157676,163285
//Storyboard Layer 0 (Background)
//Storyboard Layer 1 (Fail)
//Storyboard Layer 2 (Pass)
//Storyboard Layer 3 (Foreground)
//Storyboard Sound Samples

[TimingPoints]
379,405.405405405405,4,2,0,40,1,0
6460,-100,4,2,0,70,0,0
10210,-100,4,2,0,50,0,0
10311,-100,4,2,0,70,0,0
11020,-100,4,2,0,50,0,0
11122,-100,4,2,0,70,0,0
12541,-76.9230769230769,4,2,0,70,0,0
13351,-100,4,2,0,70,0,0
22270,-86.9565217391304,4,2,0,70,0,0
22676,-76.9230769230769,4,2,0,70,0,0
23081,-100,4,2,0,70,0,0
25108,-90.9090909090909,4,2,0,73,0,0
25514,-83.3333333333333,4,2,0,76,0,0
25919,-76.9230769230769,4,2,0,79,0,0
26324,-100,4,2,0,70,0,0
28757,-86.9565217391304,4,2,0,70,0,0
29162,-76.9230769230769,4,2,0,70,0,0
29568,-100,4,2,0,70,0,0
31595,-100,4,2,0,75,0,0
32811,-111.111111111111,4,2,0,70,0,0
36054,-100,4,2,0,70,0,0
38487,-76.9230769230769,4,2,0,70,0,0
38892,-100,4,2,0,70,0,0
39297,-111.111111111111,4,2,0,70,0,0
42541,-100,4,2,0,70,0,0
44973,-76.9230769230769,4,2,0,70,0,0
45378,-100,4,2,0,70,0,0
45784,-125,4,2,0,70,0,0
55311,-100,4,2,0,70,0,0
60378,-100,4,2,0,80,0,0
60784,-100,4,2,0,75,0,0
62000,-90.9090909090909,4,2,0,80,0,1
84703,-100,4,2,0,70,0,0
90378,-86.9565217391304,4,2,0,70,0,0
90784,-76.9230769230769,4,2,0,70,0,0
91189,-100,4,2,0,70,0,0
92811,-111.111111111111,4,2,0,70,0,0
93216,-76.9230769230769,4,2,0,70,0,0
93622,-111.111111111111,4,2,0,70,0,0
94027,-76.9230769230769,4,2,0,70,0,0
94433,-111.111111111111,4,2,0,70,0,0
94838,-100,4,2,0,70,0,0
96865,-86.9565217391304,4,2,0,70,0,0
97270,-76.9230769230769,4,2,0,70,0,0
97676,-100,4,2,0,70,0,0
99297,-100,4,1,0,40,0,0
100919,-111.111111111111,4,2,0,70,0,0
104162,-100,4,2,0,70,0,0
106595,-133.333333333333,4,2,0,70,0,0
107406,-111.111111111111,4,2,0,70,0,0
110649,-100,4,2,0,70,0,0
113081,-76.9230769230769,4,2,0,70,0,0
113487,-100,4,2,0,70,0,0
113892,-200,4,2,0,70,0,0
114703,-125,4,2,0,70,0,0
121189,-200,4,2,0,70,0,0
121493,-200,4,2,0,40,0,0
121595,-125,4,2,0,70,0,0
123419,-100,4,2,0,70,0,0
126865,-100,4,2,0,60,0,0
127068,-100,4,2,0,70,0,0
128487,-100,4,2,0,80,0,0
128892,-100,4,2,0,70,0,0
130514,-100,4,2,0,75,0,0
131730,-90.9090909090909,4,2,0,80,0,1
136595,-111.111111111111,4,2,0,80,0,1
138216,-90.9090909090909,4,2,0,80,0,1
143081,-100,4,2,0,65,0,0
143487,-100,4,2,0,70,0,0
143892,-100,4,2,0,75,0,0
144297,-100,4,2,0,80,0,0
145108,-90.9090909090909,4,2,0,80,0,1
151189,-100,4,2,0,70,0,0
157270,-100,4,2,0,40,0,0
163960,-100,4,2,0,70,0,0
164162,-111.111111111111,4,2,0,70,0,0
164568,-111.111111111111,4,2,0,45,0,0
164669,-111.111111111111,4,2,0,70,0,0
166189,-111.111111111111,4,2,0,45,0,0
166291,-111.111111111111,4,2,0,70,0,0
167811,-111.111111111111,4,2,0,45,0,0
167912,-111.111111111111,4,2,0,70,0,0
168622,-111.111111111111,4,2,0,45,0,0
168723,-111.111111111111,4,2,0,70,0,0
171054,-111.111111111111,4,2,0,45,0,0
171156,-111.111111111111,4,2,0,70,0,0
171865,-111.111111111111,4,2,0,45,0,0
171966,-111.111111111111,4,2,0,70,0,0
172676,-111.111111111111,4,2,0,45,0,0
172777,-111.111111111111,4,2,0,70,0,0
175919,-111.111111111111,4,2,0,45,0,0
176020,-111.111111111111,4,2,0,70,0,0
177541,-111.111111111111,4,2,0,65,0,0
177946,-111.111111111111,4,2,0,60,0,0
178351,-111.111111111111,4,2,0,55,0,0
178757,-111.111111111111,4,2,0,50,0,0
179162,-111.111111111111,4,2,0,45,0,0
179568,-111.111111111111,4,2,0,40,0,0
179973,-100,4,2,0,70,0,0
180378,-100,4,2,0,40,0,0
181189,-100,4,2,0,45,0,0
182000,-100,4,2,0,50,0,0
182811,-100,4,2,0,55,0,0
183622,-100,4,2,0,60,0,0
184433,-100,4,2,0,65,0,0
185243,-100,4,2,0,70,0,0
186054,-100,4,2,0,75,0,0
186865,-90.9090909090909,4,2,0,80,0,1
194973,-111.111111111111,4,2,0,70,0,0
196595,-90.9090909090909,4,2,0,80,0,1
198014,-111.111111111111,4,2,0,80,0,0
199838,-90.9090909090909,4,2,0,80,0,1
203081,-100,4,2,0,70,0,0

[Colours]
Combo1 : 255,32,121
Combo2 : 166,255,32
Combo3 : 255,77,32
Combo4 : 32,255,255

[HitObjects]
256,192,3014,12,0,4838,0:0:0:0:
68,92,6460,6,0,L|76:152,1,50,2|0,2:0|0:0,0:0:0:0:
180,224,6662,2,0,L|204:148,1,50,2|0,2:0|0:0,0:0:0:0:
232,64,6865,6,0,P|284:68|340:48,1,100,6|0,1:1|0:0,3:1:0:0:
376,32,7169,1,0,0:0:0:0:
376,32,7270,1,0,1:0:0:0:
456,176,7473,5,0,0:0:0:0:
428,172,7574,1,0,0:0:0:0:
400,168,7676,2,0,P|351:160|276:152,1,100,0|0,1:0|0:0,0:0:0:0:
224,192,7980,2,0,L|216:142,1,50,0|0,0:0|1:0,0:0:0:0:
432,56,8284,5,6,1:0:0:0:
396,252,8487,2,0,P|387:301|380:350,1,100,6|0,1:0|0:0,0:0:0:0:
404,372,8791,5,0,0:0:0:0:
404,372,8892,1,0,1:0:0:0:
232,332,9095,1,0,0:0:0:0:
232,332,9196,1,0,0:0:0:0:
232,332,9297,2,0,P|188:320|120:296,1,100,0|0,1:0|0:0,0:0:0:0:
40,272,9601,2,0,L|48:321,1,50,0|0,0:0|1:0,0:0:0:0:
168,36,9906,5,6,1:0:0:0:
152,156,10108,1,6,1:0:0:0:
124,164,10210,2,0,P|75:175|25:183,1,100,2|0,0:0|0:0,0:0:0:0:
12,100,10514,5,0,1:0:0:0:
168,36,10716,1,2,0:0:0:0:
244,184,10919,1,0,1:0:0:0:
236,212,11021,2,0,P|224:260|216:310,1,100,2|0,0:0|0:0,0:0:0:0:
140,248,11324,5,0,1:0:0:0:
304,284,11527,1,2,0:0:0:0:
408,152,11730,6,0,L|396:88,1,50,0|2,1:0|0:0,0:0:0:0:
247,150,12034,2,0,L|216:112,1,50,0|2,0:0|0:0,0:0:0:0:
216,310,12338,2,0,L|172:288,1,50,2|0,0:0|0:0,0:0:0:0:
136,207,12541,6,2,P|83:283|129:362,1,194.999991073609,2|0,1:0|0:0,0:0:0:0:
381,362,12946,2,2,P|428:283|375:207,1,194.999991073609,2|0,1:0|0:0,0:0:0:0:
324,108,13351,5,2,0:0:0:0:
292,128,13452,1,2,0:0:0:0:
256,136,13554,1,2,0:0:0:0:
220,128,13655,1,2,0:0:0:0:
188,108,13757,6,0,P|100:92|40:144,1,150,12|0,1:2|0:0,0:0:0:0:
8,212,14162,1,0,1:0:0:0:
16,240,14264,2,0,P|30:301|40:356,1,100,2|0,0:0|0:0,0:0:0:0:
112,380,14568,5,8,1:2:0:0:
240,264,14770,1,2,0:0:0:0:
53,123,14973,5,0,1:0:0:0:
220,168,15176,1,2,0:0:0:0:
140,240,15378,5,8,1:2:0:0:
284,52,15581,2,2,P|234:49|190:25,1,100,2|0,0:0|1:0,0:0:0:0:
320,196,15986,1,2,0:0:0:0:
384,100,16189,2,0,P|424:88|488:84,1,100,8|2,1:2|0:0,0:0:0:0:
512,124,16493,1,0,0:0:0:0:
508,176,16595,6,0,P|488:228|456:260,1,100,0|0,1:0|0:0,0:0:0:0:
380,296,16899,1,0,0:0:0:0:
380,296,17000,2,0,P|330:293|282:279,1,100,8|2,1:2|0:0,0:0:0:0:
208,160,17406,1,0,1:0:0:0:
156,160,17507,1,0,0:0:0:0:
108,176,17608,1,0,0:0:0:0:
48,256,17811,6,0,P|29:238|18:216,1,50,8|0,1:2|0:0,0:0:0:0:
16,132,18014,2,0,P|32:104|52:92,1,50,2|0,0:0|0:0,0:0:0:0:
132,44,18216,5,0,1:0:0:0:
256,132,18419,1,2,0:0:0:0:
256,152,18520,1,0,0:0:0:0:
256,172,18622,1,8,1:2:0:0:
256,192,18723,1,0,0:0:0:0:
256,212,18824,1,2,0:0:0:0:
256,232,18926,1,0,0:0:0:0:
256,252,19027,1,2,1:2:0:0:
256,272,19128,1,0,0:0:0:0:
256,292,19230,6,0,L|256:356,1,50,2|0,0:0|0:0,0:0:0:0:
168,216,19433,2,0,L|100:244,1,50,2|0,0:0|0:0,0:0:0:0:
344,216,19635,2,0,L|412:244,1,50,2|0,0:0|0:0,0:0:0:0:
492,76,19838,6,0,P|448:128|352:104,1,150,4|0,1:2|0:0,0:0:0:0:
320,56,20243,2,0,P|266:46|208:40,1,100,10|0,1:2|0:0,0:0:0:0:
44,184,20649,2,0,P|52:109|68:36,1,150,0|0,1:0|0:0,0:0:0:0:
144,76,21054,2,0,P|137:125|128:174,1,100,8|0,1:2|0:0,0:0:0:0:
88,340,21460,5,2,1:2:0:0:
44,184,21662,1,0,0:0:0:0:
208,228,21865,2,0,P|284:248|360:264,1,150,8|0,1:2|0:0,0:0:0:0:
395,356,22270,6,2,P|455:297|445:214,1,172.500003290176,2|0,1:0|0:0,0:0:0:0:
340,108,22676,6,2,P|256:152|172:108,1,194.999991073609,2|0,1:0|0:0,0:0:0:0:
88,124,23081,6,0,P|94:175|100:236,1,100,4|0,1:0|0:0,0:0:0:0:
156,24,23487,1,10,1:2:0:0:
0,136,23689,1,0,0:0:0:0:
173,109,23892,2,0,P|245:97|328:80,1,150,0|0,1:0|0:0,0:0:0:0:
360,160,24297,2,0,P|409:167|458:177,1,100,8|0,1:2|0:0,0:0:0:0:
482,41,24703,6,0,P|433:33|384:24,1,100,6|0,1:2|0:0,0:0:0:0:
388,268,25108,6,0,P|338:275|280:288,1,110.000003356934,14|0,1:2|0:0,0:0:0:0:
255,60,25514,6,0,P|196:51|137:40,1,119.999996337891,6|0,1:2|0:0,0:0:0:0:
136,280,25919,6,0,P|71:289|8:305,1,129.999994049073,14|0,1:2|0:0,0:0:0:0:
137,40,26324,6,0,P|89:92|117:158,1,150,4|0,1:2|0:0,0:0:0:0:
200,176,26730,1,8,1:2:0:0:
356,36,26933,1,0,0:0:0:0:
260,12,27135,2,0,P|296:116|324:184,1,150,0|0,1:0|0:0,0:0:0:0:
348,238,27541,2,0,P|385:206|403:160,1,100,8|0,1:2|0:0,0:0:0:0:
356,36,27946,5,2,1:2:0:0:
176,132,28149,1,0,0:0:0:0:
347,238,28351,2,0,P|420:239|470:186,1,150,8|0,1:2|0:0,0:0:0:0:
380,144,28757,6,2,P|289:90|208:36,1,172.500003290176,2|0,1:0|0:0,0:0:0:0:
139,0,29162,6,2,P|87:71|155:127,1,194.999991073609,2|0,1:0|0:0,0:0:0:0:
207,196,29568,6,0,P|193:243|185:293,1,100,4|0,1:0|0:0,0:0:0:0:
280,268,29973,1,8,1:2:0:0:
124,368,30176,1,0,0:0:0:0:
20,216,30378,2,0,P|36:160|52:56,1,150,2|0,1:2|0:0,0:0:0:0:
115,208,30784,2,0,P|129:159|135:110,1,100,8|0,1:2|3:0,0:0:0:0:
220,48,31189,6,0,L|320:32,2,66.6666666666667,2|2|2,0:0|0:0|0:0,0:0:0:0:
348,116,31595,2,0,L|413:105,2,66.6666666666667,2|2|2,3:2|3:2|3:2,0:0:0:0:
473,184,32000,6,0,P|342:241|231:152,1,300,2|0,3:1|0:0,0:0:0:0:
133,232,32811,6,0,P|120:272|108:324,1,89.9999972534181,6|0,1:0|0:0,0:0:0:0:
230,151,33216,1,2,1:2:0:0:
200,12,33419,1,0,0:0:0:0:
230,151,33622,1,0,0:0:0:0:
90,111,33824,2,0,P|48:93|12:68,1,89.9999972534181,0|2,1:0|1:2,0:0:0:0:
133,233,34230,6,0,P|232:232|284:312,1,179.999994506836,2|0,1:0|0:0,0:0:0:0:
444,120,34838,1,2,1:2:0:0:
420,208,35041,1,0,0:0:0:0:
508,184,35243,1,0,0:0:0:0:
380,56,35446,1,0,1:0:0:0:
332,232,35649,2,0,P|261:249|217:257,1,89.9999972534181,2|0,1:2|0:0,0:0:0:0:
152,32,36054,6,0,L|202:40,2,50,6|0|0,3:2|0:0|0:0,0:0:0:0:
360,32,36460,2,0,L|311:40,2,50,2|0|0,3:2|0:0|0:0,0:0:0:0:
134,136,36865,6,0,L|184:144,2,50,2|0|0,3:2|0:0|0:0,0:0:0:0:
379,135,37270,2,0,L|330:143,2,50,2|0|0,3:2|0:0|0:0,0:0:0:0:
116,240,37676,6,0,L|166:248,2,50,2|0|0,3:2|0:0|0:0,0:0:0:0:
396,240,38081,2,0,L|347:248,2,50,2|0|0,3:2|0:0|0:0,0:0:0:0:
256,380,38487,6,2,B|216:272|300:308|256:192,1,194.999991073609,2|0,3:1|0:0,0:1:0:0:
168,48,38892,6,2,P|119:95|167:142,1,150,2|0,1:2|0:0,0:2:0:0:
256,95,39297,6,0,L|388:79,1,89.9999972534181,6|0,1:0|0:0,0:0:0:0:
256,289,39703,2,0,L|124:273,1,89.9999972534181,2|0,1:2|0:0,0:0:0:0:
360,228,40108,1,0,0:0:0:0:
228,172,40311,1,0,1:0:0:0:
345,84,40514,1,2,1:2:0:0:
139,109,40716,6,0,P|127:197|166:277,1,179.999994506836,2|0,1:0|0:0,0:0:0:0:
248,336,41324,1,2,1:2:0:0:
276,208,41527,1,0,0:0:0:0:
165,276,41730,2,0,P|81:268|49:256,1,89.9999972534181,0|0,0:0|1:0,0:0:0:0:
16,40,42135,1,2,1:2:0:0:
200,64,42338,1,0,0:0:0:0:
108,52,42541,6,0,L|116:-4,2,50,6|0|0,3:2|0:0|0:0,0:0:0:0:
92,176,42946,2,0,L|84:225,2,50,2|0|0,3:2|0:0|0:0,0:0:0:0:
200,64,43351,6,0,L|208:8,2,50,2|0|0,3:2|0:0|0:0,0:0:0:0:
180,224,43757,2,0,L|172:273,2,50,2|0|0,3:2|0:0|0:0,0:0:0:0:
292,76,44162,6,0,L|300:20,2,50,2|0|0,3:2|0:0|0:0,0:0:0:0:
268,272,44568,2,0,L|260:321,2,50,2|0|0,3:2|0:0|0:0,0:0:0:0:
492,116,44973,6,2,P|428:96|348:156,1,129.999994049073,2|0,1:0|0:0,0:0:0:0:
340,160,45277,1,0,0:0:0:0:
332,200,45378,1,2,1:2:0:0:
344,240,45480,1,0,0:0:0:0:
372,268,45581,1,0,0:0:0:0:
140,268,45784,6,0,P|180:200|140:124,1,160,4|2,1:2|0:0,0:0:0:0:
80,80,46392,2,0,P|8:92|-8:92,1,80,0|2,0:0|1:2,0:0:0:0:
160,44,46797,5,2,0:0:0:0:
48,168,47000,1,2,0:0:0:0:
212,192,47203,2,0,P|272:200|304:208,1,80,0|2,1:0|1:2,0:0:0:0:
328,284,47608,2,0,P|378:226|359:151,1,160,0|0,0:0|1:0,0:0:0:0:
280,116,48216,1,2,1:2:0:0:
290,204,48419,5,8,3:2:0:0:
456,168,48622,1,8,3:2:0:0:
340,44,48824,2,0,P|256:36|144:20,1,160,8|0,3:2|0:0,0:0:0:0:
16,128,49432,5,2,0:0:0:0:
128,112,49635,1,0,1:0:0:0:
84,188,49838,1,2,1:2:0:0:
64,52,50041,1,0,0:0:0:0:
192,0,50243,1,2,0:0:0:0:
288,96,50446,1,0,0:0:0:0:
220,216,50649,6,0,P|192:168|200:104,2,120,0|0|0,1:0|1:0|1:0,0:0:0:0:
304,276,51460,1,2,1:2:0:0:
396,232,51662,1,8,0:0:0:0:
416,228,51764,1,0,0:0:0:0:
436,228,51865,1,0,0:0:0:0:
456,232,51966,1,0,0:0:0:0:
476,240,52068,1,8,0:0:0:0:
312,172,52270,6,0,P|248:212|160:196,1,160,0|2,1:0|0:0,0:0:0:0:
6,197,52878,2,0,P|40:176|79:171,1,80,0|2,0:0|1:2,0:0:0:0:
72,268,53284,5,2,0:0:0:0:
168,132,53487,1,2,0:0:0:0:
79,171,53689,1,2,1:2:0:0:
244,192,53892,2,0,P|328:204|440:224,1,160,0|2,1:0|0:0,0:0:0:0:
508,100,54500,2,0,P|460:93|428:88,1,80,0|2,1:0|1:2,0:0:0:0:
256,60,54906,5,2,1:2:0:0:
240,228,55108,1,2,1:2:0:0:
405,265,55311,2,0,P|454:181|428:87,1,200,6|0,1:0|1:0,0:0:0:0:
232,136,55919,2,0,L|183:146|134:156,1,100,8|2,1:2|0:0,0:0:0:0:
36,176,56324,1,0,1:0:0:0:
72,80,56527,5,2,1:2:0:0:
232,136,56730,1,10,1:2:0:0:
180,300,56933,2,0,P|96:356|4:332,1,200,6|0,1:0|1:0,0:0:0:0:
246,227,57541,2,0,P|205:202|155:203,1,100,8|2,1:2|0:0,0:0:0:0:
276,324,57946,1,0,1:0:0:0:
492,112,58149,5,2,1:2:0:0:
380,64,58351,1,2,1:2:0:0:
336,180,58554,2,0,P|256:232|176:176,1,200,6|0,1:0|0:0,0:0:0:0:
256,20,59162,5,2,1:0:0:0:
92,220,59568,5,4,1:0:0:0:
256,144,59872,1,4,1:0:0:0:
420,220,60176,1,4,1:0:0:0:
256,364,60378,5,4,1:2:0:0:
97,46,60784,5,2,0:0:0:0:
109,166,60987,1,2,0:0:0:0:
121,286,61189,1,2,0:0:0:0:
391,286,61392,5,2,0:0:0:0:
403,166,61594,1,10,0:0:0:0:
415,46,61797,1,2,0:0:0:0:
256,180,62000,6,0,B|228:236|284:280|256:340,1,165.000005035401,4|0,1:2|0:0,0:0:0:0:
176,384,62406,2,0,P|88:372|44:368,1,110.000003356934,8|2,1:2|0:0,0:0:0:0:
0,152,62811,2,0,P|88:164|132:168,1,110.000003356934,0|2,1:0|0:0,0:0:0:0:
256,28,63216,1,8,1:2:0:0:
160,60,63419,6,0,P|184:132|216:172,1,110.000003356934,2|0,0:0|1:0,0:0:0:0:
352,324,63824,2,0,P|328:252|296:212,1,110.000003356934,2|8,0:0|1:2,0:0:0:0:
148,244,64230,5,2,0:0:0:0:
364,140,64433,1,2,1:2:0:0:
100,152,64635,1,2,0:0:0:0:
412,232,64838,1,10,1:2:0:0:
256,192,65041,1,2,0:0:0:0:
256,192,65142,1,0,0:0:0:0:
256,192,65243,6,0,P|204:256|220:332,1,165.000005035401,0|0,1:0|0:0,0:0:0:0:
300,376,65649,2,0,P|320:280|328:232,1,110.000003356934,8|2,1:2|0:0,0:0:0:0:
232,104,66054,1,0,1:0:0:0:
56,168,66257,2,0,P|60:224|88:272,1,110.000003356934,2|8,0:0|1:2,1:2:0:0:
351,197,66662,6,0,P|403:180|456:167,1,110.000003356934,2|0,0:0|1:0,0:0:0:0:
161,197,67068,2,0,P|81:173|25:161,1,110.000003356934,2|8,0:0|1:2,0:0:0:0:
228,36,67473,5,2,0:0:0:0:
16,76,67676,1,2,1:2:0:0:
112,0,67878,1,2,0:0:0:0:
252,156,68081,1,10,1:2:0:0:
48,200,68284,1,2,0:0:0:0:
48,200,68385,1,0,0:0:0:0:
48,200,68487,6,0,P|124:180|156:92,1,165.000005035401,0|0,1:0|0:0,0:0:0:0:
132,20,68892,1,8,1:2:0:0:
16,76,69095,1,2,0:0:0:0:
48,200,69297,2,0,P|72:292|80:332,1,110.000003356934,0|2,1:0|0:0,0:0:0:0:
308,180,69703,1,8,1:2:0:0:
203,142,69906,6,2,P|232:248|256:356,1,220.000006713867
376,324,70514,1,8,1:2:0:0:
496,292,70716,2,0,P|516:176|444:104,1,220.000006713867,2|2,0:1|0:0,0:0:0:0:
232,144,71324,2,0,P|240:72|248:28,1,110.000003356934,8|0,1:2|0:0,0:0:0:0:
436,8,71730,5,0,1:0:0:0:
451,107,71933,1,2,0:0:0:0:
368,160,72135,1,8,1:2:0:0:
353,61,72338,1,2,0:0:0:0:
144,160,72540,5,0,1:0:0:0:
61,107,72743,1,2,0:0:0:0:
46,206,72946,1,8,1:2:0:0:
129,259,73148,1,2,0:0:0:0:
383,259,73351,2,0,P|437:256|492:258,1,110.000003356934,0|0,1:0|0:0,0:0:0:0:
256,364,73757,5,10,1:2:0:0:
208,276,73960,1,2,0:2:0:0:
256,20,74162,5,2,1:2:0:0:
304,108,74365,1,2,1:2:0:0:
256,364,74568,5,2,1:2:0:0:
256,192,74770,1,2,1:2:0:0:
256,192,74872,1,0,1:0:0:0:
256,192,74973,6,0,P|172:168|92:176,1,165.000005035401,4|0,1:2|0:0,0:0:0:0:
20,227,75378,2,0,P|22:282|47:330,1,110.000003356934,8|2,1:2|0:0,0:0:0:0:
164,244,75784,1,0,1:0:0:0:
104,108,75987,1,2,0:0:0:0:
20,228,76189,1,8,1:2:0:0:
164,244,76392,6,0,P|240:252|304:264,1,110.000003356934,2|0,0:0|1:0,0:0:0:0:
348,140,76797,2,0,P|272:132|208:120,1,110.000003356934,2|8,0:0|1:2,0:0:0:0:
408,276,77203,5,2,0:0:0:0:
492,156,77406,1,2,1:2:0:0:
348,140,77608,1,2,0:0:0:0:
264,260,77811,1,10,1:2:0:0:
408,276,78014,2,0,P|456:280|492:284,1,55.0000016784668,2|0,0:0|0:0,0:0:0:0:
508,200,78216,6,0,P|444:196|324:184,1,165.000005035401,0|0,1:0|0:0,0:0:0:0:
252,172,78622,2,0,P|219:128|214:74,1,110.000003356934,8|2,1:2|0:0,0:0:0:0:
316,92,79027,1,0,1:0:0:0:
356,252,79230,1,2,0:0:0:0:
196,292,79433,1,8,1:2:0:0:
156,132,79635,6,0,P|124:176|112:240,1,110.000003356934,2|0,0:0|1:0,0:0:0:0:
356,252,80041,2,0,P|388:208|400:144,1,110.000003356934,2|8,0:0|1:2,0:0:0:0:
396,56,80446,5,2,0:0:0:0:
256,116,80649,1,2,1:2:0:0:
256,268,80851,1,2,0:0:0:0:
116,328,81054,1,10,1:2:0:0:
8,220,81257,2,0,L|16:164,1,55.0000016784668,2|0,0:0|0:0,0:0:0:0:
28,72,81460,6,0,P|100:48|168:96,1,165.000005035401,0|0,1:0|0:0,0:0:0:0:
192,184,81865,2,0,P|264:172|316:168,1,110.000003356934,8|2,1:2|0:0,0:0:0:0:
400,160,82270,1,0,1:0:0:0:
424,64,82473,1,2,0:0:0:0:
280,80,82676,1,8,1:2:0:0:
380,276,82878,5,0,0:0:0:0:
479,255,83081,2,0,P|401:185|300:213,1,220.000006713867,2|8,1:2|1:2,0:0:0:0:
32,128,83689,2,0,P|110:198|211:169,1,220.000006713867,2|2,0:0|0:0,0:0:0:0:
256,48,84297,1,8,1:2:0:0:
132,108,84500,1,2,0:0:0:0:
256,272,84703,6,0,B|348:328|356:248|448:308,1,200,0|2,3:0|0:0,0:0:0:0:
320,192,85311,1,0,0:0:0:0:
256,112,85514,2,0,B|348:56|356:136|448:76,1,200,0|2,3:0|0:0,0:0:0:0:
512,232,86122,5,0,0:0:0:0:
446,306,86324,1,2,3:2:0:0:
356,264,86527,1,0,0:0:0:0:
356,264,86628,2,0,P|302:276|256:284,1,100,2|0,0:0|0:0,0:0:0:0:
184,352,86933,5,2,0:0:0:0:
92,316,87135,1,0,3:0:0:0:
164,64,87541,6,0,P|220:60|252:56,1,50,2|0,0:0|0:0,0:0:0:0:
175,247,87743,2,0,P|199:244|224:243,1,50,2|0,0:0|0:0,0:0:0:0:
208,152,87946,6,0,B|124:176|148:140|60:164,1,150,4|0,1:2|0:0,0:0:0:0:
0,224,88351,2,0,P|0:296|28:336,1,100,10|0,1:2|0:0,0:0:0:0:
175,247,88757,2,0,P|256:236|324:259,1,150,0|0,1:0|0:0,0:0:0:0:
368,328,89162,2,0,L|480:312,1,100,8|0,1:2|0:0,0:0:0:0:
466,70,89568,6,0,L|368:56,1,100,2|0,1:2|0:0,0:0:0:0:
232,260,89973,2,0,L|380:238,1,150,8|0,1:2|0:0,0:0:0:0:
380,146,90378,6,2,L|172:116,1,172.500003290176,2|0,1:0|0:0,0:0:0:0:
97,20,90784,6,2,P|48:102|79:191,1,194.999991073609,2|0,1:0|0:0,0:0:0:0:
128,264,91189,6,0,P|188:204|228:172,1,100,4|0,1:0|0:0,0:0:0:0:
276,132,91595,1,10,1:2:0:0:
88,68,91797,1,0,0:0:0:0:
128,264,92000,2,0,P|182:312|255:305,1,150,0|0,1:0|0:0,0:0:0:0:
216,212,92406,2,0,P|181:176|134:162,1,100,8|0,1:2|0:0,0:0:0:0:
308,36,92811,6,0,L|404:28,1,89.9999972534181,2|0,0:0|0:0,0:0:0:0:
204,88,93216,6,0,L|68:76,1,129.999994049073,8|0,1:2|0:0,0:0:0:0:
320,140,93622,6,0,L|416:132,1,89.9999972534181,2|0,0:0|0:0,0:0:0:0:
192,192,94027,6,0,L|104:184,1,64.9999970245363,8|0,1:2|0:0,0:0:0:0:
62,181,94230,2,0,L|126:186,1,64.9999970245363,2|0,0:0|0:0,0:0:0:0:
328,244,94433,6,0,L|480:232,1,134.999995880127
512,164,94838,6,0,L|476:40,1,100,14|0,1:2|0:0,0:0:0:0:
285,100,95243,2,0,L|327:243,1,150,0|0,1:2|0:0,0:0:0:0:
400,200,95649,2,0,L|364:76,1,100,8|0,1:2|0:0,0:0:0:0:
160,0,96054,5,2,1:2:0:0:
344,20,96257,1,0,0:0:0:0:
200,136,96460,2,0,P|136:172|56:168,1,150,8|0,1:2|0:0,0:0:0:0:
0,100,96865,6,2,P|72:28|156:52,1,172.500003290176,2|0,1:0|0:0,0:0:0:0:
312,136,97270,6,2,P|403:152|466:83,1,194.999991073609,2|0,1:0|0:0,0:0:0:0:
372,56,97676,6,0,P|318:39|272:24,1,100,4|0,1:0|0:0,0:0:0:0:
176,276,98081,2,0,P|223:261|271:245,1,100,8|0,1:2|0:0,0:0:0:0:
404,196,98487,2,0,P|381:130|311:135,1,150,2|0,1:2|0:0,0:0:0:0:
271,245,98892,6,0,P|280:284|292:320,1,50,2|0,0:0|0:0,0:0:0:0:
360,332,99095,2,0,P|398:343|435:351,1,50,2|0,0:0|0:0,0:0:0:0:
492,356,99297,5,0,0:0:0:0:
492,356,99399,1,0,0:0:0:0:
492,356,99500,1,0,0:0:0:0:
468,152,99703,1,0,0:0:0:0:
360,332,99906,1,0,0:0:0:0:
336,176,100108,1,0,0:0:0:0:
228,308,100311,1,0,0:0:0:0:
220,76,100514,6,0,B|220:104|220:104|228:132|256:136|284:132|292:104|292:104|292:76,1,150,2|0,0:2|2:0,0:0:0:0:
256,0,100919,6,0,P|170:7|134:85,1,179.999994506836,6|2,1:0|1:2,0:0:0:0:
148,184,101527,1,0,0:0:0:0:
240,220,101730,1,0,0:0:0:0:
224,120,101933,1,0,1:0:0:0:
164,284,102135,1,2,1:2:0:0:
256,380,102338,6,0,P|341:372|377:294,1,179.999994506836,2|0,1:0|0:0,0:0:0:0:
352,110,102946,2,0,L|340:200,1,89.9999972534181,2|0,1:2|0:0,0:0:0:0:
256,96,103351,1,0,0:0:0:0:
436,168,103554,1,0,1:0:0:0:
376,293,103757,2,0,L|264:300,1,89.9999972534181,2|0,1:2|0:0,0:0:0:0:
66,270,104163,5,6,3:2:0:0:
68,250,104264,1,0,0:0:0:0:
70,230,104365,1,0,0:0:0:0:
82,90,104569,1,2,3:2:0:0:
80,110,104670,1,0,0:0:0:0:
78,130,104771,1,0,0:0:0:0:
176,284,104973,5,2,3:2:0:0:
178,253,105074,1,0,0:0:0:0:
181,222,105175,1,0,0:0:0:0:
193,62,105378,1,2,3:2:0:0:
190,93,105479,1,0,0:0:0:0:
188,124,105580,1,0,0:0:0:0:
286,298,105784,5,2,3:2:0:0:
288,258,105885,1,0,0:0:0:0:
292,218,105986,1,0,0:0:0:0:
306,40,106189,1,2,3:2:0:0:
302,80,106290,1,0,0:0:0:0:
300,120,106391,1,0,0:0:0:0:
395,311,106595,6,0,P|482:250|381:219,1,262.500010013581,2|0,0:0|0:0,0:0:0:0:
316,276,107406,6,0,P|252:256|192:248,1,89.9999972534181,6|0,1:0|0:0,0:0:0:0:
196,108,107811,2,0,P|260:128|320:136,1,89.9999972534181,2|0,1:2|0:0,0:0:0:0:
132,228,108216,1,0,0:0:0:0:
99,85,108419,1,0,1:0:0:0:
35,205,108622,1,2,1:2:0:0:
210,363,108824,6,0,P|273:304|256:220,1,179.999994506836,2|0,1:0|0:0,0:0:0:0:
127,304,109433,2,0,P|82:297|39:286,1,89.9999972534181,2|0,1:2|0:0,0:0:0:0:
208,140,109838,1,0,0:0:0:0:
208,244,110041,1,0,1:0:0:0:
38,99,110243,2,0,P|81:88|126:81,1,89.9999972534181,2|0,1:2|0:0,0:0:0:0:
355,88,110649,5,6,3:2:0:0:
351,68,110750,1,0,0:0:0:0:
348,48,110851,1,0,0:0:0:0:
373,186,111055,1,2,3:2:0:0:
376,206,111156,1,0,0:0:0:0:
379,226,111257,1,0,0:0:0:0:
249,124,111459,5,2,3:2:0:0:
244,93,111560,1,0,0:0:0:0:
238,63,111661,1,0,0:0:0:0:
268,220,111864,1,2,3:2:0:0:
274,251,111965,1,0,0:0:0:0:
279,282,112068,1,0,0:0:0:0:
143,157,112270,5,2,3:2:0:0:
137,117,112371,1,0,0:0:0:0:
128,78,112472,1,0,0:0:0:0:
161,253,112675,1,2,3:2:0:0:
169,292,112776,1,0,0:0:0:0:
176,332,112877,1,0,0:0:0:0:
37,190,113081,6,0,P|6:135|34:79,1,129.999994049073,2|0,1:0|0:0,0:0:0:0:
76,84,113385,1,0,0:0:0:0:
116,92,113487,1,2,1:2:0:0:
156,100,113588,1,0,0:0:0:0:
196,108,113689,1,0,0:0:0:0:
328,275,113892,6,0,B|382:280|407:243|407:243|444:268|488:243,1,175,4|0,1:2|0:0,0:0:0:0:
488,244,114703,6,0,P|492:200|464:160,1,80,2|0,1:2|0:0,0:0:0:0:
320,148,115108,1,2,0:0:0:0:
492,80,115311,1,0,1:0:0:0:
336,60,115514,2,0,L|236:43,1,80,0|0,1:0|0:0,0:0:0:0:
172,32,115919,1,2,0:0:0:0:
152,188,116122,2,0,P|133:154|135:114,1,80,0|2,1:0|1:2,0:0:0:0:
104,264,116527,5,8,3:2:0:0:
48,96,116730,1,8,3:2:0:0:
222,132,116933,2,0,P|304:152|392:168,1,160,8|0,3:2|0:0,0:0:0:0:
488,188,117541,5,2,0:0:0:0:
420,244,117743,1,0,1:0:0:0:
378,165,117946,1,2,1:2:0:0:
448,108,118149,1,0,0:0:0:0:
420,244,118351,2,0,P|372:248|332:264,1,80,2|0,0:0|0:0,0:0:0:0:
256,332,118757,6,0,P|200:308|168:244,2,120,0|0|0,1:0|1:0|1:0,0:0:0:0:
342,258,119568,1,2,1:2:0:0:
256,184,119770,1,8,0:0:0:0:
238,174,119871,1,0,0:0:0:0:
219,168,119972,1,0,0:0:0:0:
199,165,120074,1,0,0:0:0:0:
179,168,120175,1,8,0:0:0:0:
72,204,120378,6,0,P|36:136|40:52,1,160,0|2,1:0|0:0,0:0:0:0:
128,32,120987,1,0,0:0:0:0:
188,136,121189,6,0,B|188:160|188:160|168:181|168:181|172:216,1,75,2|0,0:0|0:0,0:0:0:0:
176,228,121595,6,0,P|232:240|288:260,1,80,2|0,0:0|0:0,0:0:0:0:
372,292,122000,1,2,0:0:0:0:
390,283,122101,1,0,0:0:0:0:
405,271,122202,1,0,0:0:0:0:
417,255,122304,1,0,0:0:0:0:
426,237,122405,1,2,0:0:0:0:
430,217,122506,1,0,0:0:0:0:
429,197,122608,1,0,0:0:0:0:
424,178,122709,1,0,0:0:0:0:
415,160,122810,1,2,1:2:0:0:
304,124,123014,5,2,1:2:0:0:
484,104,123216,1,2,1:2:0:0:
331,3,123419,2,0,P|235:9|184:90,1,200,6|0,1:0|1:0,0:0:0:0:
204,252,124027,2,0,L|220:376,1,100,8|2,1:2|0:0,0:0:0:0:
316,372,124433,1,0,1:0:0:0:
337,272,124635,5,2,1:2:0:0:
216,168,124838,1,10,1:2:0:0:
128,304,125041,2,0,P|48:296|4:188,1,200,6|0,1:0|0:0,0:0:0:0:
116,111,125649,2,0,P|157:83|191:47,1,100,8|2,1:2|0:0,0:0:0:0:
96,12,126054,1,0,1:0:0:0:
20,80,126257,5,2,1:2:0:0:
120,232,126460,1,10,1:2:0:0:
272,132,126662,1,6,1:0:0:0:
372,116,126865,6,0,L|448:104,1,50,2|2,0:0|0:0,0:0:0:0:
288,232,127068,2,0,L|300:308,1,50,2|2,0:0|0:0,0:0:0:0:
256,32,127270,1,2,1:0:0:0:
256,352,127676,5,6,1:0:0:0:
256,192,127980,1,6,1:0:0:0:
256,32,128284,1,6,1:0:0:0:
96,192,128487,5,6,1:2:0:0:
416,192,128892,5,2,0:0:0:0:
420,160,128993,1,2,0:0:0:0:
424,128,129095,1,2,0:0:0:0:
436,28,129297,1,2,0:0:0:0:
96,192,129703,5,2,0:0:0:0:
92,160,129804,1,2,0:0:0:0:
88,128,129906,1,2,0:0:0:0:
76,28,130108,1,2,0:0:0:0:
336,264,130514,5,2,0:0:0:0:
176,264,130716,1,2,0:0:0:0:
360,364,130919,5,2,0:0:0:0:
152,364,131122,1,2,0:0:0:0:
432,292,131324,5,10,0:0:0:0:
80,292,131527,1,2,0:0:0:0:
184,108,131730,6,0,P|256:72|328:108,1,165.000005035401,4|0,1:2|0:0,0:0:0:0:
364,192,132135,2,0,L|476:164,1,110.000003356934,8|2,1:2|0:0,0:0:0:0:
148,192,132541,2,0,L|36:164,1,110.000003356934,0|2,1:2|0:0,0:0:0:0:
256,72,132946,1,8,1:2:0:0:
186,278,133149,6,0,P|126:310|82:358,1,110.000003356934,2|0,0:0|1:0,0:0:0:0:
326,106,133554,2,0,P|386:74|430:26,1,110.000003356934,2|8,0:0|1:2,0:0:0:0:
424,264,133960,5,2,0:0:0:0:
296,232,134162,1,2,1:2:0:0:
88,120,134365,1,2,0:0:0:0:
216,152,134567,1,10,1:2:0:0:
124,248,134770,1,2,0:0:0:0:
124,248,134872,1,0,0:0:0:0:
124,248,134973,6,0,L|168:72,1,165.000005035401,0|0,1:0|0:0,0:0:0:0:
256,76,135378,2,0,L|384:60,1,110.000003356934,8|2,1:2|0:0,0:0:0:0:
488,248,135784,2,0,L|378:234,1,110.000003356934,0|2,1:0|0:0,0:0:0:0:
208,176,136189,1,8,1:2:0:0:
176,284,136392,5,0,0:0:0:0:
100,204,136595,2,0,P|68:121|85:33,1,179.999994506836,0|2,1:0|0:0,0:0:0:0:
256,104,137203,1,2,0:0:0:0:
426,32,137406,2,0,P|444:119|412:202,1,179.999994506836,2|2,1:2|0:0,0:0:0:0:
336,284,138014,1,2,0:0:0:0:
336,284,138115,1,0,0:0:0:0:
336,284,138216,6,0,P|256:244|180:260,1,165.000005035401,4|0,1:2|0:0,0:0:0:0:
112,316,138622,2,0,P|89:266|101:214,1,110.000003356934,8|2,1:2|0:0,0:0:0:0:
256,84,139027,1,0,1:0:0:0:
184,257,139230,1,2,0:0:0:0:
72,108,139433,1,8,1:2:0:0:
320,184,139635,6,0,P|399:115|380:11,1,220.000006713867,2|2,0:0|0:0,0:0:0:0:
256,84,140243,1,8,1:2:0:0:
131,12,140446,2,0,P|112:115|192:184,1,220.000006713867,2|2,0:1|0:0,0:0:0:0:
332,292,141054,2,0,P|329:238|320:184,1,110.000003356934,8|2,1:2|0:0,0:0:0:0:
104,324,141460,5,0,1:0:0:0:
192,280,141663,1,2,0:0:0:0:
192,184,141866,1,8,1:2:0:0:
104,140,142068,1,2,0:0:0:0:
408,140,142270,5,0,1:0:0:0:
320,184,142472,1,2,0:0:0:0:
320,280,142675,1,8,1:2:0:0:
408,324,142878,1,2,0:0:0:0:
408,140,143081,5,0,3:0:0:0:
408,232,143284,1,0,3:0:0:0:
320,140,143487,5,10,3:2:0:0:
320,280,143689,1,2,3:2:0:0:
232,140,143892,5,2,3:2:0:0:
232,328,144095,1,0,3:2:0:0:
144,140,144297,5,10,3:2:0:0:
144,376,144500,1,0,3:2:0:0:
320,280,144703,6,0,L|416:296,2,66.6666666666667,2|2|2,0:0|0:0|0:0,0:0:0:0:
192,280,145108,6,0,L|56:304,1,110.000003356934,12|2,1:2|0:0,0:0:0:0:
0,168,145514,1,0,1:0:0:0:
44,56,145716,2,0,P|98:55|150:72,1,110.000003356934,2|8,0:0|1:2,0:0:0:0:
364,228,146122,6,0,P|346:175|347:121,1,110.000003356934,2|0,0:0|1:2,0:0:0:0:
148,156,146527,2,0,P|165:207|165:262,1,110.000003356934,2|8,0:0|1:2,0:0:0:0:
48,228,146933,5,2,0:0:0:0:
260,196,147136,1,2,1:2:0:0:
148,156,147339,1,2,0:0:0:0:
276,316,147541,1,10,1:2:0:0:
352,128,147743,2,0,L|336:24,1,55.0000016784668,2|0,0:0|0:0,0:0:0:0:
412,8,147946,6,0,L|436:178,1,165.000005035401,0|0,1:0|0:0,0:0:0:0:
447,262,148351,2,0,L|345:221,1,110.000003356934,8|2,1:2|0:0,0:0:0:0:
228,280,148757,1,0,1:0:0:0:
168,164,148960,1,2,0:0:0:0:
284,104,149162,1,8,1:2:0:0:
228,280,149365,6,0,L|100:292,1,110.000003356934,2|0,0:0|1:0,0:0:0:0:
284,104,149770,2,0,L|412:92,1,110.000003356934,2|8,0:0|1:2,0:0:0:0:
504,84,150176,5,2,0:0:0:0:
464,232,150378,1,2,1:2:0:0:
316,192,150581,1,2,0:0:0:0:
356,44,150784,1,10,1:2:0:0:
464,232,150987,2,0,L|440:316,1,55.0000016784668,2|0,0:0|0:0,0:0:0:0:
424,364,151189,6,0,B|328:384|320:320|228:340,1,200,0|2,1:0|0:0,0:0:0:0:
180,208,151797,1,0,0:0:0:0:
143,115,152000,2,0,P|78:185|106:276,1,200,0|2,1:0|0:0,0:0:0:0:
240,128,152608,5,0,0:0:0:0:
348,112,152811,2,0,L|446:96,1,100,0|0,1:0|0:0,0:0:0:0:
308,216,153216,2,0,L|321:315,1,100,2|0,1:2|0:0,0:0:0:0:
240,128,153622,5,0,1:0:0:0:
200,232,153824,1,0,1:0:0:0:
132,144,154027,1,2,1:2:0:0:
100,136,154128,1,0,1:0:0:0:
68,128,154230,2,0,L|36:120,2,25,0|0|0,1:0|1:0|1:0,0:0:0:0:
124,288,154433,6,0,P|202:230|295:254,1,200,0|2,3:0|0:0,0:0:0:0:
368,320,155041,1,0,0:0:0:0:
388,96,155243,2,0,P|309:153|216:129,1,200,0|2,3:0|0:0,0:0:0:0:
80,20,155851,5,0,0:0:0:0:
24,104,156054,1,2,3:2:0:0:
104,164,156257,1,0,0:0:0:0:
104,164,156358,2,0,P|120:220|116:280,1,100,2|0,0:0|0:0,0:0:0:0:
56,344,156662,5,2,0:0:0:0:
11,199,156865,2,0,P|23:104|110:65,1,200
496,148,163960,5,2,3:2:0:0:
496,148,164061,1,2,3:2:0:0:
472,108,164162,6,0,P|431:88|388:95,1,89.9999972534181,2|0,1:0|0:0,0:0:0:0:
304,192,164568,2,0,L|200:176,1,89.9999972534181,8|0,0:0|1:0,0:0:0:0:
168,172,164872,1,0,0:0:0:0:
168,172,164973,5,2,1:2:0:0:
256,320,165176,2,0,L|464:352,1,179.999994506836,2|2,0:0|3:2,0:0:0:0:
496,296,165683,1,2,3:2:0:0:
496,296,165784,6,0,L|484:184,1,89.9999972534181,2|0,1:0|0:0,0:0:0:0:
476,132,166088,1,0,1:0:0:0:
476,132,166189,2,0,L|468:68,1,44.999998626709,8|0,0:0|0:0,0:0:0:0:
388,208,166392,2,0,L|380:144,1,44.999998626709,0|0,1:0|0:0,0:0:0:0:
368,44,166595,5,2,1:2:0:0:
255,156,166797,2,0,P|174:126|143:44,1,179.999994506836,2|2,1:2|3:2,0:0:0:0:
36,132,167406,6,0,L|56:248,1,89.9999972534181,2|0,1:0|0:0,0:0:0:0:
60,268,167710,1,0,0:0:0:0:
60,268,167811,1,8,0:0:0:0:
124,344,168014,1,0,0:0:0:0:
252,236,168216,6,0,L|236:147,1,89.9999972534181,2|0,1:2|0:0,0:0:0:0:
228,100,168520,1,0,0:0:0:0:
228,100,168622,1,8,0:0:0:0:
156,252,168824,1,2,1:2:0:0:
220,328,169027,6,0,P|292:332|332:352,1,89.9999972534181,2|0,1:2|0:0,0:0:0:0:
368,292,169331,2,0,P|372:220|392:180,1,89.9999972534181,2|0,1:2|0:0,0:0:0:0:
332,144,169635,1,2,1:2:0:0:
180,128,169838,6,0,L|48:116,1,89.9999972534181,2|0,1:0|0:0,0:0:0:0:
36,172,170142,2,0,L|27:261,1,89.9999972534181,2|0,1:0|0:0,0:0:0:0:
80,316,170446,1,2,1:0:0:0:
176,228,170649,6,0,P|256:192|336:228,1,179.999994506836,6|8,1:0|0:0,0:0:0:0:
432,316,171257,1,0,1:0:0:0:
476,172,171460,2,0,L|467:83,1,89.9999972534181,2|0,1:2|0:0,0:0:0:0:
460,36,171764,1,0,0:0:0:0:
460,36,171865,1,8,0:0:0:0:
352,152,172068,1,2,3:2:0:0:
228,132,172270,6,0,L|56:104,1,134.999995880127,2|0,1:0|1:0,1:0:0:0:
20,96,172676,2,0,L|12:36,1,44.999998626709,8|0,0:0|0:0,0:0:0:0:
36,196,172878,2,0,L|41:240,1,44.999998626709,0|0,1:0|0:0,0:0:0:0:
96,348,173081,6,0,P|223:308|140:203,1,314.999990386963,2|0,3:2|0:0,0:0:0:0:
148,284,173892,5,6,1:0:0:0:
36,196,174095,1,2,3:2:0:0:
36,196,174196,1,2,3:2:0:0:
124,84,174399,1,2,3:2:0:0:
124,84,174500,1,2,1:2:0:0:
388,84,174703,5,2,1:2:0:0:
476,196,174906,1,2,3:2:0:0:
476,196,175007,1,2,3:2:0:0:
364,284,175210,1,2,3:2:0:0:
364,284,175311,1,2,3:2:0:0:
208,160,175514,6,0,L|324:144,1,89.9999972534181,2|0,1:0|0:0,0:0:0:0:
304,224,175818,1,0,1:0:0:0:
304,224,175919,2,0,L|188:240,1,89.9999972534181,8|0,0:0|1:2,0:0:0:0:
92,192,176324,6,0,P|86:147|101:105,1,89.9999972534181,2|0,1:2|1:0,0:0:0:0:
144,40,176628,1,2,3:2:0:0:
144,40,176730,2,2,L|192:48,1,44.999998626709,2|2,3:2|3:2,3:2:0:0:
368,40,176933,2,2,L|320:48,1,44.999998626709,2|2,3:2|3:2,3:2:0:0:
164,156,177135,5,6,1:0:0:0:
256,192,177237,12,2,179973,0:0:0:0:
112,280,180378,6,0,L|92:76,1,200,0|2,3:0|3:2,0:0:0:0:
256,124,180987,1,0,0:0:0:0:
324,192,181189,1,0,3:0:0:0:
256,260,181392,1,0,0:0:0:0:
188,192,181595,1,2,3:2:0:0:
419,80,181797,6,0,L|400:280,1,200
112,280,182406,2,0,L|92:80,1,200,0|2,3:0|3:2,0:0:0:0:
168,0,183014,1,0,0:0:0:0:
344,0,183216,1,2,3:2:0:0:
323,41,183318,1,0,0:0:0:0:
300,80,183419,1,2,0:0:0:0:
278,118,183520,1,0,0:0:0:0:
256,156,183622,5,0,3:0:0:0:
256,316,183824,1,0,0:0:0:0:
388,156,184027,1,2,3:2:0:0:
124,156,184230,1,0,0:0:0:0:
108,156,184331,1,0,0:0:0:0:
92,156,184433,1,0,3:0:0:0:
76,156,184534,1,0,0:0:0:0:
60,156,184635,1,2,0:0:0:0:
132,32,184838,5,2,3:2:0:0:
256,96,185041,2,0,P|312:120|356:132,1,100,0|0,0:0|3:0,0:0:0:0:
256,288,185446,2,0,P|200:264|156:252,1,100,0|2,0:0|3:2,0:0:0:0:
380,352,185851,5,0,0:0:0:0:
444,228,186054,1,0,3:0:0:0:
320,164,186257,1,0,0:0:0:0:
256,288,186460,6,0,P|284:280|312:276,5,33.3333333333333,2|0|0|0|0|0,0:0|0:0|0:0|0:0|0:0|0:0,0:0:0:0:
180,308,186865,6,0,P|132:236|144:156,1,165.000005035401,4|0,1:2|0:0,0:0:0:0:
192,84,187270,2,0,P|260:104|304:112,1,110.000003356934,8|2,1:2|0:0,0:0:0:0:
180,308,187676,2,0,P|112:288|68:280,1,110.000003356934,0|2,1:0|0:0,0:0:0:0:
304,248,188081,1,8,1:2:0:0:
359,355,188284,6,0,P|426:272|398:169,1,220.000006713867,2|2,0:0|0:0,0:0:0:0:
280,128,188892,1,8,1:2:0:0:
164,88,189095,2,0,L|179:307,1,220.000006713867,2|2,0:1|0:0,0:0:0:0:
360,355,189703,2,0,P|417:361|478:378,1,110.000003356934,8|2,1:2|0:0,0:0:0:0:
398,161,190108,5,0,1:0:0:0:
379,258,190311,1,2,0:0:0:0:
491,124,190514,1,8,1:2:0:0:
319,95,190716,1,2,0:0:0:0:
133,258,190919,5,0,1:0:0:0:
152,355,191122,1,2,0:0:0:0:
212,192,191325,1,8,1:2:0:0:
40,221,191527,1,2,0:0:0:0:
232,292,191730,2,0,L|348:272,1,110.000003356934,0|2,1:0|0:0,0:0:0:0:
340,110,192135,5,10,1:2:0:0:
448,56,192338,1,2,0:2:0:0:
504,160,192541,5,2,1:2:0:0:
340,273,192743,1,2,1:2:0:0:
256,88,192946,1,2,1:2:0:0:
92,201,193149,1,2,1:2:0:0:
92,201,193250,1,0,1:0:0:0:
92,201,193351,6,0,P|92:288|112:368,1,165.000005035401,4|0,1:2|0:0,0:0:0:0:
204,380,193757,1,8,1:2:0:0:
348,244,193960,1,2,0:0:0:0:
224,92,194162,1,0,1:0:0:0:
104,80,194365,1,2,0:0:0:0:
92,201,194568,1,8,1:2:0:0:
256,316,194770,1,2,0:0:0:0:
420,201,194973,6,0,P|376:125|404:43,1,179.999994506836,2|0,3:2|0:0,0:0:0:0:
512,112,195581,1,2,3:2:0:0:
427,288,195784,2,0,B|325:263|345:335|249:314,1,179.999994506836,2|0,3:2|0:0,0:0:0:0:
92,201,196392,1,2,3:2:0:0:
79,95,196595,6,0,L|252:68,1,165.000005035401,0|0,1:0|0:0,0:0:0:0:
307,3,197000,2,0,P|335:50|327:104,1,110.000003356934,8|2,1:2|0:0,0:0:0:0:
113,324,197406,2,0,L|96:216,1,110.000003356934,0|2,1:0|0:0,0:0:0:0:
79,95,197811,1,8,1:2:0:0:
256,48,198014,6,0,B|224:96|232:156|264:244|332:304|440:292|460:256|480:192|460:128|440:92|332:80|264:140|232:228|224:288|256:336,1,719.999978027344,2|2,3:2|3:2,0:0:0:0:
496,296,199838,6,0,L|512:120,1,165.000005035401,0|0,1:0|0:0,0:0:0:0:
456,56,200243,2,0,P|408:64|344:40,1,110.000003356934,8|2,1:2|0:0,0:0:0:0:
220,185,200649,1,0,1:0:0:0:
20,102,200851,1,2,0:0:0:0:
162,44,201054,1,8,1:2:0:0:
78,244,201257,1,2,0:0:0:0:
220,185,201460,6,0,P|326:183|395:263,1,220.000006713867,0|8,1:0|1:2,0:0:0:0:
256,344,202068,1,2,0:0:0:0:
117,121,202270,5,0,1:0:0:0:
256,40,202473,1,2,0:0:0:0:
256,40,202574,1,0,1:0:0:0:
395,121,202777,1,2,0:0:0:0:
395,121,202878,1,0,1:0:0:0:
256,344,203081,5,0,1:0:0:0:
117,121,204906,5,2,0:0:0:0:
184,220,205108,1,2,0:0:0:0:
256,320,205311,1,2,0:0:0:0:
328,220,205514,1,2,0:0:0:0:
395,121,205716,1,2,0:0:0:0:
256,64,205919,6,0,L|256:24,6,25,2|0|0|0|0|0|0,0:0|0:0|0:0|0:0|0:0|0:0|0:0,0:0:0:0:
117,263,206324,1,2,0:0:0:0:
395,263,206527,1,2,0:0:0:0:
