osu file format v14

[General]
AudioFilename: viva happy.mp3
AudioLeadIn: 0
PreviewTime: 62000
Countdown: 0
SampleSet: Soft
StackLeniency: 0.3
Mode: 0
LetterboxInBreaks: 0
WidescreenStoryboard: 1

[Editor]
DistanceSpacing: 1.1
BeatDivisor: 4
GridSize: 4
TimelineZoom: 1.3

[Metadata]
Title:Viva Happy
TitleUnicode:ビバハピ
Artist:Nanahira
ArtistUnicode:ななひら
Creator:Frey
Version:Hard
Source:初音ミク -Project DIVA- X
Tags:Meltical sugar wave VOCALOID Mitchie M Hatsune Miku Chaoslitz cover
BeatmapID:1512781
BeatmapSetID:672621

[Difficulty]
HPDrainRate:5
CircleSize:4
OverallDifficulty:6
ApproachRate:7.5
SliderMultiplier:1.6
SliderTickRate:1

[Events]
//Background and Video events
0,0,"peco.jpg",0,0
//Break Periods
2,157676,163135
//Storyboard Layer 0 (Background)
//Storyboard Layer 1 (Fail)
//Storyboard Layer 2 (Pass)
//Storyboard Layer 3 (Foreground)
//Storyboard Sound Samples

[TimingPoints]
379,405.405405405405,4,2,0,40,1,0
6460,-100,4,2,0,70,0,0
25108,-100,4,2,0,73,0,0
25514,-100,4,2,0,76,0,0
25919,-100,4,2,0,79,0,0
26324,-100,4,2,0,70,0,0
31595,-100,4,2,0,75,0,0
32811,-100,4,2,0,70,0,0
60378,-100,4,2,0,80,0,0
60784,-100,4,2,0,75,0,0
62000,-100,4,2,0,80,0,1
84703,-100,4,2,0,70,0,0
99297,-100,4,1,0,40,0,0
100919,-100,4,2,0,70,0,0
106595,-133.333333333333,4,2,0,70,0,0
107406,-100,4,2,0,70,0,0
113892,-133.333333333333,4,2,0,70,0,0
114703,-100,4,2,0,70,0,0
128487,-100,4,2,0,80,0,0
128892,-100,4,2,0,70,0,0
130514,-100,4,2,0,75,0,0
131730,-100,4,2,0,80,0,1
143081,-100,4,2,0,65,0,0
143487,-100,4,2,0,70,0,0
143892,-100,4,2,0,75,0,0
144297,-100,4,2,0,80,0,0
145108,-100,4,2,0,80,0,1
151189,-100,4,2,0,70,0,0
157270,-100,4,2,0,40,0,0
163960,-100,4,2,0,70,0,0
164568,-100,4,2,0,45,0,0
164669,-100,4,2,0,70,0,0
167811,-100,4,2,0,45,0,0
167912,-100,4,2,0,70,0,0
168622,-100,4,2,0,45,0,0
168723,-100,4,2,0,70,0,0
171054,-100,4,2,0,45,0,0
171156,-100,4,2,0,70,0,0
171865,-100,4,2,0,45,0,0
171966,-100,4,2,0,70,0,0
175919,-100,4,2,0,45,0,0
176020,-100,4,2,0,70,0,0
177541,-100,4,2,0,65,0,0
177946,-100,4,2,0,60,0,0
178351,-100,4,2,0,55,0,0
178757,-100,4,2,0,50,0,0
179162,-100,4,2,0,45,0,0
179568,-100,4,2,0,40,0,0
179973,-100,4,2,0,70,0,0
180378,-100,4,2,0,40,0,0
181189,-100,4,2,0,45,0,0
182000,-100,4,2,0,50,0,0
182811,-100,4,2,0,55,0,0
183622,-100,4,2,0,60,0,0
184433,-100,4,2,0,65,0,0
185243,-100,4,2,0,70,0,0
186054,-100,4,2,0,75,0,0
186865,-100,4,2,0,80,0,1
194973,-100,4,2,0,70,0,0
196595,-100,4,2,0,80,0,1
198014,-100,4,2,0,80,0,0
199838,-100,4,2,0,80,0,1
203081,-100,4,2,0,70,0,0

[Colours]
Combo1 : 255,32,121
Combo2 : 166,255,32
Combo3 : 255,77,32
Combo4 : 32,255,255

[HitObjects]
256,192,3014,12,0,4838,0:0:0:0:
160,172,6460,6,0,L|212:164,3,40,2|0|2|0,0:0|0:0|0:0|0:0,0:0:0:0:
216,180,6865,6,0,P|292:176|336:104,1,160,6|0,1:1|1:0,3:3:0:0:
292,32,7473,1,0,0:0:0:0:
204,16,7676,2,0,P|128:32|32:36,1,160,0|0,1:0|1:0,0:0:0:0:
0,140,8284,1,6,1:0:0:0:
68,232,8487,6,0,P|144:216|240:212,1,160,6|0,1:0|1:0,0:0:0:0:
308,244,9095,1,0,0:0:0:0:
356,315,9297,2,0,P|393:248|364:176,1,160,0|0,1:0|1:0,0:0:0:0:
256,136,9906,1,6,1:0:0:0:
147,176,10108,6,0,P|118:248|155:315,1,160,6|0,1:0|1:0,0:0:0:0:
240,348,10716,1,2,0:0:0:0:
256,260,10919,2,0,L|256:96,1,160,0|0,1:0|1:0,0:0:0:0:
256,8,11527,1,2,0:0:0:0:
152,52,11730,6,0,L|200:52,1,40,0|2,1:2|0:0,0:0:0:0:
320,52,12034,2,0,L|360:52,1,40,0|2,0:0|0:0,0:0:0:0:
348,140,12338,1,2,0:0:0:0:
348,140,12439,1,0,0:0:0:0:
348,140,12541,6,2,P|309:133|269:129,1,80,2|0,1:0|0:0,0:0:0:0:
336,228,12946,2,2,P|291:221|240:216,1,80,2|0,1:0|0:0,0:0:0:0:
200,288,13351,6,0,P|236:320|244:332,3,40,2|2|2|2,0:0|0:0|0:0|0:0,0:0:0:0:
248,328,13757,2,0,P|325:336|420:355,1,160,12|0,1:2|1:0,0:0:0:0:
428,356,14264,2,0,L|440:252,1,80,2|2,0:0|0:0,0:0:0:0:
440,252,14568,1,8,1:2:0:0:
356,264,14770,1,2,0:0:0:0:
304,192,14973,6,0,P|292:153|293:113,1,80,0|2,1:0|0:0,0:0:0:0:
380,104,15378,2,0,P|391:142|390:182,1,80,8|2,1:2|0:0,0:0:0:0:
356,264,15784,2,0,L|240:280,1,80,0|0,1:0|0:0,0:0:0:0:
188,288,16189,1,8,1:2:0:0:
100,300,16392,1,2,0:0:0:0:
24,216,16595,6,0,P|4:172|52:76,1,160,0|8,1:0|1:2,0:0:0:0:
136,96,17203,1,2,0:0:0:0:
144,184,17406,2,0,L|164:364,1,160,0|8,1:0|1:2,0:0:0:0:
248,360,18014,1,2,0:0:0:0:
280,252,18216,6,0,L|267:137,1,80,0|2,1:0|0:0,0:0:0:0:
356,196,18622,2,0,L|347:116,1,80,8|2,1:2|0:0,0:0:0:0:
432,140,19027,2,0,L|423:60,1,80,2|2,1:2|0:0,0:0:0:0:
316,32,19433,2,0,L|241:40,3,40,2|0|2|0,0:0|0:0|0:0|0:0,0:0:0:0:
256,40,19838,6,0,P|224:100|272:172,1,160,4|10,1:2|1:2,0:0:0:0:
356,196,20446,1,0,0:0:0:0:
442,221,20649,2,0,L|464:88,2,120,0|2|0,1:0|0:0|0:0,0:0:0:0:
424,308,21460,2,0,L|324:324,1,80,2|0,1:2|0:0,0:0:0:0:
264,280,21865,2,0,L|108:304,1,120,8|0,1:2|0:0,0:0:0:0:
125,302,22270,6,2,P|108:264|112:220,1,80,2|0,1:0|0:0,0:0:0:0:
160,88,22676,2,2,P|176:124|173:163,1,80,2|0,1:0|0:0,0:0:0:0:
87,139,23081,6,0,P|70:63|122:7,1,160,4|10,1:0|1:2,0:0:0:0:
212,16,23689,1,0,0:0:0:0:
272,84,23892,2,0,P|336:88|396:56,2,120,0|2|0,1:0|0:0|0:0,0:0:0:0:
180,152,24703,6,0,L|196:252,1,80,6|0,1:2|0:0,0:0:0:0:
319,230,25108,2,0,L|332:152,1,80,14|0,1:2|0:0,0:0:0:0:
304,64,25514,2,0,L|383:76,1,80,6|0,1:2|0:0,0:0:0:0:
208,64,25919,2,0,L|128:76,1,80,14|0,1:2|0:0,0:0:0:0:
59,16,26324,6,0,P|36:89|80:152,1,160,4|8,1:2|1:2,0:0:0:0:
168,176,26933,1,0,0:0:0:0:
144,264,27135,2,0,L|25:281,2,120,0|2|0,1:0|0:0|0:0,0:0:0:0:
204,332,27946,6,0,P|248:328|292:348,1,80,2|0,1:2|0:0,0:0:0:0:
368,356,28351,2,0,L|350:237,1,120,8|0,1:2|0:0,0:0:0:0:
347,216,28757,6,2,P|383:200|432:208,1,80,2|0,1:0|0:0,0:0:0:0:
507,99,29162,2,2,P|471:115|432:112,1,80,2|0,1:0|0:0,0:0:0:0:
368,48,29568,6,0,P|288:32|216:68,1,160,4|8,1:0|1:2,0:0:0:0:
168,136,30176,1,0,0:0:0:0:
88,176,30378,2,0,L|72:24,2,120,2|2|0,1:2|0:0|3:0,0:0:0:0:
96,264,31189,6,0,L|43:257,2,53.3333333333333,2|2|2,0:0|0:0|0:0,0:0:0:0:
164,316,31595,2,0,L|216:322,2,53.3333333333333,2|2|2,3:2|3:2|3:2,0:0:0:0:
176,232,32000,2,0,P|256:156|332:240,1,240,2|0,3:1|0:0,0:0:0:0:
412,312,32811,6,0,L|324:324,1,80,6|0,1:0|0:0,0:0:0:0:
256,372,33216,2,0,L|88:348,1,160,2|0,1:2|0:0,0:0:0:0:
12,336,33824,1,0,1:0:0:0:
0,224,34027,1,2,1:2:0:0:
112,207,34230,6,0,P|147:137|136:60,1,160,2|0,1:0|0:0,0:0:0:0:
52,80,34838,2,0,L|40:160,1,80,2|0,1:2|0:0,0:0:0:0:
28,248,35243,1,0,0:0:0:0:
128,300,35446,1,0,1:0:0:0:
208,220,35649,1,2,1:2:0:0:
384,240,36054,6,0,L|423:244,2,40,6|0|0,3:2|0:0|0:0,0:0:0:0:
392,152,36460,2,0,L|396:112,2,40,2|0|0,3:2|0:0|0:0,0:0:0:0:
304,144,36865,6,0,L|264:139,2,40,2|0|0,3:2|0:0|0:0,0:0:0:0:
296,232,37271,2,0,L|291:271,2,40,2|0|0,3:2|0:0|0:0,0:0:0:0:
208,224,37676,5,2,3:2:0:0:
208,224,37777,1,0,0:0:0:0:
208,224,37878,1,0,0:0:0:0:
200,312,38081,1,2,3:2:0:0:
200,312,38183,1,0,0:0:0:0:
200,312,38284,1,0,0:0:0:0:
127,260,38487,6,2,L|9:235,1,120,2|0,3:1|0:0,0:0:0:0:
0,215,38892,2,2,P|-8:156|15:102,1,120,2|0,1:2|0:0,0:0:0:0:
32,88,39297,6,0,B|112:80|112:120|188:112,2,160,6|2|0,1:0|1:2|0:0,0:0:0:0:
52,0,40311,1,0,1:0:0:0:
164,20,40514,1,2,1:2:0:0:
276,40,40716,6,0,L|292:216,1,160,2|0,1:0|0:0,0:0:0:0:
300,288,41324,2,0,L|412:308,1,80,2|0,1:2|0:0,0:0:0:0:
468,320,41730,1,0,0:0:0:0:
512,216,41933,1,0,1:0:0:0:
448,124,42135,1,2,1:2:0:0:
290,199,42541,6,0,L|222:187,2,40,6|0|0,3:2|0:0|0:0,0:0:0:0:
304,112,42946,2,0,L|236:100,2,40,2|0|0,3:2|0:0|0:0,0:0:0:0:
372,168,43351,6,0,L|392:224,2,40,2|0|0,3:2|0:0|0:0,0:0:0:0:
454,137,43757,2,0,L|474:193,2,40,2|0|0,3:2|0:0|0:0,0:0:0:0:
388,80,44162,5,2,3:2:0:0:
388,80,44264,1,0,0:0:0:0:
388,80,44365,1,0,0:0:0:0:
301,62,44568,1,2,3:2:0:0:
301,62,44669,1,0,0:0:0:0:
301,62,44770,1,0,0:0:0:0:
207,164,44973,6,2,P|133:184|68:120,1,160,2|2,1:0|1:2,0:0:0:0:
152,96,45581,1,0,0:0:0:0:
284,120,45784,6,0,L|472:152,1,160,4|2,1:2|0:0,0:0:0:0:
492,220,46392,1,0,0:0:0:0:
476,308,46595,1,2,1:2:0:0:
408,252,46797,2,0,P|368:252|328:268,1,80,2|2,0:0|0:0,0:0:0:0:
256,352,47203,1,0,1:0:0:0:
181,266,47406,5,2,1:2:0:0:
172,176,47608,2,0,L|156:-4,1,160,0|0,0:0|1:0,0:0:0:0:
244,32,48216,1,2,1:2:0:0:
356,20,48419,1,8,3:2:0:0:
368,132,48622,1,8,3:2:0:0:
255,143,48824,6,0,L|96:158,1,160,8|0,3:2|0:0,0:0:0:0:
20,112,49433,2,0,P|16:168|0:208,1,80,2|0,0:0|1:0,0:0:0:0:
64,260,49838,2,0,P|120:264|160:280,1,80,2|0,1:2|0:0,0:0:0:0:
228,300,50243,2,0,L|216:221,1,80,2|0,0:0|0:0,0:0:0:0:
296,136,50649,6,0,L|428:148,2,120,0|0|0,1:0|1:0|1:0,0:0:0:0:
228,44,51460,1,2,1:2:0:0:
316,52,51662,2,0,L|412:60,1,80,8|0,0:0|0:0,0:0:0:0:
484,68,52068,1,8,0:0:0:0:
508,176,52270,6,0,L|492:356,1,160,0|2,1:0|0:0,0:0:0:0:
416,376,52878,1,0,0:0:0:0:
388,292,53081,1,2,1:2:0:0:
304,316,53284,2,0,L|315:213,1,80,2|2,0:0|0:0,0:0:0:0:
220,172,53689,1,2,1:2:0:0:
140,252,53892,6,0,P|68:236|40:156,1,160,0|2,1:0|0:0,0:0:0:0:
64,76,54500,1,0,1:0:0:0:
152,64,54703,1,2,1:2:0:0:
204,136,54906,5,2,1:2:0:0:
248,32,55109,1,2,1:2:0:0:
356,64,55311,2,0,P|399:127|375:200,1,160,6|0,1:0|1:0,0:0:0:0:
300,244,55919,2,0,P|292:320|296:356,1,80,8|2,1:2|0:0,0:0:0:0:
380,328,56324,1,0,1:0:0:0:
440,260,56527,5,2,1:2:0:0:
380,164,56730,1,10,1:2:0:0:
300,244,56933,2,0,P|224:256|152:220,1,160,6|0,1:0|1:0,0:0:0:0:
128,136,57541,2,0,L|120:52,1,80,8|2,1:2|0:0,0:0:0:0:
36,28,57946,1,0,1:0:0:0:
16,112,58149,5,2,1:2:0:0:
52,220,58351,1,2,1:2:0:0:
128,136,58554,2,0,P|200:112|296:128,1,160,6|0,1:0|0:0,0:0:0:0:
400,192,59162,5,2,1:0:0:0:
256,364,59568,2,0,B|264:304|248:304|256:244,2,120,4|4|4,1:0|1:0|1:0,0:0:0:0:
152,324,60378,1,4,1:2:0:0:
36,136,60784,5,2,0:0:0:0:
124,152,60987,1,2,0:0:0:0:
212,168,61189,1,2,0:0:0:0:
300,240,61392,5,2,0:0:0:0:
388,224,61594,1,10,0:0:0:0:
476,208,61797,1,2,0:0:0:0:
416,140,62000,6,0,P|328:136|284:80,1,160,4|8,1:2|1:2,0:0:0:0:
211,37,62608,1,2,0:0:0:0:
123,29,62811,2,0,L|11:21,1,80,0|2,1:0|0:0,0:0:0:0:
4,128,63216,1,8,1:2:0:0:
72,216,63419,6,0,L|151:221,1,80,2|0,0:0|1:0,0:0:0:0:
275,149,63824,2,0,L|196:144,1,80,2|8,0:0|1:2,0:0:0:0:
116,108,64230,5,2,0:0:0:0:
4,128,64433,1,2,1:2:0:0:
44,24,64635,1,2,0:0:0:0:
156,4,64838,2,0,P|194:14|229:33,1,80,10|2,1:2|0:0,0:0:0:0:
268,114,65243,6,0,P|346:127|415:92,1,160,0|8,1:0|1:2,0:0:0:0:
504,68,65851,1,2,0:0:0:0:
480,156,66054,2,0,L|452:264,1,80,0|2,1:0|0:0,1:1:0:0:
432,340,66460,1,8,1:2:0:0:
325,312,66662,6,0,P|316:268|328:228,1,80,2|0,0:0|1:0,0:0:0:0:
256,96,67068,2,0,P|265:134|256:173,1,80,2|8,0:0|1:2,0:0:0:0:
176,136,67473,5,2,0:0:0:0:
200,28,67676,1,2,1:2:0:0:
312,28,67878,1,2,0:0:0:0:
336,136,68081,2,0,L|356:228,1,80,10|2,1:2|0:0,0:0:0:0:
430,256,68487,6,0,P|370:304|296:284,1,160,0|8,1:0|1:2,0:0:0:0:
256,204,69095,1,2,0:0:0:0:
176,164,69297,2,0,P|136:161|96:155,1,80,0|2,1:0|0:0,0:0:0:0:
8,136,69703,1,8,1:2:0:0:
36,268,69906,6,2,B|116:248|112:312|204:292,1,160,0|0,0:0|0:0,0:0:0:0:
256,204,70514,1,8,1:2:0:0:
323,294,70716,2,0,B|401:312|397:248|477:268,1,160,2|2,0:1|0:0,0:0:0:0:
508,184,71324,2,0,P|456:160|432:132,1,80,8|0,1:2|0:0,0:0:0:0:
396,68,71730,5,0,1:0:0:0:
464,12,71933,1,2,0:0:0:0:
508,88,72135,1,8,1:2:0:0:
440,144,72338,1,2,0:0:0:0:
352,148,72541,6,0,P|292:132|256:112,1,80,0|2,1:0|0:0,0:0:0:0:
216,220,72946,1,8,1:2:0:0:
160,149,73149,1,2,0:0:0:0:
125,232,73351,2,0,P|89:247|49:243,1,80,0|0,1:0|0:0,0:0:0:0:
76,160,73757,5,10,1:2:0:0:
76,160,73960,1,2,0:2:0:0:
180,72,74162,1,2,1:2:0:0:
180,72,74365,1,2,1:2:0:0:
312,108,74568,1,2,1:2:0:0:
312,108,74770,1,2,1:2:0:0:
336,192,74973,6,0,L|312:356,1,160,4|8,1:2|1:2,0:0:0:0:
224,340,75581,1,2,0:0:0:0:
135,329,75784,2,0,L|44:316,1,80,0|2,1:0|0:0,0:0:0:0:
16,212,76189,1,8,1:2:0:0:
108,148,76392,6,0,P|126:183|128:223,1,80,2|0,0:0|1:0,0:0:0:0:
32,99,76797,2,0,P|58:70|96:59,1,80,2|8,0:0|1:2,0:0:0:0:
180,96,77203,5,2,0:0:0:0:
256,176,77406,1,2,1:2:0:0:
332,96,77608,1,2,0:0:0:0:
256,16,77811,2,0,L|156:8,1,80,10|2,1:2|0:0,0:0:0:0:
92,40,78216,6,0,P|52:100|84:184,1,160,0|8,1:0|1:2,0:0:0:0:
152,224,78824,1,2,0:0:0:0:
240,208,79027,2,0,L|248:112,1,80,0|2,1:0|0:0,0:0:0:0:
336,56,79433,1,8,1:2:0:0:
408,144,79635,6,0,L|401:223,1,80,2|0,0:0|1:0,0:0:0:0:
313,335,80041,2,0,L|320:256,1,80,2|8,0:0|1:2,0:0:0:0:
328,168,80446,5,2,0:0:0:0:
244,96,80649,1,2,1:2:0:0:
220,204,80851,1,2,0:0:0:0:
135,132,81054,2,0,P|96:128|59:112,1,80,10|2,1:2|0:0,0:0:0:0:
120,44,81460,6,0,P|192:12|276:24,1,160,0|8,1:0|1:2,0:0:0:0:
348,68,82068,1,2,0:0:0:0:
384,148,82270,2,0,L|364:240,1,80,0|2,1:0|0:0,0:0:0:0:
348,312,82676,1,8,1:2:0:0:
256,376,82878,1,0,0:0:0:0:
164,312,83081,6,0,L|124:132,1,160,2|8,1:2|1:2,0:0:0:0:
256,84,83689,2,0,B|268:164|244:164|256:244,1,160,2|2,0:0|0:0,0:0:0:0:
348,312,84297,2,0,L|440:296,1,80,8|2,1:2|0:0,0:0:0:0:
488,232,84703,6,0,P|509:158|461:98,1,160,0|2,3:0|0:0,0:0:0:0:
420,176,85311,1,0,0:0:0:0:
372,104,85514,2,0,L|208:116,1,160,0|2,3:0|0:0,0:0:0:0:
136,72,86122,1,0,0:0:0:0:
48,56,86324,6,0,P|36:108|44:160,1,80,2|0,3:2|0:0,0:0:0:0:
48,152,86628,2,0,P|64:200|48:272,1,120,2|2,0:0|0:0,0:0:0:0:
8,344,87135,1,0,3:0:0:0:
148,240,87541,2,0,L|196:248,3,40,2|0|2|0,0:0|0:0|0:0|0:0,0:0:0:0:
196,264,87946,6,0,L|364:236,1,160,4|10,1:2|1:2,0:0:0:0:
428,288,88554,1,0,0:0:0:0:
436,200,88757,2,0,P|440:144|408:88,2,120,0|2|0,1:0|0:0|0:0,0:0:0:0:
353,237,89568,5,2,1:2:0:0:
280,184,89770,1,0,0:0:0:0:
251,98,89973,2,0,P|204:134|191:191,1,120,8|0,1:2|0:0,0:0:0:0:
204,208,90378,6,2,P|128:232|108:240,1,80,2|0,1:0|0:0,0:0:0:0:
308,176,90784,2,2,P|384:152|404:144,1,80,2|0,1:0|0:0,0:0:0:0:
467,119,91189,6,0,P|411:66|334:75,1,160,4|10,1:0|1:2,0:0:0:0:
256,116,91797,1,0,0:0:0:0:
178,75,92000,2,0,P|110:70|50:63,2,120,0|2|0,1:0|0:0|0:0,0:0:0:0:
184,164,92811,6,0,L|196:268,1,80,2|0,0:0|0:0,0:0:0:0:
318,243,93216,2,0,L|328:164,1,80,8|0,1:2|0:0,0:0:0:0:
300,80,93622,2,0,L|379:70,1,80,2|0,0:0|0:0,0:0:0:0:
212,80,94027,2,0,L|144:72,3,40,8|0|2|0,1:2|0:0|0:0|0:0,0:0:0:0:
133,69,94433,1,0,0:0:0:0:
16,208,94838,5,14,1:2:0:0:
36,292,95041,1,0,0:0:0:0:
100,232,95243,2,0,P|156:208|220:212,2,120,0|2|0,1:2|0:0|0:0,0:0:0:0:
36,292,96054,2,0,L|56:380,1,80,2|0,1:2|0:0,0:0:0:0:
140,352,96460,2,0,L|276:320,1,120,8|0,1:2|0:0,0:0:0:0:
276,319,96865,6,2,P|294:284|292:245,1,80,2|0,1:0|0:0,0:0:0:0:
256,101,97270,2,2,P|238:136|239:175,1,80,2|0,1:0|0:0,0:0:0:0:
328,156,97676,6,0,B|412:184|404:120|488:148,1,160,4|8,1:0|1:2,0:0:0:0:
496,232,98284,1,0,0:0:0:0:
448,308,98487,2,0,L|304:324,2,120,2|2|2,1:2|0:0|0:0,0:0:0:0:
408,228,99297,5,0,0:0:0:0:
408,228,99399,1,0,0:0:0:0:
408,228,99500,1,0,0:0:0:0:
396,140,99703,1,0,0:0:0:0:
308,152,99906,1,0,0:0:0:0:
220,164,100108,1,0,0:0:0:0:
232,252,100311,1,0,0:0:0:0:
144,264,100514,2,0,L|128:120,1,120,2|0,0:2|2:0,0:0:0:0:
126,124,100919,6,0,P|49:130|-5:75,2,160,6|2|0,1:0|1:2|0:0,0:0:0:0:
80,48,101933,1,0,1:0:0:0:
192,68,102135,1,2,1:2:0:0:
224,176,102338,6,0,L|404:148,1,160,2|0,1:0|0:0,0:0:0:0:
456,100,102946,2,0,P|470:137|469:176,1,80,2|0,1:2|0:0,0:0:0:0:
424,252,103351,1,0,0:0:0:0:
312,240,103554,1,0,1:0:0:0:
288,128,103757,1,2,1:2:0:0:
116,104,104162,6,0,L|40:92,2,40,6|0|0,3:2|0:0|0:0,0:0:0:0:
104,192,104568,2,0,L|28:180,2,40,2|0|0,3:2|0:0|0:0,0:0:0:0:
188,160,104973,6,0,L|264:172,2,40,2|0|0,3:2|0:0|0:0,0:0:0:0:
176,248,105378,2,0,L|252:260,2,40,2|0|0,3:2|0:0|0:0,0:0:0:0:
92,280,105784,5,2,3:2:0:0:
92,280,105885,1,0,0:0:0:0:
92,280,105987,1,0,0:0:0:0:
80,368,106189,1,2,3:2:0:0:
80,368,106291,1,0,0:0:0:0:
80,368,106392,1,0,0:0:0:0:
164,336,106595,6,0,B|284:296|248:392|376:352,1,210.000008010865,2|0,0:0|0:0,0:0:0:0:
376,340,107406,6,0,P|412:276|380:184,2,160,6|2|0,1:0|1:2|0:0,0:0:0:0:
308,284,108419,1,0,1:0:0:0:
284,176,108622,1,2,1:2:0:0:
376,112,108824,6,0,B|308:104|308:104|283:83|283:83|192:72,1,160,2|0,1:0|0:0,0:0:0:0:
136,64,109433,2,0,L|56:53,1,80,2|0,1:2|0:0,0:0:0:0:
8,128,109838,1,0,0:0:0:0:
28,240,110041,1,0,1:0:0:0:
112,168,110243,1,2,1:2:0:0:
144,340,110649,6,0,L|76:328,2,40,6|0|0,3:2|0:0|0:0,0:0:0:0:
228,308,111054,2,0,L|267:314,2,40,2|0|0,3:2|0:0|0:0,0:0:0:0:
160,252,111460,6,0,L|120:245,2,40,2|0|0,3:2|0:0|0:0,0:0:0:0:
244,220,111865,2,0,L|283:226,2,40,2|0|0,3:2|0:0|0:0,0:0:0:0:
176,164,112270,5,2,3:2:0:0:
176,164,112372,1,0,0:0:0:0:
176,164,112473,1,0,0:0:0:0:
260,132,112676,1,2,3:2:0:0:
260,132,112777,1,0,0:0:0:0:
260,132,112878,1,0,0:0:0:0:
164,32,113081,6,0,L|60:16,1,80,2|0,1:0|0:0,0:0:0:0:
0,96,113487,1,2,1:2:0:0:
0,96,113689,1,0,0:0:0:0:
20,200,113892,6,0,B|43:270|175:250|175:174,1,210.000008010865,4|0,1:2|0:0,0:0:0:0:
176,156,114703,6,0,L|288:136,1,80,2|0,1:2|0:0,0:0:0:0:
336,176,115108,2,0,L|414:161,1,80,2|0,0:0|1:0,0:0:0:0:
512,220,115514,5,0,1:0:0:0:
504,308,115716,1,0,0:0:0:0:
432,256,115919,1,2,0:0:0:0:
380,328,116122,2,0,P|312:284|228:284,1,160,0|8,1:0|3:2,0:0:0:0:
132,328,116730,1,8,3:2:0:0:
56,244,116933,6,0,L|44:64,1,160,8|0,3:2|0:0,0:0:0:0:
104,16,117541,2,0,P|144:32|188:28,1,80,2|0,0:0|1:0,0:0:0:0:
240,95,117946,2,0,P|276:80|316:81,1,80,2|0,1:2|0:0,0:0:0:0:
376,144,118351,1,2,0:0:0:0:
292,168,118554,1,0,0:0:0:0:
183,197,118757,6,0,L|59:173,2,120,0|0|0,1:0|1:0|1:0,0:0:0:0:
252,256,119568,1,2,1:2:0:0:
267,167,119770,2,0,P|265:125|260:68,1,80,8|0,0:0|0:0,0:0:0:0:
256,0,120176,1,8,0:0:0:0:
361,43,120378,6,0,P|393:115|376:192,1,160,0|2,1:0|0:0,0:0:0:0:
332,272,120987,1,0,0:0:0:0:
256,320,121189,2,0,B|176:336|180:276|100:292,1,160,2|2,0:0|0:0,0:0:0:0:
20,324,121797,1,0,0:0:0:0:
32,236,122000,6,0,L|24:176,3,40,2|0|0|0,0:0|0:0|0:0|0:0,0:0:0:0:
36,176,122406,2,0,L|28:116,3,40,2|0|0|0,0:0|0:0|0:0|0:0,0:0:0:0:
40,116,122811,1,2,1:2:0:0:
80,36,123014,5,2,1:2:0:0:
160,116,123216,1,2,1:2:0:0:
188,8,123419,2,0,P|269:24|352:36,1,160,6|0,1:0|1:0,0:0:0:0:
436,48,124027,2,0,P|460:88|456:128,1,80,8|2,1:2|0:0,0:0:0:0:
408,192,124433,1,0,1:0:0:0:
320,180,124635,5,2,1:2:0:0:
260,84,124838,1,10,1:2:0:0:
176,160,125041,2,0,L|144:332,1,160,6|0,1:0|0:0,0:0:0:0:
216,376,125649,2,0,L|320:356,1,80,8|2,1:2|0:0,0:0:0:0:
380,340,126054,1,0,1:0:0:0:
340,260,126257,5,2,1:2:0:0:
452,284,126460,1,10,1:2:0:0:
415,176,126662,2,0,P|342:150|315:78,1,160,6|2,1:0|0:0,0:0:0:0:
448,40,127270,5,2,1:0:0:0:
256,164,127676,2,0,B|196:168|200:136|136:140,2,120,6|6|6,1:0|1:0|1:0,0:0:0:0:
256,276,128487,1,6,1:2:0:0:
400,108,128892,5,2,0:0:0:0:
400,108,128993,1,2,0:0:0:0:
400,108,129095,1,2,0:0:0:0:
368,0,129297,1,2,0:0:0:0:
144,0,129703,5,2,0:0:0:0:
148,4,129804,1,2,0:0:0:0:
152,8,129906,1,2,0:0:0:0:
112,108,130108,1,2,0:0:0:0:
368,224,130514,5,2,0:0:0:0:
396,308,130716,1,2,0:0:0:0:
308,288,130919,1,2,0:0:0:0:
204,244,131122,5,2,0:0:0:0:
116,264,131325,1,10,0:0:0:0:
144,180,131527,1,2,0:0:0:0:
232,160,131730,6,0,P|308:184|396:180,1,160,4|8,1:2|1:2,0:0:0:0:
472,152,132338,1,2,0:0:0:0:
512,232,132541,2,0,L|504:320,1,80,0|2,1:2|0:0,0:0:0:0:
416,384,132946,1,8,1:2:0:0:
312,336,133149,6,0,P|252:340|220:356,1,80,2|0,0:0|1:0,0:0:0:0:
108,284,133554,2,0,P|147:284|185:272,1,80,2|8,0:0|1:2,0:0:0:0:
256,216,133960,5,2,0:0:0:0:
320,124,134162,1,2,1:2:0:0:
256,32,134365,1,2,0:0:0:0:
192,124,134568,2,0,P|144:116|112:96,1,80,10|2,1:2|0:0,0:0:0:0:
79,20,134973,6,0,P|30:79|46:154,1,160,0|8,1:0|1:2,0:0:0:0:
100,224,135581,1,2,0:0:0:0:
188,220,135784,2,0,P|248:212|288:200,1,80,0|2,1:0|0:0,0:0:0:0:
340,292,136189,1,8,1:2:0:0:
380,184,136392,1,0,0:0:0:0:
468,191,136595,6,0,P|441:119|367:95,1,160,0|2,1:0|0:0,0:0:0:0:
256,124,137203,1,2,0:0:0:0:
144,95,137406,2,0,P|70:119|43:191,1,160,2|2,1:2|0:0,0:0:0:0:
132,184,138014,1,2,0:0:0:0:
96,264,138216,6,0,B|184:256|168:316|252:308,1,160,4|8,1:2|1:2,0:0:0:0:
312,368,138824,1,2,0:0:0:0:
388,324,139027,2,0,P|444:316|496:304,1,80,0|2,1:0|0:0,0:0:0:0:
496,228,139433,1,8,1:2:0:0:
444,128,139635,6,0,P|356:120|304:172,1,160,2|2,0:0|0:0,0:0:0:0:
256,268,140243,1,8,1:2:0:0:
204,165,140446,2,0,P|144:116|68:128,1,160,2|2,0:1|0:0,0:0:0:0:
16,200,141054,2,0,L|32:296,1,80,8|2,1:2|0:0,0:0:0:0:
44,368,141460,5,0,1:0:0:0:
134,353,141662,1,2,0:0:0:0:
119,263,141865,1,8,1:2:0:0:
209,248,142068,1,2,0:0:0:0:
224,340,142270,6,0,P|264:356|304:352,1,80,0|2,1:0|0:0,0:0:0:0:
368,263,142676,2,0,P|404:247|443:249,1,80,8|2,1:2|0:0,0:0:0:0:
500,180,143081,5,0,3:0:0:0:
500,180,143284,1,0,3:0:0:0:
412,164,143487,1,10,3:2:0:0:
412,164,143689,1,2,3:2:0:0:
344,72,143892,5,2,3:2:0:0:
344,72,144094,1,0,3:2:0:0:
256,88,144297,1,10,3:2:0:0:
256,88,144500,1,0,3:2:0:0:
256,176,144703,6,0,L|256:256,2,53.3333333333333,2|2|2,0:0|0:0|0:0,0:0:0:0:
180,136,145108,6,0,P|144:148|100:148,1,80,12|2,1:2|0:0,0:0:0:0:
32,92,145514,2,0,P|14:127|14:167,1,80,0|2,1:0|0:0,0:0:0:0:
60,272,145919,1,8,1:2:0:0:
172,300,146122,6,0,P|189:264|189:224,1,80,2|0,0:0|1:2,0:0:0:0:
197,60,146527,2,0,P|180:96|180:136,1,80,2|8,0:0|1:2,0:0:0:0:
268,116,146933,5,2,0:0:0:0:
376,136,147135,1,2,1:2:0:0:
376,248,147338,1,2,0:0:0:0:
268,268,147541,2,0,L|164:252,1,80,10|2,1:2|0:0,0:0:0:0:
136,328,147946,6,0,L|320:357,1,160,0|8,1:0|1:2,0:0:0:0:
380,368,148554,1,2,0:0:0:0:
428,292,148757,2,0,P|480:284|508:264,1,80,0|2,1:0|0:0,0:0:0:0:
512,156,149162,1,8,1:2:0:0:
404,132,149365,6,0,P|352:140|324:160,1,80,2|0,0:0|1:0,0:0:0:0:
193,193,149770,2,0,P|228:212|268:216,1,80,2|8,0:0|1:2,0:0:0:0:
344,264,150176,5,2,0:0:0:0:
329,154,150378,1,2,1:2:0:0:
240,84,150581,1,2,0:0:0:0:
130,99,150784,2,0,L|108:192,1,80,10|2,1:2|0:0,0:0:0:0:
36,220,151189,6,0,P|0:164|20:68,1,160,0|2,1:0|0:0,0:0:0:0:
84,20,151797,1,0,0:0:0:0:
130,99,152000,2,0,L|304:72,1,160,0|2,1:0|0:0,0:0:0:0:
400,56,152608,1,0,0:0:0:0:
380,168,152811,6,0,L|348:336,1,160,0|2,1:0|1:2,0:0:0:0:
256,240,153419,2,0,L|256:52,1,160,0|0,0:0|1:0,0:0:0:0:
176,36,154027,2,0,P|132:36|96:24,1,80,2|0,1:2|1:0,0:0:0:0:
32,88,154433,6,0,P|16:156|64:232,1,160,0|2,3:0|0:0,0:0:0:0:
148,252,155041,1,0,0:0:0:0:
180,168,155243,2,0,B|268:160|244:220|328:212,1,160,0|2,3:0|0:0,0:0:0:0:
364,132,155851,1,0,0:0:0:0:
452,155,156054,6,0,L|442:234,1,80,2|0,3:2|0:0,0:0:0:0:
440,256,156358,2,0,P|371:280|304:300,1,120,2|2,0:0|0:0,0:0:0:0:
274,220,156865,2,0,P|231:283|261:354,1,160,0|0,0:0|0:0,0:0:0:0:
56,200,163960,5,2,3:2:0:0:
56,200,164061,1,2,3:2:0:0:
56,200,164162,2,0,P|88:128|164:112,1,160,2|8,1:0|0:0,0:0:0:0:
224,176,164770,1,0,1:0:0:0:
216,264,164973,2,0,L|308:276,1,80,2|2,1:2|0:0,0:0:0:0:
380,248,165378,1,0,0:0:0:0:
456,296,165581,1,2,3:2:0:0:
456,296,165683,1,2,3:2:0:0:
456,296,165784,6,0,P|468:239|468:176,2,120,2|0|0,1:0|1:0|1:0,0:0:0:0:
396,360,166595,1,2,1:2:0:0:
308,376,166797,2,0,B|228:384|240:324|160:332,1,160,2|2,1:2|3:2,0:0:0:0:
48,348,167406,6,0,L|36:260,1,80,2|0,1:0|0:0,0:0:0:0:
24,180,167811,2,0,L|103:169,1,80,8|0,0:0|0:0,0:0:0:0:
176,224,168216,2,0,P|248:204|264:104,1,160,2|8,1:2|0:0,0:0:0:0:
232,24,168824,1,2,1:2:0:0:
120,36,169027,6,0,L|1:52,2,120,2|2|2,1:2|1:2|1:2,0:0:0:0:
154,145,169838,2,0,L|272:128,2,120,2|2|2,1:0|1:0|1:0,0:0:0:0:
76,228,170649,6,0,L|64:324,1,80,6|0,1:0|0:0,0:0:0:0:
156,320,171054,1,8,0:0:0:0:
224,256,171257,1,0,1:0:0:0:
312,248,171460,2,0,P|320:284|320:328,1,80,2|0,1:2|0:0,0:0:0:0:
396,372,171865,1,8,0:0:0:0:
480,296,172068,1,2,3:2:0:0:
468,184,172270,6,0,L|456:64,2,120,2|0|0,1:0|1:0|1:0,0:0:0:0:
408,248,173081,2,0,P|296:284|256:156,1,280,2|0,3:2|0:0,0:0:0:0:
268,140,173892,6,0,P|328:132|396:104,2,120,6|2|2,1:0|3:2|1:2,0:0:0:0:
168,196,174703,2,0,P|112:174|52:166,2,120,2|2|2,1:2|3:2|3:2,0:0:0:0:
228,264,175514,6,0,P|235:303|237:343,1,80,2|0,1:0|0:0,0:0:0:0:
152,312,175919,2,0,P|112:320|56:320,1,80,8|0,0:0|1:2,0:0:0:0:
12,256,176324,2,0,P|13:216|21:176,1,80,2|0,1:2|1:0,0:0:0:0:
48,68,176730,1,2,3:2:0:0:
48,68,176831,1,2,0:0:0:0:
48,68,176933,1,2,3:2:0:0:
156,152,177135,5,6,1:0:0:0:
256,192,177237,12,2,179973,0:0:0:0:
292,312,180378,6,0,L|450:292,1,160,0|2,3:0|3:2,0:0:0:0:
492,212,180987,1,0,0:0:0:0:
484,124,181189,2,0,P|436:108|404:76,1,80,0|0,3:0|0:0,0:0:0:0:
352,24,181595,1,2,3:2:0:0:
264,32,181797,6,0,P|268:140|280:220,1,160,0|0,0:0|0:0,0:0:0:0:
291,280,182406,2,0,P|216:265|184:195,1,160,0|2,3:0|3:2,0:0:0:0:
176,108,183014,1,0,0:0:0:0:
96,72,183216,2,0,L|40:64,3,40,2|0|2|0,3:2|0:0|0:0|0:0,0:0:0:0:
36,64,183622,6,0,L|44:160,1,80,0|0,3:0|0:0,0:0:0:0:
48,232,184027,1,2,3:2:0:0:
53,320,184230,2,0,L|120:332,3,40,0|0|0|0,0:0|0:0|3:0|0:0,0:0:0:0:
112,332,184635,2,0,P|148:320|192:312,1,80,2|2,0:0|3:2,0:0:0:0:
271,280,185041,6,0,P|270:319|285:356,1,80,0|0,0:0|3:0,0:0:0:0:
384,300,185446,2,0,P|384:252|364:216,1,80,0|2,0:0|3:2,0:0:0:0:
292,144,185851,1,0,0:0:0:0:
344,44,186054,2,0,P|383:40|424:32,1,80,0|0,3:0|0:0,0:0:0:0:
512,104,186460,2,0,P|516:176|452:180,1,120,2|0,0:0|0:0,0:0:0:0:
460,196,186865,6,0,P|375:177|292:168,1,160,4|8,1:2|1:2,0:0:0:0:
232,116,187473,1,2,0:0:0:0:
220,204,187676,2,0,L|208:296,1,80,0|2,1:0|0:0,0:0:0:0:
196,372,188081,1,8,1:2:0:0:
128,284,188284,6,0,P|108:200|148:144,1,160,2|2,0:0|0:0,0:0:0:0:
256,116,188892,1,8,1:2:0:0:
364,144,189095,2,0,P|405:209|384:284,1,160,2|2,0:1|0:0,0:0:0:0:
308,328,189703,2,0,L|284:232,1,80,8|2,1:2|0:0,0:0:0:0:
264,164,190108,5,0,1:0:0:0:
177,143,190311,1,2,0:0:0:0:
239,77,190514,1,8,1:2:0:0:
152,56,190716,1,2,0:0:0:0:
90,122,190919,6,0,P|76:180|60:216,1,80,0|2,1:0|0:0,0:0:0:0:
152,276,191324,2,0,P|189:262|228:254,1,80,8|2,1:2|0:0,0:0:0:0:
300,200,191730,2,0,P|316:236|313:275,1,80,0|2,1:0|0:0,0:0:0:0:
400,300,192135,5,10,1:2:0:0:
400,300,192338,1,2,0:2:0:0:
448,196,192541,1,2,1:2:0:0:
448,196,192743,1,2,1:2:0:0:
356,128,192946,1,2,1:2:0:0:
356,128,193149,1,2,1:2:0:0:
264,120,193351,6,0,B|180:108|212:60|124:48,1,160,4|8,1:2|1:2,0:0:0:0:
36,64,193960,1,2,0:0:0:0:
0,144,194162,2,0,P|-2:184|16:224,1,80,0|2,1:0|0:0,0:0:0:0:
96,296,194568,1,8,1:2:0:0:
184,224,194770,1,2,0:0:0:0:
136,147,194973,6,0,P|212:137|269:190,1,160,2|0,3:2|0:0,0:0:0:0:
280,304,195581,1,2,3:2:0:0:
368,320,195784,2,0,P|400:168|392:144,1,160,2|0,3:2|0:0,0:0:0:0:
368,84,196392,1,2,3:2:0:0:
280,100,196595,6,0,P|278:179|312:251,1,160,0|8,1:0|1:2,0:0:0:0:
368,320,197203,1,2,0:0:0:0:
292,368,197406,2,0,L|188:352,1,80,0|2,1:0|0:0,0:0:0:0:
100,340,197811,1,8,1:2:0:0:
168,252,198014,1,2,3:2:0:0:
256,192,198216,12,0,199838,1:0:0:0:
72,128,200243,6,0,P|80:192|104:232,1,80,8|2,1:2|0:0,0:0:0:0:
144,272,200649,2,0,P|188:264|232:264,1,80,0|2,1:0|0:0,0:0:0:0:
312,272,201054,1,8,1:2:0:0:
392,192,201257,1,2,0:0:0:0:
312,112,201460,6,0,P|232:120|168:72,1,160,0|8,1:0|1:2,0:0:0:0:
220,4,202068,1,2,0:0:0:0:
304,24,202270,2,0,L|440:56,2,120,0|0|0,1:0|1:0|1:0,0:0:0:0:
170,75,203081,5,0,1:0:0:0:
104,236,204906,5,2,0:0:0:0:
192,216,205108,1,2,0:0:0:0:
212,304,205311,1,2,0:0:0:0:
300,304,205514,1,2,0:0:0:0:
320,216,205717,1,2,0:0:0:0:
408,236,205919,1,2,0:0:0:0:
408,236,206020,1,2,0:0:0:0:
408,236,206122,1,2,0:0:0:0:
340,128,206324,5,2,0:0:0:0:
172,128,206527,1,2,0:0:0:0:
