osu file format v14

[General]
AudioFilename: viva happy.mp3
AudioLeadIn: 0
PreviewTime: 62000
Countdown: 0
SampleSet: Soft
StackLeniency: 0.3
Mode: 0
LetterboxInBreaks: 0
WidescreenStoryboard: 1

[Editor]
Bookmarks: 193351
DistanceSpacing: 1.2
BeatDivisor: 4
GridSize: 4
TimelineZoom: 1.3

[Metadata]
Title:Viva Happy
TitleUnicode:ビバハピ
Artist:Nanahira
ArtistUnicode:ななひら
Creator:Frey
Version:Advanced
Source:初音ミク -Project DIVA- X
Tags:Meltical sugar wave VOCALOID Mitchie M Hatsune Miku Chaoslitz cover
BeatmapID:1684158
BeatmapSetID:672621

[Difficulty]
HPDrainRate:4
CircleSize:3.5
OverallDifficulty:4
ApproachRate:6
SliderMultiplier:1.4
SliderTickRate:1

[Events]
//Background and Video events
0,0,"peco.jpg",0,0
//Break Periods
2,157676,162910
//Storyboard Layer 0 (Background)
//Storyboard Layer 1 (Fail)
//Storyboard Layer 2 (Pass)
//Storyboard Layer 3 (Foreground)
//Storyboard Sound Samples

[TimingPoints]
379,405.405405405405,4,2,0,40,1,0
6460,-100,4,2,0,70,0,0
25108,-100,4,2,0,73,0,0
25514,-100,4,2,0,76,0,0
25919,-100,4,2,0,79,0,0
26324,-100,4,2,0,70,0,0
31595,-100,4,2,0,75,0,0
32811,-100,4,2,0,70,0,0
60378,-100,4,2,0,80,0,0
60784,-100,4,2,0,75,0,0
62000,-100,4,2,0,80,0,1
84703,-100,4,2,0,70,0,0
99297,-100,4,1,0,40,0,0
100919,-100,4,2,0,70,0,0
106595,-100,4,2,0,70,0,0
107406,-100,4,2,0,70,0,0
113892,-100,4,2,0,70,0,0
114703,-100,4,2,0,70,0,0
128487,-100,4,2,0,80,0,0
128892,-100,4,2,0,70,0,0
130514,-100,4,2,0,75,0,0
131730,-100,4,2,0,80,0,1
143081,-100,4,2,0,65,0,0
143487,-100,4,2,0,70,0,0
143892,-100,4,2,0,75,0,0
144297,-100,4,2,0,80,0,0
145108,-100,4,2,0,80,0,1
151189,-100,4,2,0,70,0,0
157270,-100,4,2,0,40,0,0
163960,-100,4,2,0,70,0,0
164568,-100,4,2,0,45,0,0
164669,-100,4,2,0,70,0,0
167811,-100,4,2,0,45,0,0
167912,-100,4,2,0,70,0,0
168622,-100,4,2,0,45,0,0
168723,-100,4,2,0,70,0,0
171054,-100,4,2,0,45,0,0
171156,-100,4,2,0,70,0,0
171865,-100,4,2,0,45,0,0
171966,-100,4,2,0,70,0,0
175919,-100,4,2,0,45,0,0
176020,-100,4,2,0,70,0,0
177541,-100,4,2,0,65,0,0
177946,-100,4,2,0,60,0,0
178351,-100,4,2,0,55,0,0
178757,-100,4,2,0,50,0,0
179162,-100,4,2,0,45,0,0
179568,-100,4,2,0,40,0,0
179973,-100,4,2,0,70,0,0
180378,-100,4,2,0,40,0,0
181189,-100,4,2,0,45,0,0
182000,-100,4,2,0,50,0,0
182811,-100,4,2,0,55,0,0
183622,-100,4,2,0,60,0,0
184433,-100,4,2,0,65,0,0
185243,-100,4,2,0,70,0,0
186054,-100,4,2,0,75,0,0
186865,-100,4,2,0,80,0,1
194973,-100,4,2,0,70,0,0
196595,-100,4,2,0,80,0,1
198014,-100,4,2,0,80,0,0
199838,-100,4,2,0,80,0,1
203081,-100,4,2,0,70,0,0

[Colours]
Combo1 : 255,32,121
Combo2 : 166,255,32
Combo3 : 255,77,32
Combo4 : 32,255,255

[HitObjects]
256,192,3014,12,0,4838,0:0:0:0:
80,104,6460,6,0,L|88:192,1,70,2|2,0:0|0:0,0:0:0:0:
96,256,6865,2,0,B|172:240|160:288|232:272,1,140,6|0,1:1|1:0,3:3:0:0:
256,192,7473,1,0,0:0:0:0:
280,112,7676,2,0,B|352:96|340:144|416:128,1,140,0|0,1:0|1:0,0:0:0:0:
388,48,8284,1,6,1:0:0:0:
472,64,8487,6,0,P|500:126|474:189,1,140,6|0,1:0|1:0,0:0:0:0:
412,244,9095,1,0,0:0:0:0:
332,264,9297,2,0,P|236:252|172:236,1,140,0|0,1:0|1:0,0:0:0:0:
136,184,9906,1,6,1:0:0:0:
104,103,10108,6,0,P|55:152|58:220,1,140,6|0,1:0|1:0,0:0:0:0:
116,280,10716,1,2,0:0:0:0:
193,242,10919,2,0,L|240:76,1,140,0|0,1:0|1:0,0:0:0:0:
256,24,11527,1,2,0:0:0:0:
340,48,11730,6,0,P|396:52|452:12,2,105,2|2|2,1:2|0:0|0:0,0:0:0:0:
316,132,12541,1,2,1:0:0:0:
372,292,12946,1,2,1:0:0:0:
216,228,13351,6,0,L|116:236,1,70,2|2,0:0|0:0,0:0:0:0:
124,316,13757,2,0,L|273:302,1,140,12|0,1:2|1:0,0:0:0:0:
324,364,14365,1,0,0:0:0:0:
372,292,14568,2,0,P|428:308|456:304,1,70,8|2,1:2|0:0,0:0:0:0:
504,252,14973,6,0,P|460:184|388:180,1,140,0|8,1:0|1:2,0:0:0:0:
332,212,15581,2,0,P|252:224|192:176,1,140,2|0,0:0|0:0,0:0:0:0:
168,120,16189,2,0,L|68:108,1,70,8|2,1:2|0:0,0:0:0:0:
28,68,16595,6,0,L|10:206,1,140,0|8,1:0|1:2,0:0:0:0:
52,280,17203,1,2,0:0:0:0:
96,352,17406,2,0,L|234:334,1,140,0|8,1:0|1:2,0:0:0:0:
280,264,18014,6,0,P|324:208|304:128,1,140,2|2,0:0|0:0,0:0:0:0:
232,120,18622,2,0,P|188:176|208:256,1,140,8|2,1:2|1:2,0:0:0:0:
220,324,19230,2,0,L|150:332,2,70,2|2|2,0:0|0:0|0:0,0:0:0:0:
280,264,19838,5,4,1:2:0:0:
152,156,20243,2,0,P|117:159|84:148,1,70,10|0,1:2|0:0,0:0:0:0:
0,158,20649,2,0,P|5:107|43:72,2,105,0|2|0,1:0|0:0|0:0,0:0:0:0:
48,228,21460,5,2,1:2:0:0:
96,296,21662,1,0,0:0:0:0:
176,272,21865,2,0,L|168:200,1,70,8|0,1:2|0:0,0:0:0:0:
160,120,22270,2,0,B|228:132|236:84|296:92,2,140,2|2|4,1:0|1:0|1:0,0:0:0:0:
296,220,23487,6,0,L|384:232,1,70,10|0,1:2|0:0,0:0:0:0:
420,164,23892,2,0,P|468:160|516:112,2,105,0|2|0,1:0|0:0|0:0,0:0:0:0:
384,88,24703,6,0,L|314:78,1,70,6|0,1:2|0:0,0:0:0:0:
232,68,25108,2,0,L|222:137,1,70,14|0,1:2|0:0,0:0:0:0:
212,224,25514,2,0,L|142:233,1,70,6|0,1:2|0:0,0:0:0:0:
60,244,25919,2,0,L|50:174,1,70,14|0,1:2|0:0,0:0:0:0:
36,92,26324,5,4,1:2:0:0:
200,132,26730,2,0,P|264:124|280:112,1,70,8|0,1:2|0:0,0:0:0:0:
328,64,27135,2,0,P|400:60|444:80,2,105,0|2|0,1:0|0:0|0:0,0:0:0:0:
344,148,27946,5,2,1:2:0:0:
360,232,28149,1,0,0:0:0:0:
280,208,28351,2,0,L|208:220,1,70,8|0,1:2|0:0,0:0:0:0:
143,271,28757,2,0,P|124:207|159:149,2,140,2|2|4,1:0|1:0|1:0,0:0:0:0:
240,136,29973,6,0,L|228:56,1,70,8|0,1:2|0:0,0:0:0:0:
156,24,30378,2,0,L|48:16,2,105,2|2|0,1:2|0:0|3:0,0:0:0:0:
229,66,31189,6,0,L|275:68,2,46.6666666666667,2|2|2,0:0|0:0|0:0,0:0:0:0:
208,120,31595,2,0,L|161:117,2,46.6666666666667,2|2|2,3:2|3:2|3:2,0:0:0:0:
256,152,32000,1,2,3:1:0:0:
256,356,32811,6,0,L|400:368,2,140,6|2|0,1:0|1:2|0:0,0:0:0:0:
172,348,33824,2,0,L|80:340,1,70,0|2,1:0|1:2,0:0:0:0:
16,356,34230,6,0,P|-4:296|4:220,1,140,2|0,1:0|0:0,0:0:0:0:
44,144,34838,2,0,P|100:136|156:200,1,140,2|0,1:2|0:0,0:0:0:0:
124,272,35446,1,0,1:0:0:0:
208,260,35649,1,2,1:2:0:0:
306,124,36054,6,0,L|376:136,1,70,6|0,3:2|0:0,0:0:0:0:
444,188,36460,1,2,3:2:0:0:
456,104,36662,1,0,0:0:0:0:
388,52,36865,2,0,L|319:40,1,70,2|0,3:2|0:0,0:0:0:0:
240,68,37270,1,2,3:2:0:0:
224,152,37472,1,0,0:0:0:0:
152,208,37676,6,0,P|112:212|60:228,1,70,2|0,3:2|0:0,0:0:0:0:
16,168,38081,1,2,3:2:0:0:
4,84,38284,1,0,0:0:0:0:
84,116,38487,2,2,P|156:112|216:48,1,140,2|2,3:1|1:2,0:0:0:0:
332,180,39297,6,0,L|312:348,2,140,6|2|0,1:0|1:2|0:0,0:0:0:0:
303,99,40311,2,0,P|337:94|370:105,1,70,0|2,1:0|1:2,0:0:0:0:
432,164,40716,6,0,P|444:232|416:296,1,140,2|0,1:0|0:0,0:0:0:0:
352,348,41324,2,0,L|192:360,1,140,2|0,1:2|0:0,0:0:0:0:
132,336,41933,1,0,1:0:0:0:
192,276,42135,1,2,1:2:0:0:
192,108,42541,6,0,L|128:48,1,70,6|0,3:2|0:0,0:0:0:0:
88,128,42946,1,2,3:2:0:0:
148,188,43149,1,0,0:0:0:0:
228,212,43351,2,0,P|288:204|328:204,1,70,2|0,3:2|0:0,0:0:0:0:
372,164,43757,1,2,3:2:0:0:
456,156,43960,1,0,0:0:0:0:
424,232,44162,6,0,L|436:332,1,70,2|0,3:2|0:0,0:0:0:0:
376,364,44568,1,2,3:2:0:0:
304,320,44770,1,0,0:0:0:0:
243,379,44973,2,2,P|219:316|248:254,1,140,2|2,1:0|1:2,0:0:0:0:
320,208,45581,1,0,0:0:0:0:
328,124,45784,6,0,L|160:108,1,140,4|2,1:2|0:0,0:0:0:0:
128,52,46392,1,0,0:0:0:0:
44,68,46595,2,0,P|48:116|60:152,1,70,2|2,1:2|0:0,0:0:0:0:
116,196,47000,2,0,P|124:229|125:264,1,70,2|0,0:0|1:0,0:0:0:0:
56,312,47406,6,0,P|146:349|210:274,1,210,2|0,1:2|1:0,0:0:0:0:
200,192,48216,1,2,1:2:0:0:
240,116,48419,1,8,3:2:0:0:
324,108,48622,1,8,3:2:0:0:
380,172,48824,2,0,P|391:253|400:324,1,140,8|0,3:2|0:0,0:0:0:0:
480,336,49433,6,0,P|500:288|500:248,1,70,2|0,0:0|1:0,0:0:0:0:
468,192,49838,2,0,L|454:94,1,70,2|0,1:2|0:0,0:0:0:0:
488,44,50243,1,2,0:0:0:0:
404,56,50446,1,0,0:0:0:0:
364,132,50649,6,0,P|260:140|180:72,1,210,0|0,1:0|1:0,0:0:0:0:
144,0,51460,1,2,1:2:0:0:
72,40,51662,1,8,0:0:0:0:
108,116,51865,2,0,P|96:159|80:208,1,70,0|8,0:0|0:0,0:0:0:0:
12,220,52270,6,0,P|18:298|28:364,1,140,0|2,1:0|0:0,0:0:0:0:
108,380,52878,1,0,0:0:0:0:
192,380,53081,2,0,P|256:372|292:360,1,70,2|2,1:2|0:0,0:0:0:0:
304,296,53487,2,0,P|338:303|373:305,1,70,2|2,0:0|1:2,0:0:0:0:
444,352,53892,6,0,P|512:304|496:184,1,210,0|0,1:0|1:0,0:0:0:0:
432,136,54703,1,2,1:2:0:0:
349,153,54906,6,0,L|344:84,1,70,2|2,1:2|1:2,0:0:0:0:
336,0,55311,2,0,P|263:13|188:8,1,140,6|0,1:0|1:0,0:0:0:0:
128,60,55919,2,0,P|84:60|52:68,1,70,8|2,1:2|0:0,0:0:0:0:
4,132,56324,1,0,1:0:0:0:
70,186,56527,6,0,L|64:256,1,70,2|2,1:2|1:2,0:0:0:0:
56,340,56933,2,0,L|212:320,1,140,6|0,1:0|1:0,0:0:0:0:
244,252,57541,2,0,P|296:268|336:264,1,70,8|2,1:2|0:0,0:0:0:0:
392,252,57946,1,0,1:0:0:0:
468,288,58149,6,0,L|480:220,1,70,2|2,1:2|1:2,0:0:0:0:
492,136,58554,2,0,P|456:80|384:64,1,140,6|0,1:0|0:0,0:0:0:0:
316,108,59162,5,2,1:0:0:0:
184,212,59568,2,0,L|320:200,2,105,0|0|0,1:0|1:0|1:0,0:0:0:0:
100,220,60378,1,4,1:2:0:0:
8,76,60784,6,0,L|108:68,1,70,2|2,0:0|0:0,0:0:0:0:
152,112,61189,1,2,0:0:0:0:
236,104,61392,2,0,L|251:35,1,70,2|10,0:0|0:0,0:0:0:0:
336,28,61797,1,2,0:0:0:0:
392,92,62000,6,0,P|400:160|360:228,1,140,4|8,1:2|1:2,0:0:0:0:
300,272,62608,2,0,L|136:248,1,140,2|2,0:0|0:0,0:0:0:0:
100,196,63216,1,8,1:2:0:0:
112,112,63419,6,0,P|160:60|228:60,2,140,2|2|2,0:0|0:0|0:0,0:0:0:0:
100,196,64433,1,2,1:2:0:0:
88,280,64635,1,2,0:0:0:0:
20,228,64838,1,10,1:2:0:0:
156,328,65243,6,0,L|184:172,1,140,0|8,1:0|1:2,0:0:0:0:
264,204,65851,2,0,P|340:196|388:140,1,140,2|2,0:0|0:0,0:0:0:0:
400,68,66460,1,8,1:2:0:0:
484,52,66662,6,0,L|504:200,2,140,2|2|2,0:0|0:0|0:0,0:0:0:0:
400,68,67676,1,2,1:2:0:0:
316,84,67878,1,2,0:0:0:0:
344,4,68080,1,10,1:2:0:0:
372,168,68487,6,0,P|320:220|248:216,1,140,0|8,1:0|1:2,0:0:0:0:
188,168,69095,2,0,P|119:170|73:220,1,140,2|2,0:0|0:0,0:0:0:0:
56,304,69703,1,8,1:2:0:0:
140,312,69906,6,2,L|296:324,1,140,0|0,0:0|0:0,0:0:0:0:
344,272,70514,1,8,1:2:0:0:
424,296,70716,2,0,P|452:231|424:148,1,140,2|2,0:1|0:0,0:0:0:0:
388,96,71324,1,8,1:2:0:0:
220,84,71730,6,0,L|200:252,2,140,0|8|0,1:0|1:2|1:0,0:0:0:0:
160,24,72743,1,2,0:0:0:0:
80,52,72946,2,0,P|76:112|92:140,1,70,8|2,1:2|0:0,0:0:0:0:
112,196,73351,6,0,P|124:260|92:328,1,140,0|10,1:0|1:2,0:0:0:0:
16,288,73960,1,2,0:2:0:0:
8,204,74162,2,0,L|0:116,1,70,2|2,1:2|1:2,0:0:0:0:
68,84,74568,1,2,1:2:0:0:
144,116,74770,1,2,1:2:0:0:
156,200,74973,6,0,P|224:216|284:184,1,140,4|8,1:2|1:2,0:0:0:0:
328,112,75581,2,0,P|388:80|455:96,1,140,2|2,0:0|0:0,0:0:0:0:
504,164,76189,1,8,1:2:0:0:
492,248,76392,6,0,L|328:232,2,140,2|2|2,0:0|0:0|0:0,0:0:0:0:
484,332,77406,1,2,1:2:0:0:
400,324,77608,1,2,0:0:0:0:
316,316,77811,1,10,1:2:0:0:
236,168,78216,6,0,P|164:164|108:208,1,140,0|8,1:0|1:2,0:0:0:0:
83,283,78824,2,0,P|32:237|32:169,1,140,2|2,0:0|0:0,0:0:0:0:
60,88,79433,1,8,1:2:0:0:
128,40,79635,6,0,L|300:48,2,140,2|2|2,0:0|0:0|0:0,0:0:0:0:
60,88,80649,1,2,1:2:0:0:
136,124,80851,1,2,0:0:0:0:
68,172,81054,1,10,1:2:0:0:
84,340,81460,6,0,P|152:332|224:360,1,140,0|8,1:0|1:2,0:0:0:0:
292,312,82068,2,0,P|357:335|426:327,1,140,2|2,0:0|0:0,0:0:0:0:
492,276,82676,1,8,1:2:0:0:
484,192,82878,1,0,0:0:0:0:
412,144,83081,6,0,P|348:152|296:212,1,140,2|8,1:2|1:2,0:0:0:0:
213,205,83689,2,0,P|167:153|99:143,1,140,2|2,0:0|0:0,0:0:0:0:
28,192,84297,2,0,L|16:276,1,70,8|2,1:2|0:0,0:0:0:0:
64,332,84703,6,0,B|136:336|124:288|200:292,1,140,0|2,3:0|0:0,0:0:0:0:
256,232,85311,1,0,0:0:0:0:
317,291,85514,2,0,B|388:288|376:336|448:332,1,140,0|2,3:0|0:0,0:0:0:0:
512,276,86122,1,0,0:0:0:0:
480,196,86324,6,0,B|454:123|355:107|309:166,1,210,2|2,3:2|0:0,0:0:0:0:
256,232,87135,1,0,3:0:0:0:
256,64,87541,2,0,P|215:62|172:52,1,70,2|2,0:0|0:0,0:0:0:0:
104,32,87946,5,4,1:2:0:0:
4,168,88351,2,0,P|44:192|60:228,1,70,10|0,1:2|0:0,0:0:0:0:
99,284,88757,2,0,P|49:296|1:277,2,105,0|2|0,1:0|0:0|0:0,0:0:0:0:
164,228,89568,5,2,1:2:0:0:
244,248,89770,1,0,0:0:0:0:
268,328,89973,2,0,L|360:312,1,70,8|0,1:2|0:0,0:0:0:0:
400,260,90378,2,0,L|412:112,2,140,2|2|4,1:0|1:0|1:0,0:0:0:0:
240,208,91595,6,0,L|248:128,1,70,10|0,1:2|0:0,0:0:0:0:
256,56,92000,2,0,B|292:72|328:64|356:32,2,105,0|2|0,1:0|0:0|0:0,0:0:0:0:
180,16,92811,6,0,L|110:22,1,70,2|0,0:0|0:0,0:0:0:0:
28,8,93216,1,8,1:2:0:0:
12,92,93419,1,0,0:0:0:0:
96,108,93622,2,0,L|165:101,1,70,2|0,0:0|0:0,0:0:0:0:
248,120,94027,1,8,1:2:0:0:
232,204,94230,1,2,0:0:0:0:
148,184,94433,6,0,L|8:199,1,140,0|14,0:0|1:2,0:0:0:0:
16,284,95041,1,0,0:0:0:0:
91,320,95243,2,0,P|128:283|179:275,2,105,0|2|0,1:2|0:0|0:0,0:0:0:0:
167,360,96054,5,2,1:2:0:0:
244,328,96257,1,0,0:0:0:0:
260,244,96460,2,0,L|249:174,1,70,8|0,1:2|0:0,0:0:0:0:
320,128,96865,2,0,P|351:189|344:258,2,140,2|2|4,1:0|1:0|1:0,0:0:0:0:
168,60,98081,6,0,L|237:66,1,70,8|0,1:2|0:0,0:0:0:0:
208,148,98487,2,0,L|103:138,2,105,2|2|2,1:2|0:0|0:0,0:0:0:0:
276,200,99297,6,0,P|328:180|344:160,1,70,0|0,0:0|0:0,0:0:0:0:
356,88,99703,1,0,0:0:0:0:
420,144,99906,1,0,0:0:0:0:
484,200,100108,2,0,L|472:280,1,70,0|0,0:0|0:0,0:0:0:0:
396,308,100514,1,2,0:2:0:0:
232,280,100919,6,0,B|152:268|168:316|96:300,2,140,6|2|0,1:0|1:2|0:0,0:0:0:0:
295,336,101933,2,0,P|315:307|317:272,1,70,0|2,1:0|1:2,0:0:0:0:
280,196,102338,6,0,P|256:132|264:60,1,140,2|0,1:0|0:0,0:0:0:0:
332,12,102946,2,0,P|400:60|392:140,1,140,2|0,1:2|0:0,0:0:0:0:
364,184,103554,1,0,1:0:0:0:
280,196,103757,1,2,1:2:0:0:
172,324,104162,6,0,L|80:312,1,70,6|0,3:2|0:0,0:0:0:0:
20,304,104568,1,2,3:2:0:0:
68,236,104770,1,0,0:0:0:0:
152,244,104973,2,0,P|192:224|212:192,1,70,2|0,3:2|0:0,0:0:0:0:
224,120,105378,1,2,3:2:0:0:
288,176,105581,1,0,0:0:0:0:
372,164,105784,6,0,P|428:152|468:140,1,70,2|0,3:2|0:0,0:0:0:0:
496,84,106189,1,2,3:2:0:0:
420,44,106392,1,0,0:0:0:0:
336,64,106595,2,0,B|227:96|244:20|132:56,1,210,2|0,0:0|0:0,0:0:0:0:
52,28,107406,6,0,P|32:80|36:164,2,140,6|2|0,1:0|1:2|0:0,0:0:0:0:
132,55,108419,2,0,L|220:84,1,70,0|2,1:0|1:2,0:0:0:0:
256,140,108824,6,0,P|332:128|356:76,1,140,2|0,1:0|0:0,0:0:0:0:
420,20,109433,2,0,L|488:168,1,140,2|0,1:2|0:0,0:0:0:0:
512,224,110041,1,0,1:0:0:0:
428,216,110243,1,2,1:2:0:0:
268,272,110649,6,0,P|268:237|274:203,1,70,6|0,3:2|0:0,0:0:0:0:
316,128,111054,1,2,3:2:0:0:
400,136,111257,1,0,0:0:0:0:
428,216,111460,2,0,P|427:250|421:285,1,70,2|0,3:2|0:0,0:0:0:0:
384,360,111865,1,2,3:2:0:0:
300,352,112068,1,0,0:0:0:0:
268,272,112270,6,0,P|200:284|188:292,1,70,2|0,3:2|0:0,0:0:0:0:
136,336,112676,1,2,3:2:0:0:
60,300,112878,1,0,0:0:0:0:
72,216,113081,2,0,L|92:56,1,140,2|2,1:0|1:2,0:0:0:0:
148,16,113689,1,0,0:0:0:0:
172,96,113892,6,0,B|252:80|252:80|304:104|304:104|392:84,1,210,4|0,1:2|0:0,0:0:0:0:
456,68,114703,1,2,1:2:0:0:
496,140,114906,1,0,0:0:0:0:
413,160,115108,2,0,P|400:200|405:236,1,70,2|0,0:0|1:0,0:0:0:0:
456,295,115514,6,0,P|357:302|318:211,1,210,0|0,1:0|1:0,0:0:0:0:
336,128,116324,1,2,1:2:0:0:
276,68,116527,1,8,3:2:0:0:
196,92,116730,1,8,3:2:0:0:
172,172,116933,2,0,L|8:196,1,140,8|0,3:2|0:0,0:0:0:0:
0,272,117541,6,0,L|28:356,1,70,2|0,0:0|1:0,0:0:0:0:
100,300,117946,2,0,P|145:263|152:238,1,70,2|0,1:2|0:0,0:0:0:0:
172,172,118351,1,2,0:0:0:0:
252,200,118554,1,0,0:0:0:0:
232,284,118757,6,0,P|324:249|322:151,1,210,0|0,1:0|1:0,0:0:0:0:
264,88,119568,1,2,1:2:0:0:
180,100,119770,1,8,0:0:0:0:
136,172,119973,2,0,L|128:252,1,70,0|8,0:0|0:0,0:0:0:0:
44,236,120378,6,0,L|59:79,1,140,0|2,1:0|0:0,0:0:0:0:
64,12,120987,1,0,0:0:0:0:
136,60,121189,2,0,P|208:65|272:48,1,140,2|2,0:0|0:0,0:0:0:0:
348,88,121797,1,0,0:0:0:0:
324,168,122000,6,0,L|224:160,1,70,2|0,0:0|0:0,0:0:0:0:
168,156,122406,2,0,L|162:225,1,70,2|0,0:0|0:0,0:0:0:0:
156,308,122811,1,2,1:2:0:0:
240,316,123014,6,0,L|309:321,1,70,2|2,1:2|1:2,0:0:0:0:
392,328,123419,2,0,P|428:260|416:192,1,140,6|0,1:0|1:0,0:0:0:0:
360,140,124027,2,0,P|321:140|280:128,1,70,8|2,1:2|0:0,0:0:0:0:
212,104,124433,1,0,1:0:0:0:
228,20,124635,6,0,L|159:34,1,70,2|2,1:2|1:2,1:0:0:0:
76,52,125041,2,0,L|52:212,1,140,6|0,1:0|0:0,0:0:0:0:
11,263,125649,2,0,P|42:279|76:274,1,70,8|2,1:2|0:0,0:0:0:0:
144,224,126054,1,0,1:0:0:0:
156,308,126257,6,0,L|248:316,1,70,2|2,1:2|1:2,0:0:0:0:
308,320,126662,2,0,P|356:271|345:200,1,140,6|2,1:0|0:0,0:0:0:0:
273,244,127270,1,2,1:0:0:0:
180,100,127676,6,0,L|56:84,2,105,6|6|6,1:0|1:0|1:0,0:0:0:0:
256,60,128487,1,6,1:2:0:0:
360,192,128892,6,0,L|348:280,1,70,2|2,0:0|0:0,0:0:0:0:
340,344,129297,1,2,0:0:0:0:
172,344,129703,2,0,L|162:274,1,70,2|2,0:0|0:0,0:0:0:0:
152,192,130108,1,2,0:0:0:0:
256,60,130514,6,0,P|288:68|324:60,1,70,2|2,0:0|0:0,0:0:0:0:
404,32,130919,1,2,0:0:0:0:
460,96,131122,2,0,L|450:165,1,70,2|10,0:0|0:0,0:0:0:0:
436,248,131527,1,2,0:0:0:0:
360,216,131730,6,0,P|289:209|224:232,1,140,4|8,1:2|1:2,0:0:0:0:
176,160,132338,2,0,P|105:166|40:144,1,140,2|2,0:0|0:0,0:0:0:0:
4,220,132946,1,8,1:2:0:0:
24,300,133149,6,0,L|168:288,2,140,2|2|2,0:0|0:0|0:0,0:0:0:0:
4,220,134162,1,2,1:2:0:0:
84,188,134365,1,2,0:0:0:0:
96,104,134568,1,10,1:2:0:0:
256,64,134973,6,0,L|236:202,1,140,0|8,1:0|1:2,0:0:0:0:
292,268,135581,2,0,P|396:240|408:204,1,140,2|2,0:0|0:0,0:0:0:0:
424,136,136189,1,8,1:2:0:0:
500,100,136392,6,0,P|512:168|512:260,2,140,0|0|2,0:0|0:0|0:0,0:0:0:0:
440,40,137406,1,2,1:2:0:0:
360,64,137608,1,2,0:0:0:0:
340,144,137811,1,2,0:0:0:0:
171,143,138216,6,0,P|103:139|56:90,1,140,4|8,1:2|1:2,0:0:0:0:
140,63,138824,2,0,P|208:68|255:117,1,140,2|2,0:0|0:0,0:0:0:0:
256,204,139433,1,8,1:2:0:0:
256,288,139635,6,0,L|428:304,1,140,2|2,0:0|0:0,0:0:0:0:
436,376,140243,1,8,1:2:0:0:
484,308,140446,2,0,P|508:240|500:168,1,140,2|2,0:1|0:0,0:0:0:0:
468,96,141054,1,8,1:2:0:0:
352,216,141460,6,0,L|332:56,2,140,0|8|0,1:0|1:2|1:0,0:0:0:0:
364,300,142473,1,2,0:0:0:0:
280,312,142676,1,8,1:2:0:0:
268,228,142878,1,2,0:0:0:0:
204,176,143081,6,0,P|164:176|128:196,1,70,0|0,3:0|3:0,0:0:0:0:
84,256,143487,1,10,3:2:0:0:
40,328,143689,1,2,3:2:0:0:
0,252,143892,2,0,L|12:164,1,70,2|0,3:2|3:2,0:0:0:0:
20,100,144297,1,10,3:2:0:0:
32,16,144500,1,0,3:2:0:0:
100,68,144703,6,0,L|188:80,1,70,2|0,0:0|0:0,0:0:0:0:
236,132,145108,1,12,1:2:0:0:
248,48,145311,2,0,L|412:68,1,140,2|2,0:0|0:0,0:0:0:0:
472,76,145919,1,8,1:2:0:0:
499,156,146122,6,0,P|464:213|396:223,2,140,2|2|2,0:0|0:0|0:0,0:0:0:0:
472,76,147135,1,2,1:2:0:0:
416,140,147338,1,2,0:0:0:0:
388,60,147541,1,10,1:2:0:0:
284,192,147946,6,0,P|297:277|312:340,1,140,0|8,1:0|1:2,0:0:0:0:
392,312,148554,2,0,P|378:226|364:164,1,140,2|2,0:0|0:0,0:0:0:0:
312,112,149162,1,8,1:2:0:0:
228,128,149365,6,0,P|148:108|112:44,2,140,2|2|2,0:0|0:0|0:0,0:0:0:0:
284,192,150378,1,2,1:2:0:0:
200,208,150581,1,2,0:0:0:0:
116,224,150784,2,0,L|24:240,1,70,10|2,1:2|0:0,0:0:0:0:
48,320,151189,6,0,L|208:292,1,140,0|2,1:0|0:0,0:0:0:0:
256,344,151797,1,0,0:0:0:0:
327,296,152000,2,0,B|340:224|296:228|312:152,1,140,0|2,1:0|0:0,0:0:0:0:
328,76,152608,1,0,0:0:0:0:
404,40,152811,6,0,P|456:64|472:144,1,140,0|2,1:0|1:2,0:0:0:0:
428,212,153419,2,0,L|256:236,1,140,0|0,0:0|1:0,0:0:0:0:
232,168,154027,2,0,P|188:168|152:152,1,70,2|0,1:2|1:0,0:0:0:0:
111,92,154433,6,0,P|80:152|101:217,1,140,0|2,3:0|0:0,0:0:0:0:
148,288,155041,1,0,0:0:0:0:
232,304,155243,2,0,L|404:328,1,140,0|2,3:0|0:0,0:0:0:0:
416,252,155851,1,0,0:0:0:0:
339,211,156054,6,0,P|326:160|345:112,2,105,2|2|2,3:2|0:0|0:0,0:0:0:0:
411,168,156865,2,0,P|475:189|500:252,1,140
308,68,163960,5,2,3:2:0:0:
224,88,164162,2,0,P|227:131|237:156,1,70,2|0,1:0|0:0,0:0:0:0:
275,231,164568,2,0,P|286:265|288:299,1,70,8|0,0:0|1:0,0:0:0:0:
204,320,164972,1,2,1:2:0:0:
120,340,165176,2,0,L|132:196,1,140,2|2,0:0|3:2,0:0:0:0:
48,192,165784,6,0,L|38:296,2,105,2|0|0,1:0|1:0|1:0,0:0:0:0:
56,108,166595,1,2,1:2:0:0:
140,92,166797,2,0,P|276:116|300:104,1,140,2|2,1:2|3:2,0:0:0:0:
352,84,167406,6,0,P|384:136|368:228,1,140,2|8,1:0|0:0,0:0:0:0:
296,240,168014,1,0,0:0:0:0:
220,204,168216,2,0,L|204:360,1,140,2|8,1:2|0:0,0:0:0:0:
288,324,168824,1,2,1:2:0:0:
368,304,169027,6,0,P|432:308|480:328,2,105,2|2|2,1:2|1:2|1:2,0:0:0:0:
396,224,169838,2,0,P|412:174|414:122,2,105,2|2|2,1:0|1:0|1:0,0:0:0:0:
312,236,170649,6,0,L|148:208,1,140,6|8,1:0|0:0,0:0:0:0:
104,256,171257,1,0,1:0:0:0:
84,340,171460,2,0,P|29:298|22:231,1,140,2|8,1:2|0:0,0:0:0:0:
84,172,172068,1,2,3:2:0:0:
108,92,172270,6,0,P|40:84|4:72,2,105,2|0|0,1:0|1:0|1:0,0:0:0:0:
176,40,173081,2,0,P|256:36|324:144,1,210,2|0,3:2|0:0,0:0:0:0:
312,220,173892,6,0,L|292:352,2,105,6|2|2,1:0|3:2|1:2,0:0:0:0:
392,188,174703,2,0,L|495:203,2,105,2|2|2,1:2|3:2|3:2,0:0:0:0:
324,134,175514,6,0,P|252:114|240:98,1,70,2|0,1:0|0:0,0:0:0:0:
196,64,175919,2,0,P|148:76|124:96,1,70,8|0,0:0|1:2,0:0:0:0:
80,156,176324,2,0,L|68:240,1,70,2|0,1:2|1:0,0:0:0:0:
132,284,176730,1,2,3:2:0:0:
216,296,176933,1,2,3:2:0:0:
184,216,177135,5,6,1:0:0:0:
256,192,177237,12,2,179973,0:0:0:0:
344,124,180378,6,0,P|357:191|344:260,2,140,0|2|0,3:0|3:2|3:0,0:0:0:0:
168,124,181595,1,2,3:2:0:0:
104,180,181797,2,0,L|124:344,1,140
200,352,182406,2,0,P|248:288|220:216,1,140,0|2,3:0|3:2,0:0:0:0:
148,88,183216,1,2,3:2:0:0:
64,104,183419,1,2,0:0:0:0:
104,180,183622,6,0,P|168:168|272:156,1,140,0|2,3:0|3:2,0:0:0:0:
232,76,184230,1,0,0:0:0:0:
316,92,184433,2,0,P|384:104|454:113,1,140,0|2,3:0|3:2,0:0:0:0:
500,184,185041,1,0,0:0:0:0:
448,248,185243,6,0,P|416:268|376:268,1,70,0|0,3:0|0:0,0:0:0:0:
319,327,185649,2,0,P|300:299|298:264,1,70,2|0,3:2|0:0,0:0:0:0:
348,196,186054,2,0,L|356:100,1,70,0|0,3:0|0:0,0:0:0:0:
287,71,186460,2,0,B|250:66|250:66|222:82,1,70,2|0,0:0|0:0,0:0:0:0:
176,152,186865,6,0,B|139:144|139:144|115:156|115:156|12:132,1,140,4|8,1:2|1:2,0:0:0:0:
24,56,187473,2,0,P|84:24|156:36,1,140,2|2,0:0|0:0,0:0:0:0:
221,82,188081,1,8,1:2:0:0:
256,156,188284,6,0,L|256:304,1,140,2|2,0:0|0:0,0:0:0:0:
256,380,188892,1,8,1:2:0:0:
332,340,189095,2,0,B|400:332|376:284|452:276,1,140,2|2,0:1|0:0,0:0:0:0:
476,196,189703,1,8,1:2:0:0:
376,60,190108,6,0,L|228:48,2,140,0|8|0,1:0|1:2|1:0,0:0:0:0:
428,128,191122,1,2,0:0:0:0:
364,184,191324,2,0,L|268:176,1,70,8|2,1:2|0:0,0:0:0:0:
224,132,191730,6,0,P|176:148|144:148,1,70,0|2,1:0|0:0,0:0:0:0:
96,88,192135,1,10,1:2:0:0:
16,108,192338,1,2,0:2:0:0:
0,192,192541,2,0,P|12:236|20:280,1,70,2|2,1:2|1:2,0:0:0:0:
36,344,192946,1,2,1:2:0:0:
116,364,193149,1,2,1:2:0:0:
172,300,193351,6,0,P|248:288|312:268,1,140,4|8,1:2|1:2,0:0:0:0:
384,308,193960,2,0,P|427:256|417:189,1,140,2|2,0:0|0:0,0:0:0:0:
368,116,194568,2,0,L|356:24,1,70,8|2,1:2|0:0,0:0:0:0:
284,88,194973,6,0,B|212:96|220:52|144:60,1,140,2|0,3:2|0:0,0:0:0:0:
68,88,195581,1,2,3:2:0:0:
32,164,195784,2,0,P|84:212|168:196,1,140,2|0,3:2|0:0,0:0:0:0:
224,168,196392,1,2,3:2:0:0:
304,188,196595,6,0,L|288:336,1,140,0|8,1:0|1:2,0:0:0:0:
372,348,197203,2,0,L|387:208,1,140,2|2,0:0|0:0,0:0:0:0:
396,124,197811,1,8,1:2:0:0:
312,104,198014,1,2,3:2:0:0:
256,192,198216,12,0,199433,0:0:0:0:
116,124,199838,6,0,P|92:196|108:260,1,140,0|8,1:0|1:2,0:0:0:0:
180,300,200446,2,0,L|236:148,1,140,2|2,0:0|0:0,0:0:0:0:
256,88,201054,1,8,1:2:0:0:
340,72,201257,1,2,0:0:0:0:
387,3,201460,6,0,P|424:61|403:126,1,140,0|8,1:0|1:2,0:0:0:0:
364,200,202068,1,2,0:0:0:0:
280,216,202270,2,0,L|156:196,2,105,0|0|0,1:0|1:0|1:0,0:0:0:0:
308,136,203081,5,0,1:0:0:0:
208,260,204906,6,0,L|120:272,1,70,2|2,0:0|0:0,0:0:0:0:
72,216,205311,1,2,0:0:0:0:
112,140,205514,1,2,0:0:0:0:
196,132,205716,1,2,0:0:0:0:
256,192,205919,2,0,P|348:184|376:144,1,140,2|2,0:0|0:0,0:0:0:0:
384,68,206527,1,2,0:0:0:0:
