osu file format v9

[General]
AudioFilename: 11.mp3
AudioLeadIn: 2000
PreviewTime: 56378
Countdown: 0
SampleSet: Normal
StackLeniency: 0.7
Mode: 0
LetterboxInBreaks: 1

[Editor]
DistanceSpacing: 1.5
BeatDivisor: 4
GridSize: 4

[Metadata]
Title:Tobidase! Sweet Sweet Magic*
Artist:Nanahira
Creator:cRyo[iceeicee]
Version:Hard
Source:
Tags:C80 poyahchio KayeSara

[Difficulty]
HPDrainRate:6
CircleSize:4
OverallDifficulty:6
ApproachRate:7
SliderMultiplier:1.5
SliderTickRate:2

[Events]
//Background and Video events
0,0,"BG.jpg"
//Break Periods
2,81226,88126
//Storyboard Layer 0 (Background)
//Storyboard Layer 1 (Fail)
//Storyboard Layer 2 (Pass)
//Storyboard Layer 3 (Foreground)
//Storyboard Sound Samples
//Background Colour Transformations
3,100,163,162,255

[TimingPoints]
1027,333.333333333333,4,2,1,65,1,0
11611,-100,4,1,0,45,0,0
12651,-100,4,1,1,65,0,0
12861,-100,4,1,2,55,0,0
24651,-100,4,1,1,65,0,0
24861,-100,4,2,2,65,0,0
29777,-100,4,1,0,55,0,0
30111,-100,4,2,1,65,0,0
32943,-100,4,1,2,55,0,0
46276,-100,4,2,0,65,0,0
51277,-100,4,1,2,55,0,0
56651,-100,4,1,1,65,0,0
56776,-100,4,1,2,55,0,0
77943,-100,4,1,1,65,0,0
78110,-100,4,1,2,55,0,0
92651,-100,4,1,1,65,0,0
92861,-100,4,2,1,65,0,0
97777,-100,4,1,1,55,0,0
98111,-100,4,2,1,65,0,0
101944,-100,4,1,0,45,0,0
103611,-100,4,1,2,55,0,0
124651,-100,4,1,1,65,0,0
124776,-100,4,1,2,55,0,0
145943,-100,4,1,1,65,0,0
146110,-100,4,1,0,55,0,0
146526,-133.333333333333,4,2,1,65,0,0
161943,-100,4,1,0,45,0,0
162360,-100,4,1,2,55,0,0
167318,-100,4,1,1,65,0,0
167401,-100,4,1,2,55,0,0

[Colours]
Combo1 : 255,62,255
Combo2 : 0,255,255
Combo3 : 157,0,79
Combo4 : 0,165,244

[HitObjects]
128,132,527,2,0,B|88:132|40:156,2,75,2|0|0
184,192,1027,2,0,B|256:228|328:192,1,150,2|2
408,320,1693,6,0,B|444:320|500:336,2,75,2|0|0
344,264,2193,2,0,B|264:247|204:301,1,150,2|0
168,120,2860,2,0,B|247:136|307:82,1,150,2|0
440,154,3526,6,0,B|424:254,1,75,0|2
356,190,3860,2,0,B|340:290,1,75,0|2
268,234,4193,2,0,B|252:334,2,75,0|2|0
244,156,4693,2,0,B|255:81,1,75,0|2
420,56,5193,5,0
356,190,5526,2,0,B|276:238|220:142|140:190,1,225,2|0
52,332,6360,6,0,B|131:348|191:294,1,150,2|0
256,344,6860,2,0,B|316:289|395:305,1,150,2|0
444,240,7360,1,2
460,52,7693,6,0,B|381:36|321:90,1,150,2|0
256,40,8193,2,0,B|195:94|116:78,1,150,2|0
68,144,8693,1,2
256,192,9026,12,2,10360
344,112,10693,5,0
344,112,10860,1,2
256,276,11193,1,2
84,64,11693,6,0,B|92:164,1,75,4|0
168,112,12027,2,0,B|176:212,1,75,0|0
248,224,12360,1,0
252,252,12443,1,0
256,280,12527,1,0
260,308,12610,1,0
264,336,12693,1,8
396,72,13027,6,0,B|424:48|464:40,2,75,6|2|8
384,152,13527,2,0,B|356:176|316:184,1,75,2|0
248,140,13860,1,2
176,96,14027,1,10
96,120,14193,2,2,B|111:199|57:259,1,150,0|2
136,288,14693,6,0,B|212:268,1,75,10|0
208,352,15027,2,0,B|284:332,1,75,2|0
360,312,15360,1,10
384,104,15693,6,0,B|424:104|480:132,2,75,6|2|12
320,160,16193,2,0,B|240:175|180:121,1,150,2|2
76,104,16693,1,10
60,208,16860,2,2,B|139:192|199:246,1,150,0|2
320,160,17360,6,0,B|344:248,1,75,10|0
400,176,17693,2,0,B|424:264,1,75,2|0
480,192,18027,2,0,B|504:280,1,75,10|0
396,344,18360,6,0,B|316:359|256:305,1,150,6|8
255,222,18860,2,0,B|195:168|116:184,1,150,2|0
116,184,19360,1,10
196,92,19526,5,0
196,92,19610,1,0
196,92,19693,2,0,B|256:146|335:130,1,150,6|10
335,253,20193,2,0,B|256:237|196:292,1,150,2|2
196,292,20693,1,10
92,284,20860,6,0,B|36:276,2,37.5,0|0|6
116,184,21193,2,0,B|156:184|192:168,1,75,0|2
220,92,21526,2,0,B|253:77|293:77,1,75,0|2
396,92,21860,2,0,B|416:44,2,37.5,0|0|2
400,196,22193,5,0
400,196,22276,1,0
400,196,22360,2,0,B|372:272,1,75,6|0
308,220,22693,2,0,B|280:296,1,75,2|0
216,244,23026,2,0,B|188:320,1,75,2|0
176,328,23276,1,0
160,340,23360,2,0,B|87:360,1,75,2|2
40,256,23693,5,4
76,180,23860,1,0
148,140,24026,1,0
228,128,24193,1,0
320,192,24360,5,0
348,192,24443,1,0
376,188,24526,1,0
400,180,24610,1,0
424,168,24693,1,8
228,128,25026,6,0,B|168:74|89:90,1,150,4|0
40,156,25526,1,0
44,240,25693,2,0,B|104:294|183:278,1,150,2|0
236,212,26193,2,0,B|296:188|324:252|396:208,2,150,2|0|2
172,60,27193,1,0
172,60,27360,1,2
44,240,27693,6,0,B|56:276|100:312,2,75,2|0|0
112,192,28193,1,0
192,216,28360,2,0,B|252:269|331:253,1,150,2|0
408,224,28860,6,0,B|432:140,1,75,2|0
348,164,29193,2,0,B|332:84,1,75,2|0
264,136,29526,2,0,B|204:80,1,75,2|0
72,84,29860,1,0
72,84,30026,1,2
140,272,30360,5,0
140,272,30526,2,0,B|219:287|279:233,1,150,2|0
296,152,31026,2,0,B|280:231|334:291,1,150,2|0
416,312,31526,2,0,B|336:296|276:350,2,150,2|0|2
480,160,32526,1,0
480,160,32693,1,2
256,192,33026,12,4,34193
192,84,34526,6,0,B|152:88|112:104,1,75
116,184,34860,2,0,B|83:197|43:201,2,75
228,224,35360,5,0
228,224,35443,1,0
228,224,35526,1,0
228,224,35610,1,0
228,224,35693,2,0,B|232:264|256:304,1,75,6|0
324,252,36026,2,0,B|344:284|352:332,1,75,8|0
432,320,36360,2,0,B|442:240|384:183,1,150,2|8
300,108,36860,6,0,B|268:84|228:72,1,75,2|0
224,156,37193,2,0,B|188:140|144:136,1,75,2|8
160,220,37526,2,0,B|120:212|78:220,1,75,2|0
32,280,37860,1,0
32,280,38026,1,10
304,296,38360,6,0,B|340:292|392:312,2,75,2|0|8
224,316,38860,1,0
224,316,39026,2,0,B|144:325|87:268,1,150,2|8
40,164,39527,6,0,B|76:168|111:187,1,75,2|0
252,224,39860,2,0,B|216:220|180:200,1,75,2|8
180,64,40193,2,0,B|176:100|156:135,1,75,2|0
132,256,40527,1,8
132,256,40693,1,10
364,72,41027,6,0,B|396:52|452:44,2,75,6|0|8
328,148,41527,1,0
256,192,41693,2,0,B|176:201|119:144,1,150,2|8
108,64,42193,6,0,B|117:143|60:200,1,150,2|2
44,280,42693,1,8
123,256,42860,2,0,B|180:313|259:304,1,150,2|2
259,304,43360,1,8
372,196,43693,6,0,B|400:224|460:260,1,75,2|0
432,128,44027,2,0,B|404:100|344:64,1,75,8|2
259,80,44360,1,0
259,304,44693,5,2
259,304,44860,1,4
256,192,45027,12,0,46027
220,152,46360,6,0,B|140:161|83:104,1,150,4|0
292,232,47027,2,0,B|371:222|428:279,1,150,2|0
84,280,47693,2,0,B|140:222|219:231,1,150,2|0
292,152,48193,2,0,B|371:161|428:104,1,150,2|0
500,184,48693,1,0
452,280,48860,5,0
452,280,48943,1,0
452,280,49027,2,0,B|372:270|315:327,1,150,6|2
60,280,49693,2,0,B|139:270|196:327,1,150,0|2
376,192,50360,6,0,B|296:201|239:144,1,150,2|0
224,64,50860,2,0,B|233:143|176:200,1,150,2|0
96,260,51360,5,0
92,280,51443,1,0
92,300,51527,1,0
96,320,51610,1,0
100,340,51693,2,0,B|179:349|236:292,1,150,6|8
252,212,52193,2,0,B|308:154|388:164,1,150,2|2
456,212,52693,1,10
440,292,52860,5,0
440,292,52943,1,0
440,292,53027,2,0,B|383:349|303:339,1,150,6|8
236,292,53527,2,0,B|156:282|100:340,1,150,2|2
28,300,54027,1,10
56,220,54193,1,0
56,200,54277,1,0
56,180,54360,1,6
256,40,55027,5,2
256,40,55693,5,4
336,64,55860,1,0
392,124,56027,1,0
408,204,56193,1,0
372,276,56360,1,0
296,312,56527,1,0
296,312,56610,1,0
296,312,56693,2,0,B|260:332|204:340,1,75,8|0
40,248,57027,6,0,B|96:190|176:200,2,150,6|10|2
16,168,57860,1,2
56,96,58027,1,8
132,64,58193,6,0,B|160:144,1,75,2|0
236,120,58527,2,0,B|264:200,1,75,2|8
340,172,58860,2,0,B|368:252,1,75,2|0
444,228,59193,2,0,B|472:308,1,75,2|8
368,344,59527,5,2
368,344,59693,2,0,B|328:348|268:324,1,75,2|0
216,308,60027,1,10
136,324,60193,1,0
60,296,60360,2,0,B|52:260|60:212,1,75,2|0
84,144,60693,1,8
144,88,60860,2,0,B|200:30|280:40,2,150,2|2|2
256,192,61860,5,2
256,192,62027,1,2
76,180,62360,6,0,B|155:189|212:132,1,150,6|8
297,250,62860,2,0,B|356:194|434:202,1,150,2|0
434,202,63360,1,10
256,192,63693,6,0,B|265:112|208:55,1,150,6|8
256,192,64193,2,0,B|248:271|304:328,1,150,2|0
304,328,64693,1,10
256,192,65027,12,0,66027
384,192,66360,5,2
304,244,66527,1,0
208,244,66693,1,0
128,192,66860,1,2
256,44,67193,6,0,B|208:24,2,37.5,2|0|0
316,140,67527,1,2
316,140,67610,1,0
316,140,67693,2,0,B|395:149|452:92,2,150,6|10|2
256,196,68527,1,2
196,140,68693,1,8
116,160,68860,6,0,B|80:172|52:200,1,75,2|0
68,312,69193,2,0,B|104:300|132:272,1,75,2|8
96,144,69527,2,0,B|60:156|32:184,1,75,2|0
88,328,69860,2,0,B|124:316|152:288,1,75,2|8
256,244,70193,5,2
256,244,70360,1,0
340,316,70527,1,2
340,316,70693,1,8
444,272,70860,1,2
444,272,71027,2,0,B|453:192|396:135,1,150,2|8
452,72,71527,6,0,B|395:129|315:119,1,150,2|2
256,64,72027,1,8
256,64,72193,2,0,B|176:54|119:111,1,150,2|2
68,176,72693,1,8
120,240,72860,5,0
120,240,72943,1,0
120,240,73027,2,0,B|199:249|256:192,1,150,6|8
392,144,73527,2,0,B|312:134|256:192,1,150,2|0
256,192,74027,1,10
372,308,74360,6,0,B|292:317|235:260,1,150,6|8
139,76,74860,2,0,B|219:66|276:123,1,150,2|0
276,123,75360,1,10
256,192,75693,12,0,76693
332,192,77027,6,0,B|268:216|244:168|184:192,1,150,2|0
144,120,77527,1,2
368,120,77860,1,0
368,120,78027,1,8
328,308,78360,6,0,B|256:344|183:310,1,150,2|2
168,84,79026,1,2
256,64,79193,1,0
344,84,79360,1,2
344,228,79693,6,0,B|310:216|278:192,1,75,2|2
168,228,80026,2,0,B|201:216|233:192,1,75,0|2
256,64,80526,5,2
256,64,80693,1,2
256,288,81026,5,4
164,48,89026,6,0,B|136:152,1,75
232,120,89360,2,0,B|204:224,1,75
300,192,89693,2,0,B|280:264,1,75
367,263,90026,2,0,B|348:336,1,75
452,216,90360,6,0,B|468:180|472:132,1,75
384,160,90693,2,0,B|383:120|366:75,1,75
292,128,91026,2,0,B|281:90|253:50,1,75
196,124,91360,2,0,B|170:93|129:69,1,75
40,128,91693,5,4
76,204,91860,1,0
148,244,92026,1,0
228,256,92193,1,0
320,192,92360,5,0
348,192,92443,1,0
376,196,92526,1,0
400,204,92610,1,0
424,216,92693,1,8
179,89,93026,6,0,B|100:73|40:128,1,150,4|0
128,188,93526,1,0
88,284,93693,2,0,B|167:300|227:246,1,150,2|0
256,144,94193,2,0,B|308:120|352:168|416:144,2,150,2|0|2
88,284,95193,5,0
88,284,95360,1,2
312,308,95693,5,0
312,308,95860,2,0,B|360:348|408:276|468:332,1,150,2|0
464,224,96360,2,0,B|416:178|368:250|320:210,1,150,2|0
300,116,96860,2,0,B|360:61|439:77,2,150,2|0|2
312,308,97860,5,8
312,308,98026,1,2
88,120,98360,5,4
88,120,98526,2,0,B|167:136|227:82,1,150,0|0
256,176,99026,2,0,B|316:121|395:137,1,150,2|0
484,180,99526,6,0,B|423:234|344:218,1,150,2|0
87,121,100193,2,0,B|148:68|227:83,1,150,2|0
227,83,100693,1,2
256,312,101026,6,0,B|215:297|195:265,1,75,2|0
256,192,101360,2,0,B|296:206|316:238,1,75
352,328,101693,1,2
160,328,102026,5,0
160,328,102193,1,4
256,192,102360,12,0,103360
96,64,103693,6,0,B|72:168,1,75,6|0
160,148,104026,2,0,B|136:252,1,75,8|0
156,304,104360,2,0,B|235:319|295:265,1,150,2|8
328,188,104860,6,0,B|388:133|467:149,1,150,2|2
436,40,105360,1,8
436,40,105526,2,0,B|376:94|297:78,1,150,2|2
297,78,106026,1,10
36,192,106360,6,0,B|96:137|175:153,1,150,2|8
124,240,106860,1,0
124,240,107026,2,0,B|203:255|263:201,1,150,2|8
384,136,107526,6,0,B|380:56,1,75,2|0
308,104,107860,2,0,B|276:32,1,75,2|8
224,96,108193,2,0,B|156:68,1,75,2|0
32,128,108526,1,8
32,128,108610,1,0
32,128,108693,2,0,B|101:156,1,75,10|0
156,280,109026,6,0,B|124:260|86:251,2,75,6|0|8
232,312,109526,1,0
296,260,109693,2,0,B|375:275|435:221,1,150,2|8
456,144,110193,6,0,B|444:104|416:68,1,75,2|0
364,136,110526,2,0,B|324:136|292:120,1,75,2|8
220,160,110860,2,0,B|187:143|147:143,1,75,2|0
80,192,111193,1,0
80,192,111360,1,10
180,320,111693,6,0,B|216:324|256:304,1,75,2|0
328,340,112026,2,0,B|352:312|363:273,1,75,8|0
360,192,112360,1,2
152,192,112693,5,0
152,192,112860,1,6
256,192,113026,12,0,114026
80,156,114360,6,0,B|140:102|219:117,1,150,6|8
256,192,114860,1,0
292,266,115026,2,0,B|371:281|432:228,1,150,2|8
424,144,115526,1,0
384,72,115693,6,0,B|305:56|244:110,1,150,2|8
256,192,116193,2,0,B|195:245|116:230,1,150,2|0
128,148,116693,1,8
91,41,116860,5,0
91,41,116943,1,0
92,40,117026,2,0,B|38:101|53:179,1,150,6|8
48,264,117526,1,0
128,292,117693,2,0,B|206:276|267:330,1,150,2|8
384,92,118360,6,0,B|305:107|244:53,1,150,2|8
188,116,118860,2,0,B|127:62|48:77,1,150,2|0
8,148,119360,1,8
88,228,119526,5,0
88,228,119610,1,0
88,228,119693,2,0,B|64:260|24:276,2,75,6|0|8
164,260,120193,2,0,B|224:313|303:298,1,150,2|2
384,276,120693,1,10
412,168,120860,5,0
412,168,120943,1,0
412,168,121026,2,0,B|444:156|486:157,2,75,6|0|8
332,192,121526,2,0,B|271:138|192:153,1,150,2|2
132,96,122026,1,10
64,140,122193,1,0
52,164,122276,1,0
40,188,122360,1,6
304,292,123026,5,2
36,220,123693,5,4
72,292,123860,1,0
144,336,124026,1,0
228,328,124193,1,0
304,292,124360,1,0
360,232,124526,1,0
360,232,124610,1,0
360,232,124693,2,0,B|396:229|446:197,1,75,8|0
268,112,125026,6,0,B|324:54|404:64,2,150,6|10|2
224,184,125860,1,2
224,184,126026,1,8
168,124,126193,6,0,B|204:56,1,75,2|0
268,112,126526,2,0,B|344:88,1,75,2|8
336,172,126860,2,0,B|416:192,1,75,2|0
360,256,127193,2,0,B|404:320,1,75,2|8
292,340,127526,5,2
292,340,127693,1,2
208,264,127860,1,0
208,264,128026,1,10
100,296,128193,1,0
100,296,128360,2,0,B|46:235|61:156,1,150,2|8
152,88,128860,2,0,B|91:34|12:49,2,150,2|2|2
360,88,129860,5,2
360,88,130026,1,2
312,288,130360,6,0,B|233:303|172:249,1,150,6|8
200,96,130860,2,0,B|278:80|339:134,1,150,2|0
256,192,131360,1,10
44,144,131693,6,0,B|122:128|183:182,1,150,6|8
328,201,132193,2,0,B|389:255|467:240,1,150,2|0
467,240,132693,1,10
332,304,133026,6,0,B|308:332|252:356,1,75,2|0
256,264,133360,2,0,B|224:284|172:292,1,75,8|0
196,208,133693,2,0,B|160:216|96:212,1,75
148,136,134026,2,0,B|108:132|76:120,1,75,8|0
28,224,134360,5,2
28,224,134526,1,0
108,304,134693,1,0
108,304,134860,1,2
240,64,135193,6,0,B|180:80,2,37.5,2|0|0
320,120,135526,1,2
320,120,135610,1,0
320,120,135693,2,0,B|398:135|459:81,2,150,6|10|2
276,188,136526,1,2
200,220,136693,1,8
128,180,136860,6,0,B|92:164|64:124,1,75,2|0
144,56,137193,2,0,B|180:72|208:112,1,75,2|8
310,103,137526,2,0,B|332:72|368:56,1,75,2|0
441,132,137860,2,0,B|420:164|384:180,1,75,2|8
376,264,138193,5,2
309,215,138360,1,0
298,295,138526,1,2
232,247,138693,1,8
220,330,138860,1,0
220,330,138943,1,0
220,330,139026,2,0,B|180:334|140:314,1,75,2|0
92,208,139360,5,10
92,208,139526,2,0,B|171:193|232:247,1,150,2|2
256,128,140026,1,8
256,128,140193,2,0,B|316:181|308:264,1,150,2|2
388,316,140693,1,8
468,256,140860,5,0
468,256,140943,1,0
468,256,141026,2,0,B|407:202|414:122,1,150,6|8
333,69,141526,2,0,B|280:130|199:123,1,150,2|0
199,123,142026,1,10
311,259,142360,6,0,B|231:253|178:313,1,150,2|8
97,261,142860,2,0,B|104:181|43:127,1,150,2|0
43,127,143360,1,10
256,192,143693,12,0,144693
340,72,145026,5,2
172,72,145360,1,0
172,72,145526,1,2
328,192,146026,2,0,B|276:168|232:224|180:192,1,150,8|4
60,308,146693,5,2
132,340,147026,1,2
204,304,147360,1,0
204,304,147526,2,0,B|256:280|315:290,2,112.499996647239,2|0|2
132,152,148526,1,0
132,152,148693,2,0,B|108:100|119:40,1,112.499996647239,2|0
112,248,149360,6,0,B|164:224|223:234,1,112.499996647239,2|2
400,136,150026,1,0
400,136,150193,2,0,B|348:160|288:149,1,112.499996647239,2|0
88,112,150860,2,0,B|139:88|197:98,2,112.499996647239,2|0|0
60,140,151693,1,0
72,320,152026,5,2
136,272,152360,2,0,B|192:264|260:304,1,112.499996647239,2|0
276,272,152860,1,2
267,88,153193,2,0,B|320:120|376:112,2,112.499996647239,0|2|2
104,192,154193,1,2
104,192,154360,1,0
296,232,154693,6,0,B|324:280|320:360,1,112.499996647239,2|2
216,152,155360,1,2
216,152,155526,2,0,B|188:104|192:24,1,112.499996647239,2|2
80,264,156193,2,0,B|124:228|188:228,1,112.499996647239,2|0
216,152,156693,5,2
320,196,156860,1,0
388,108,157026,1,4
408,304,157360,6,0,B|360:336|288:332,1,112.499996647239,2|2
112,304,158027,1,2
112,304,158193,1,0
160,120,158527,2,0,B|112:88|40:92,2,112.499996647239,2|0|2
348,84,159527,1,2
348,84,159693,1,0
308,280,160027,6,0,B|256:312|192:304,1,112.499996647239,2|2
80,156,160693,1,0
80,156,160860,2,0,B|132:124|196:132,2,112.499996647239,2|0|2
220,288,161860,1,2
220,288,162027,1,0
308,328,162193,5,0
308,328,162277,1,0
308,328,162360,2,0,B|361:267|346:188,1,150,6|8
284,136,162860,2,0,B|262:64,1,75,2|0
196,116,163193,2,0,B|156:112|124:96,1,75,2|10
68,192,163527,5,0
68,192,163610,1,0
68,192,163693,2,0,B|146:176|207:230,1,150,6|8
272,280,164193,2,0,B|308:268|352:228,1,75,2|0
372,316,164527,2,0,B|404:296|444:288,1,75,2|10
492,220,164860,1,0
492,192,164943,1,0
492,164,165027,1,6
256,192,165693,5,2
28,232,166360,5,0
64,156,166527,1,0
136,116,166693,1,0
216,144,166860,1,0
296,156,167027,1,0
372,124,167193,1,0
452,108,167360,2,0,B|476:148,4,37.5,8|0|0|0|4
