osu file format v9

[General]
AudioFilename: 11.mp3
AudioLeadIn: 2000
PreviewTime: 56378
Countdown: 0
SampleSet: Soft
StackLeniency: 0.7
Mode: 0
LetterboxInBreaks: 1

[Editor]
Bookmarks: 47711
DistanceSpacing: 0.6
BeatDivisor: 4
GridSize: 4

[Metadata]
Title:Tobidase! Sweet Sweet Magic*
Artist:Nanahira
Creator:cRyo[iceeicee]
Version:Easy
Source:
Tags:C80 poyahchio KayeSara

[Difficulty]
HPDrainRate:1
CircleSize:3
OverallDifficulty:1
ApproachRate:1
SliderMultiplier:1
SliderTickRate:2

[Events]
//Background and Video events
0,0,"BG.jpg"
//Break Periods
2,81226,87346
//Storyboard Layer 0 (Background)
//Storyboard Layer 1 (Fail)
//Storyboard Layer 2 (Pass)
//Storyboard Layer 3 (Foreground)
//Storyboard Sound Samples
//Background Colour Transformations
3,100,163,162,255

[TimingPoints]
1027,333.333333333333,4,2,1,65,1,0
11611,-100,4,1,0,45,0,0
12610,-100,4,1,1,55,0,0
12861,-100,4,1,2,55,0,0
24610,-100,4,1,1,55,0,0
24861,-100,4,2,2,65,0,0
29777,-100,4,1,0,55,0,0
30111,-100,4,2,1,65,0,0
34111,-100,4,1,2,55,0,0
46444,-100,4,2,0,65,0,0
51277,-100,4,1,2,55,0,0
56526,-100,4,1,1,55,0,0
56776,-100,4,1,2,55,0,0
92610,-100,4,1,1,55,0,0
92861,-100,4,2,1,65,0,0
97777,-100,4,1,0,55,0,0
98111,-100,4,2,1,65,0,0
100860,-100,4,1,2,55,0,0
146526,-100,4,2,1,65,0,0
162360,-100,4,1,2,55,0,0

[Colours]
Combo1 : 255,62,255
Combo2 : 0,255,255
Combo3 : 157,0,79
Combo4 : 0,165,244

[HitObjects]
160,112,1027,2,0,B|256:60|352:112,2,200,2|0|2
256,192,3026,1,0
160,272,3693,6,0,B|256:324|352:272,2,200,2|0|2
68,192,5693,1,0
108,80,6360,6,0,B|193:123|289:27|289:27|373:83,1,300,2|0
396,136,7693,2,0,B|372:234|372:234|237:229|181:363,1,300,2|0
256,192,9026,12,4,11693
144,108,12360,5,0
204,112,12693,1,8
256,148,13027,6,0,B|348:216|440:148,1,200,6|8
460,268,14360,2,0,B|347:247|294:348,1,200,2|8
254,237,15693,6,0,B|184:300|96:256|96:256|72:274,1,200,2|8
64,156,17027,2,0,B|144:74|246:126,1,200,2|8
288,240,18360,6,0,B|345:213|377:269|433:241,2,150,6|0|8
224,240,19693,2,0,B|166:213|134:269|78:241,2,150,6|0|8
256,192,21026,12,4,23693
184,88,24360,5,0
240,104,24693,1,8
256,164,25026,6,0,B|200:232|300:284|256:352,2,200,4|0|2
360,104,27026,1,0
468,156,27693,6,0,B|464:270|354:301,2,200,2|0|2
368,92,29693,2,0,B|324:68|272:72,1,100,0|2
256,128,30360,6,0,B|175:209|73:157,1,200,2|0
60,276,31693,2,0,B|170:245|232:344,1,200,2|0
340,284,33026,5,4
256,192,33693,2,0,B|236:132|284:100|256:44,1,150,4|4
256,192,34360,12,6,35693
100,76,36360,5,2
76,192,37026,2,0,B|138:288|252:256,1,200,8|8
364,284,38360,5,2
440,192,39026,1,2
380,88,39693,2,0,B|336:116|228:52|228:52|168:68,1,200,8|8
88,128,41027,5,2
88,256,41693,1,2
196,312,42360,2,0,B|248:276|248:276|324:312|396:264,1,200,8|8
312,172,43693,5,2
256,68,44360,1,2
196,68,44693,2,0,B|132:68,1,50,0|2
256,192,45027,12,4,46360
100,96,47027,5,2
40,200,47693,2,0,B|150:231|212:134,1,200,0|2
256,248,49027,6,0,B|318:151|428:182,1,200,4|2
372,288,50360,2,0,B|310:385|200:354,1,200,0|2
112,272,51693,5,2
84,156,52360,1,8
176,76,53027,1,2
296,64,53693,1,8
347,176,54360,6,0,B|256:245|164:176,2,200,6|2|6
220,48,56693,2,0,B|172:44|108:56,1,100,8|6
12,108,57693,5,2
96,192,58360,2,0,B|144:200|144:200|204:284|308:252,1,200,8|8
336,156,59693,6,0,B|273:59|163:90,2,200,2|2|8
432,228,61693,1,8
364,328,62360,6,0,B|298:318|298:318|245:235|155:261|155:261|73:205,1,300,6|8
99,160,63693,2,0,B|155:123|155:123|245:149|298:66|298:66|364:56,1,300,6|8
256,192,65027,12,6,66360
400,100,67693,6,0,B|469:191|402:284,1,200,6|2
300,344,69027,1,8
208,264,69693,1,8
88,276,70360,6,0,B|124:256|124:256|128:204|180:164|248:184,1,200,2|2
356,224,71693,2,0,B|400:256|460:244,2,100,8|0|8
256,140,73027,6,0,B|204:164|204:164|212:232|152:304|56:264|44:208,1,300,6|8
24,156,74360,2,0,B|-1:104|47:12|139:31|176:88|176:88|228:64,1,300,6|8
256,192,75693,12,2,78360
160,76,79026,5,2
184,192,79693,2,0,B|256:232|328:192,1,150,2|2
404,240,80693,2,0,B|404:352,1,100,2|4
256,192,89026,12,4,91693
364,96,92360,5,0
304,96,92693,1,8
256,132,93026,6,0,B|170:209|72:150,1,200,4|2
60,272,94360,2,0,B|167:233|236:328,1,200,0|2
352,292,95693,5,0
420,192,96360,1,2
352,92,97026,1,0
288,192,97693,2,0,B|256:296,1,100,2|2
216,332,98360,6,0,B|108:370|39:278,1,200,4|2
148,228,99693,1,0
256,192,100360,1,2
256,192,100860,12,6,103693
116,80,104360,5,2
52,184,105026,2,0,B|159:222|228:130,1,200,8|8
332,192,106360,5,2
256,284,107026,1,2
180,192,107693,1,8
256,100,108360,2,8,B|216:68|152:64,1,100,8|2
112,100,109026,6,0,B|42:190|108:284,1,200,6|2
212,340,110360,1,8
300,260,111026,1,8
212,176,111693,5,2
300,96,112360,2,0,B|376:60|456:136,1,150,2|6
256,192,113026,12,4,114360
408,76,115026,5,2
380,192,115693,2,0,B|420:228|496:224,2,100,2|8|2
332,80,117026,6,0,B|304:112|304:112|212:88|140:160,1,200,2|8
128,260,118360,2,0,B|88:296|24:292,2,100,2|8|2
224,188,119693,6,0,B|338:183|376:296,1,200,2|8
472,220,121026,2,0,B|370:166|391:53,1,200,2|8
272,72,122360,5,6
256,192,123026,1,2
256,192,123693,12,6,125026
432,80,125693,5,2
388,192,126360,2,0,B|416:240|488:264,2,100,8|0|8
316,96,127693,5,2
196,96,128360,1,2
124,192,129026,2,0,B|96:240|24:264,2,100,8|0|8
144,76,130360,6,0,B|220:180|345:59|437:182,1,300,2|8
418,222,131693,2,0,B|345:324|220:203|144:308,1,300,2|8
256,192,133026,12,2,134360
32,260,135693,6,0,B|140:294|208:200,1,200,6|2
256,92,137026,1,8
324,192,137693,1,8
256,292,138360,6,0,B|212:320|160:320,2,100,2|0|2
188,192,139693,1,8
256,92,140360,1,8
368,136,141026,6,0,B|292:188|292:188|144:144|104:276,1,300,6|8
132,308,142360,2,0,B|210:382|315:268|315:268|406:273,1,300,6|8
256,192,143693,12,2,145026
376,152,146360,5,4
484,200,147026,2,0,B|418:294|309:259,1,200,2|0
196,216,148360,2,0,B|152:244|136:300,2,100,2|0|0
192,96,149693,5,2
320,96,150360,1,0
256,192,151026,2,0,B|240:224|268:256|256:292,2,100,2|0|0
192,96,152360,5,2
104,176,153026,1,0
40,280,153693,2,0,B|148:314|216:220,1,200,2|0
324,268,155026,5,2
264,164,155693,2,0,B|372:129|440:224,2,200,0|2|4
176,84,157693,5,2
124,192,158360,2,0,B|72:184|28:116,2,100,0|0|2
176,300,159693,1,0
296,320,160360,6,0,B|400:308|400:200|400:200|442:183,1,200,2|0
460,76,161693,1,2
344,40,162360,6,0,B|289:15|233:26|196:70|180:125|202:177|257:211,1,300,6|8
296,248,163693,2,0,B|294:307|259:353|204:367|148:357|110:314|104:254,1,300,6|8
108,196,165027,2,0,B|195:93|307:205,2,200,6|2|2
256,192,166527,12,4,167693
