osu file format v12

[General]
AudioFilename: Nanahira.mp3
AudioLeadIn: 1000
PreviewTime: 52953
Countdown: 0
SampleSet: Normal
StackLeniency: 0.5
Mode: 0
LetterboxInBreaks: 0

[Editor]
DistanceSpacing: 0.8
BeatDivisor: 4
GridSize: 4

[Metadata]
Title:Shikinkyori * Lover
TitleUnicode:シキンキョリ❤Lover
Artist:Nanahira
ArtistUnicode:ななひら
Creator:Snowy Dream
Version:Insane
Source:
Tags:ReySHeL cRyo[iceeicee]
BeatmapID:205531
BeatmapSetID:71801

[Difficulty]
HPDrainRate:7
CircleSize:4
OverallDifficulty:7
ApproachRate:8
SliderMultiplier:1.6
SliderTickRate:2

[Events]
//Background and Video events
0,0,"BG.jpg",0,0
//Break Periods
//Storyboard Layer 0 (Background)
//Storyboard Layer 1 (Fail)
//Storyboard Layer 2 (Pass)
//Storyboard Layer 3 (Foreground)
//Storyboard Sound Samples
//Background Colour Transformations
3,100,163,162,255

[TimingPoints]
1730,333.333333333333,4,1,1,70,1,0
22313,-100,4,2,1,70,0,0
23146,-100,4,1,1,70,0,0
33063,400,4,1,1,70,1,0
33463,441.176470588235,4,1,1,70,1,0
33904,352.941176470588,3,2,1,80,1,0
44492,379.746835443038,4,2,1,70,1,0
44871,394.736842105263,4,2,1,70,1,0
45266,428.571428571429,4,2,1,70,1,0
45694,413.793103448276,4,2,1,70,1,0
47866,-100,4,2,1,30,0,0
48165,333.333333333333,4,1,1,70,1,0
53498,-100,4,1,1,70,0,1
74831,-100,4,1,1,70,0,0
106164,400,4,1,1,70,1,0
106564,441.176470588235,4,1,1,70,1,0
107005,352.941176470588,3,2,1,70,1,0
117593,379.746835443038,4,2,1,70,1,0
117972,394.736842105263,4,2,1,70,1,0
118366,428.571428571429,4,2,1,70,1,0
118794,413.793103448276,4,2,1,70,1,0
120966,-100,4,2,1,30,0,0
121282,333.333333333333,4,1,1,70,1,0
126615,-100,4,1,1,70,0,1
147948,-100,4,1,1,70,0,0
158531,-133.333333333333,4,1,1,70,0,0
158698,-133.333333333333,4,1,1,20,0,0
159531,-133.333333333333,4,1,1,70,0,0
160615,-100,4,1,2,100,0,0
161281,-100,4,1,1,70,0,1
179948,-100,4,1,1,70,0,0

[Colours]
Combo1 : 237,89,18
Combo2 : 233,63,131
Combo3 : 30,109,242
Combo4 : 22,218,115

[HitObjects]
152,88,1730,1,0,0:0:0:0:
152,88,1896,1,0,0:0:0:0:
152,88,2063,1,8,0:0:0:0:
360,296,2396,1,0,0:0:0:0:
360,296,2563,1,0,0:0:0:0:
360,296,2729,1,8,0:0:0:0:
400,368,2896,6,0,P|440:296|404:232,1,160,2|0,0:2|0:0,0:0:0:0:
312,144,3396,2,0,P|308:184|324:224,1,80,8|0,0:0|0:0,0:0:0:0:
216,240,3729,2,0,P|241:271|281:288,2,80,0|0|8,0:0|0:0|0:0,0:0:0:0:
360,88,4396,5,0,0:0:0:0:
360,88,4563,1,0,0:0:0:0:
360,88,4729,1,8,0:0:0:0:
152,296,5063,1,0,0:0:0:0:
152,296,5229,1,0,0:0:0:0:
152,296,5396,1,8,0:0:0:0:
112,364,5563,6,0,P|72:292|108:228,1,160,2|0,0:2|0:0,0:0:0:0:
176,128,6063,2,0,P|216:132|252:152,1,80,8|0,0:0|0:0,0:0:0:0:
316,256,6396,2,0,P|360:252|396:232,1,80
448,180,6729,1,8,0:0:0:0:
448,180,6896,1,0,0:0:0:0:
352,348,7063,5,0,0:0:0:0:
276,324,7229,1,0,0:0:0:0:
224,264,7396,2,0,P|196:184|216:108,1,160,8|0,0:0|0:0,0:0:0:0:
288,84,7896,1,0,0:0:0:0:
288,84,8063,1,8,0:0:0:0:
272,164,8229,6,0,P|192:192|116:172,1,160,2|0,0:2|0:0,0:0:0:0:
56,124,8729,2,0,P|20:144|0:176,1,80,8|0,0:0|0:0,0:0:0:0:
24,296,9063,2,0,P|60:276|80:244,1,80
136,64,9396,2,0,P|172:84|192:116,1,80,8|0,0:0|0:0,0:0:0:0:
272,308,9729,6,0,P|352:288|400:224,1,160,4|0,0:0|0:0,0:0:0:0:
376,76,10229,2,0,P|316:133|307:212,1,160,4|0,0:0|0:0,0:0:0:0:
232,236,10729,1,0,0:0:0:0:
24,168,10896,2,0,P|103:188|151:252,1,160,4|0,0:0|0:0,0:0:0:0:
232,236,11396,1,0,0:0:0:0:
216,156,11563,1,0,0:0:0:0:
216,156,11646,1,0,0:0:0:0:
216,156,11730,1,4,2:0:0:0:
216,156,11896,1,4,2:0:0:0:
216,156,12396,6,0,P|256:88|332:76,1,160,4|8,0:0|0:0,0:0:0:0:
300,152,12896,1,0,0:0:0:0:
260,220,13063,2,0,P|264:260|280:296,2,80,0|0|8,0:0|0:0|0:0,0:0:0:0:
300,152,13563,1,0,0:0:0:0:
414,72,13730,6,0,P|374:140|298:152,1,160,2|8,0:2|0:0,0:0:0:0:
216,156,14230,2,0,P|256:88|332:76,1,160
472,168,14730,2,0,P|460:207|429:236,1,80,8|0,0:0|0:0,0:0:0:0:
356,260,15063,6,0,P|276:240|196:264,1,160,2|8,0:2|0:0,0:0:0:0:
132,296,15563,2,0,P|88:228|84:148,1,160
124,80,16063,1,8,0:0:0:0:
264,64,16230,6,0,P|236:92|196:108,2,80,0|2|0,0:0|0:2|0:0,0:0:0:0:
344,64,16730,2,0,P|372:92|412:108,1,80,8|0,0:0|0:0,0:0:0:0:
488,92,17063,1,0,0:0:0:0:
488,92,17230,1,0,0:0:0:0:
488,92,17396,1,8,0:0:0:0:
448,232,17563,5,0,0:0:0:0:
448,232,17646,1,0,0:0:0:0:
448,232,17730,2,0,P|408:232|368:244,1,80,2|0,0:2|0:0,0:0:0:0:
304,332,18063,2,0,P|264:328|228:308,1,80,8|0,0:0|0:0,0:0:0:0:
200,192,18396,1,0,0:0:0:0:
200,192,18563,1,0,0:0:0:0:
200,192,18730,1,8,0:0:0:0:
80,160,18896,5,0,0:0:0:0:
80,160,18980,1,0,0:0:0:0:
80,160,19063,2,0,P|64:196|64:240,1,80,2|0,0:2|0:0,0:0:0:0:
196,344,19396,2,0,P|212:308|212:264,1,80,8|0,0:0|0:0,0:0:0:0:
184,112,19729,1,0,0:0:0:0:
184,112,19896,1,0,0:0:0:0:
184,112,20063,1,8,0:0:0:0:
368,44,20229,6,0,P|332:120|260:144,1,160
104,116,20729,2,0,P|76:148|64:188,1,80,8|0,0:0|0:0,0:0:0:0:
72,264,21063,1,0,0:0:0:0:
72,264,21229,1,0,0:0:0:0:
420,312,21563,6,0,P|384:240|312:212,1,160,4|0,0:0|0:0,0:0:0:0:
236,192,22063,1,8,0:0:0:0:
236,192,22229,1,0,0:0:0:0:
200,276,22396,5,2,0:0:0:0:
168,252,22479,1,0,0:0:0:0:
148,216,22563,1,0,0:0:0:0:
148,176,22646,1,0,0:0:0:0:
160,140,22729,1,2,1:2:0:0:
188,112,22813,1,0,1:0:0:0:
224,100,22896,1,0,1:0:0:0:
264,104,22979,1,0,1:0:0:0:
300,124,23063,1,4,0:0:0:0:
492,224,23396,6,0,P|416:256|340:236,1,160,8|0,0:0|0:0,0:0:0:0:
272,204,23896,1,0,0:0:0:0:
192,208,24063,2,0,P|152:216|116:236,1,80,8|0,0:0|0:0,0:0:0:0:
48,276,24396,2,0,P|20:196|44:124,1,160,2|8,0:2|0:0,0:0:0:0:
108,84,24896,2,0,P|184:104|264:80,1,160
336,52,25396,1,8,0:0:0:0:
412,80,25563,1,0,0:0:0:0:
416,160,25729,6,0,P|416:236|368:304,1,160,2|8,0:2|0:0,0:0:0:0:
220,360,26229,2,0,P|220:284|268:216,1,160
332,168,26729,1,8,0:0:0:0:
260,136,26896,2,0,P|224:116|184:108,1,80,0|2,0:0|0:2,0:0:0:0:
108,108,27229,1,0,0:0:0:0:
80,260,27396,2,0,P|72:220|76:180,1,80,8|0,0:0|0:0,0:0:0:0:
108,108,27729,1,0,0:0:0:0:
332,320,28063,5,8,0:0:0:0:
396,272,28229,1,0,0:0:0:0:
424,200,28396,2,0,P|428:156|420:120,1,80,2|0,0:2|0:0,0:0:0:0:
372,56,28729,1,8,0:0:0:0:
372,56,28896,2,0,P|292:36|216:56,1,160
136,144,29396,1,8,0:0:0:0:
176,260,29563,2,0,P|248:224|288:156,1,160
218,55,30063,1,8,0:0:0:0:
96,52,30229,2,0,P|24:88|-12:160,1,160
104,320,30729,5,8,0:0:0:0:
100,200,30896,1,0,0:0:0:0:
220,184,31063,2,0,P|296:220|312:296,1,160,2|8,0:2|0:0,0:0:0:0:
224,276,31563,1,0,0:0:0:0:
224,276,31729,2,0,L|344:168,1,160
404,116,32229,1,0,0:0:0:0:
436,332,32729,5,0,0:0:0:0:
360,204,33063,5,0,0:0:0:0:
252,108,33463,5,0,0:0:0:0:
72,156,33904,6,0,P|56:236|88:312,1,160,4|2,2:0|0:0,0:0:0:0:
160,332,34433,1,0,0:0:0:0:
240,320,34609,1,0,0:0:0:0:
308,276,34786,1,0,0:0:0:0:
332,200,34962,2,0,P|324:116|276:60,2,160,2|2|2,0:0|0:0|0:0,0:0:0:0:
252,216,35845,5,0,0:0:0:0:
188,168,36021,2,0,P|108:148|28:168,2,160,2|0|0,0:0|0:0|0:0,0:0:0:0:
252,216,36904,1,0,0:0:0:0:
304,276,37080,2,0,P|364:328|444:340,2,160,2|0|0,0:0|0:0|0:0,0:0:0:0:
400,132,37962,5,0,0:0:0:0:
400,132,38139,2,0,P|320:144|252:108,1,160,4|0,2:0|0:0,0:0:0:0:
96,84,38845,1,0,0:0:0:0:
64,304,39021,1,0,0:0:0:0:
64,304,39198,2,0,P|36:224|52:144,1,160,2|0,0:0|0:0,0:0:0:0:
288,48,39904,1,2,0:0:0:0:
320,120,40080,1,0,0:0:0:0:
316,200,40256,6,0,P|288:276|224:332,2,160,4|0|0,2:0|0:0|0:0,0:0:0:0:
156,212,41315,1,2,0:0:0:0:
156,212,41668,1,0,0:0:0:0:
168,132,41845,1,0,0:0:0:0:
220,72,42021,1,2,0:0:0:0:
292,36,42198,1,0,0:0:0:0:
372,36,42374,6,0,P|448:72|492:132,1,160,4|0,2:0|0:0,0:0:0:0:
372,300,42904,1,0,0:0:0:0:
372,300,43080,2,0,P|360:216|388:144,2,160,2|0|0,0:0|0:0|0:0,0:0:0:0:
444,336,43962,1,0,0:0:0:0:
444,336,44139,1,2,0:0:0:0:
209,323,44492,5,4,0:0:0:0:
146,90,44871,5,0,0:0:0:0:
379,28,45266,5,0,0:0:0:0:
440,260,45694,5,4,0:0:0:0:
256,192,45797,12,0,47969,0:0:0:0:
392,192,48165,5,4,2:0:0:0:
145,272,48498,1,0,0:0:0:0:
145,272,48665,1,4,2:0:0:0:
298,62,48998,1,0,0:0:0:0:
298,321,49331,1,4,2:0:0:0:
145,111,49665,1,4,2:0:0:0:
145,111,49831,1,4,2:0:0:0:
256,192,50331,5,0,0:0:0:0:
256,192,50415,1,0,0:0:0:0:
256,192,50498,1,0,0:0:0:0:
316,140,50665,1,0,0:0:0:0:
396,132,50831,2,0,P|428:152|452:188,1,80,0|0,0:0|2:0,2:0:0:0:
408,308,51165,2,0,P|376:288|352:252,1,80,0|0,0:0|2:0,2:0:0:0:
116,132,51498,2,0,P|84:152|60:188,1,80,0|0,0:0|1:0,2:0:0:0:
104,308,51831,2,0,P|136:288|160:252,1,80,0|4,0:0|2:0,2:0:0:0:
256,76,52331,5,0,1:0:0:0:
256,76,52498,1,0,1:0:0:0:
256,344,52831,5,0,2:0:0:0:
256,324,52915,1,0,2:0:0:0:
256,304,52998,1,0,2:0:0:0:
256,284,53081,1,0,2:0:0:0:
256,264,53165,1,8,1:0:0:0:
56,80,53498,6,0,P|60:160|112:224,1,160,4|8,2:0|0:0,0:0:0:0:
184,196,53998,2,0,P|256:168|332:192,1,160
412,180,54498,2,0,P|408:220|380:256,1,80,8|0,0:0|0:0,0:0:0:0:
152,272,54831,6,0,P|136:192|168:120,1,160,2|8,0:2|0:0,0:0:0:0:
228,72,55331,1,0,0:0:0:0:
421,47,55498,2,0,P|416:82|392:118,1,80
324,196,55831,2,0,P|300:160|295:124,1,80,8|0,0:0|0:0,0:0:0:0:
456,176,56165,6,0,P|468:256|432:324,1,160,2|8,0:2|0:0,0:0:0:0:
252,172,56665,2,0,P|315:121|392:118,1,160
332,324,57165,2,0,P|292:312|264:284,1,80,8|0,0:0|0:0,0:0:0:0:
184,228,57498,1,4,2:0:0:0:
56,304,57665,1,0,0:0:0:0:
36,268,57748,1,0,0:0:0:0:
28,228,57831,2,0,P|24:188|32:148,1,80,8|0,0:0|0:0,0:0:0:0:
160,112,58165,2,0,P|188:84|208:44,2,80,4|0|8,2:0|0:0|0:0,0:0:0:0:
72,72,58665,1,0,0:0:0:0:
120,192,58831,6,0,P|177:256|250:280,1,160,4|8,2:0|0:0,0:0:0:0:
324,292,59331,1,0,0:0:0:0:
456,156,59498,2,0,P|464:200|460:244,1,80
292,204,59831,2,0,P|304:164|328:132,1,80,8|0,0:0|0:0,0:0:0:0:
240,48,60165,2,0,P|168:84|88:78,1,160,2|8,0:2|0:0,0:0:0:0:
16,104,60665,1,0,0:0:0:0:
52,256,60831,2,0,P|80:224|92:184,1,80
200,212,61165,2,0,P|200:252|220:296,1,80,8|0,0:0|0:0,0:0:0:0:
440,328,61498,6,0,P|496:272|480:192,1,160,2|8,0:2|0:0,0:0:0:0:
424,248,61998,2,0,P|368:192|356:104,1,160
276,100,62498,2,0,P|252:136|216:156,1,80,8|0,0:0|0:0,0:0:0:0:
112,88,62831,5,4,2:0:0:0:
112,88,62998,1,0,0:0:0:0:
112,252,63165,1,4,2:0:0:0:
112,252,63331,1,0,0:0:0:0:
191,170,63498,1,4,2:0:0:0:
31,170,63665,1,0,0:0:0:0:
31,170,63748,1,0,0:0:0:0:
31,170,63831,2,0,L|112:170,1,80
288,72,64165,6,0,P|348:132|372:212,1,160,4|8,2:0|0:0,0:0:0:0:
224,312,64665,2,0,P|164:252|140:172,1,160
52,92,65165,1,8,0:0:0:0:
128,64,65331,1,0,0:0:0:0:
204,92,65498,2,0,P|284:116|364:84,1,160,2|8,0:2|0:0,0:0:0:0:
428,64,65998,1,0,0:0:0:0:
428,64,66081,1,0,0:0:0:0:
428,64,66165,1,0,0:0:0:0:
504,92,66331,1,0,0:0:0:0:
440,144,66498,2,0,P|428:184|432:224,1,80,8|0,0:0|0:0,0:0:0:0:
340,344,66831,6,0,P|276:296|192:284,1,160,2|8,0:2|0:0,0:0:0:0:
92,348,67331,2,0,P|48:276|48:196,1,160
120,100,67831,2,0,P|152:128|172:172,1,80,8|0,0:0|0:0,0:0:0:0:
328,160,68165,2,0,P|400:124|440:52,1,160,4|8,2:0|0:0,0:0:0:0:
296,72,68665,1,0,0:0:0:0:
296,72,68748,1,0,0:0:0:0:
296,72,68831,2,0,P|256:64|216:72,1,80,4|0,2:0|0:0,0:0:0:0:
216,244,69165,2,0,P|256:252|296:244,1,80,8|0,0:0|0:0,0:0:0:0:
456,164,69498,6,0,P|476:244|444:320,1,160,4|8,2:0|0:0,0:0:0:0:
376,352,69998,1,0,0:0:0:0:
294,244,70165,2,0,P|290:288|302:328,2,80,0|0|8,0:0|0:0|0:0,0:0:0:0:
364,208,70665,1,0,0:0:0:0:
364,208,70748,1,0,0:0:0:0:
364,208,70831,2,0,P|296:168|228:208,1,160,2|8,0:2|0:0,0:0:0:0:
212,280,71331,1,0,0:0:0:0:
48,284,71498,2,0,P|82:265|122:261,1,80
152,188,71831,1,8,0:0:0:0:
152,188,71998,1,0,0:0:0:0:
152,188,72165,6,0,P|128:108|156:36,1,160,2|8,0:2|0:0,0:0:0:0:
232,16,72665,1,0,0:0:0:0:
352,48,72831,2,0,P|372:84|380:124,1,80
284,204,73165,2,0,P|264:168|256:128,1,80,8|0,0:0|0:0,0:0:0:0:
472,196,73498,2,0,P|471:237|458:275,1,80,2|0,0:2|0:0,0:0:0:0:
388,220,73831,1,8,0:0:0:0:
388,220,73998,1,0,0:0:0:0:
192,312,74331,5,0,0:0:0:0:
192,312,74498,1,8,0:0:0:0:
192,312,74664,1,0,0:0:0:0:
104,244,74831,6,0,P|80:212|68:172,2,80,4|0|8,2:0|0:0|0:0,0:0:0:0:
288,100,75498,2,0,P|312:68|323:30,2,80,0|0|8,0:0|0:0|0:0,0:0:0:0:
160,52,75998,1,2,0:2:0:0:
80,244,76331,2,0,P|40:260|0:260,2,80,0|8|0,0:0|0:0|0:0,0:0:0:0:
160,228,76831,2,0,P|200:236|236:256,1,80
288,316,77164,1,8,0:0:0:0:
428,120,77498,6,0,P|460:144|480:184,2,80,0|0|8,0:0|0:0|0:0,0:0:0:0:
84,120,78164,2,0,P|52:144|33:178,2,80,0|0|8,0:0|0:0|0:0,0:0:0:0:
256,44,78664,2,0,B|276:96|236:148|256:208,1,160,2|0,0:2|0:0,0:0:0:0:
332,192,79164,2,0,P|324:240|300:268,1,80,8|0,0:0|0:0,0:0:0:0:
180,192,79498,2,0,P|188:240|212:268,1,80,0|0,0:0|0:0,0:0:0:0:
256,328,79831,1,8,0:0:0:0:
384,76,80164,5,4,2:0:0:0:
428,144,80331,1,0,0:0:0:0:
472,212,80498,1,8,0:0:0:0:
128,308,80831,1,0,0:0:0:0:
84,240,80998,1,0,0:0:0:0:
40,172,81164,1,8,0:0:0:0:
208,124,81331,2,0,L|308:268,1,160,2|0,0:2|0:0,0:0:0:0:
398,253,81831,2,0,L|352:188,1,80,8|0,0:0|0:0,0:0:0:0:
216,280,82164,2,0,L|262:345,1,80
360,340,82498,1,8,0:0:0:0:
260,200,82664,5,0,0:0:0:0:
260,200,82748,1,0,0:0:0:0:
260,200,82831,2,0,P|200:144|116:136,1,160,4|0,0:0|0:0,0:0:0:0:
32,312,83331,2,0,P|110:288|159:219,1,160,4|0,0:0|0:0,0:0:0:0:
44,60,83831,1,0,0:0:0:0:
44,60,83998,2,0,P|25:139|60:216,1,160,4|0,0:0|0:0,0:0:0:0:
132,220,84498,1,0,0:0:0:0:
248,148,84664,1,0,0:0:0:0:
284,168,84748,1,0,0:0:0:0:
312,196,84831,2,0,P|336:228|348:272,1,80,4|4,2:0|2:0,0:0:0:0:
224,244,85498,5,0,0:0:0:0:
140,108,85831,2,0,P|128:68|128:28,2,80,8|0|0,0:0|0:0|0:0,0:0:0:0:
376,52,86498,1,8,0:0:0:0:
412,124,86664,1,0,0:0:0:0:
416,204,86831,2,0,P|372:268|292:304,1,160,2|8,0:2|0:0,0:0:0:0:
304,224,87331,2,0,P|368:268|404:348,1,160,0|0,0:0|2:0,0:0:0:0:
328,372,87831,5,8,0:0:0:0:
248,360,87998,1,0,0:0:0:0:
196,300,88164,2,0,P|204:216|252:160,1,160,2|8,0:2|0:0,0:0:0:0:
372,160,88664,2,0,P|392:80|356:8,2,160
296,180,89498,2,0,P|264:204|240:240,1,80,0|0,1:0|0:0,0:0:0:0:
140,292,89831,2,0,P|132:253|138:213,1,80,8|0,0:0|0:0,0:0:0:0:
32,324,90164,2,0,P|56:355|92:380,2,80,0|0|8,0:0|0:0|0:0,0:0:0:0:
12,248,90664,6,0,P|28:164|76:104,1,160,2|0,0:2|0:0,0:0:0:0:
144,68,91164,1,8,0:0:0:0:
224,60,91331,1,0,0:0:0:0:
352,144,91498,2,0,P|332:108|304:80,1,80
212,184,91831,1,8,0:0:0:0:
148,320,91998,6,0,P|112:244|132:168,1,160,2|0,0:2|0:0,0:0:0:0:
180,112,92498,1,8,0:0:0:0:
256,84,92664,1,0,0:0:0:0:
404,123,92831,2,0,P|376:96|336:84,1,80
304,204,93164,1,8,0:0:0:0:
296,344,93331,6,0,P|232:296|208:220,1,160,2|0,0:2|0:0,0:0:0:0:
204,144,93831,1,8,0:0:0:0:
256,84,93998,1,0,0:0:0:0:
408,76,94164,2,0,P|376:60|332:56,1,80
60,324,94664,6,0,P|32:248|44:168,1,160,4|0,0:0|0:0,0:0:0:0:
136,68,95164,1,0,0:0:0:0:
136,68,95331,1,0,0:0:0:0:
280,100,95498,5,2,2:0:0:0:
256,132,95581,1,0,2:0:0:0:
248,172,95664,1,0,2:0:0:0:
260,212,95748,1,0,2:0:0:0:
292,232,95831,1,2,1:2:0:0:
332,240,95914,1,0,1:0:0:0:
372,228,95998,1,0,1:0:0:0:
412,220,96081,1,0,1:0:0:0:
452,224,96164,1,4,2:0:0:0:
416,36,96498,6,0,P|392:116|328:160,1,160,0|0,0:0|0:0,0:0:0:0:
252,144,96998,2,0,P|212:132|168:136,2,80,0|8|0,0:0|0:0|0:0,0:0:0:0:
232,360,97498,2,0,P|196:288|204:204,1,160,2|8,0:2|0:0,0:0:0:0:
400,120,97998,2,0,P|355:187|278:222,1,160,0|0,0:0|0:0,0:0:0:0:
252,144,98498,1,8,0:0:0:0:
148,116,98664,1,0,0:0:0:0:
20,144,98831,6,0,P|0:220|24:296,1,160,2|8,0:2|0:0,0:0:0:0:
88,344,99331,2,0,B|144:364|196:316|248:324,1,160
320,296,99831,1,8,0:0:0:0:
440,328,99998,2,0,P|480:316|512:292,2,80,0|2|0,0:0|0:2|0:0,0:0:0:0:
436,248,100498,1,8,0:0:0:0:
360,224,100664,1,0,0:0:0:0:
360,224,100831,1,0,0:0:0:0:
56,80,101164,5,8,0:0:0:0:
132,108,101331,1,0,0:0:0:0:
212,96,101498,2,0,P|292:80|372:96,1,160,2|8,0:2|0:0,0:0:0:0:
440,128,101998,1,0,0:0:0:0:
56,304,102331,5,0,0:0:0:0:
132,276,102498,1,8,0:0:0:0:
212,288,102664,2,0,P|292:304|372:288,1,160
440,256,103164,1,8,0:0:0:0:
488,192,103331,1,0,0:0:0:0:
40,192,103664,5,0,0:0:0:0:
40,192,103831,1,8,0:0:0:0:
200,192,103998,1,0,0:0:0:0:
120,192,104164,1,2,0:2:0:0:
391,99,104498,5,8,0:0:0:0:
308,244,104664,1,0,0:0:0:0:
474,148,104831,1,0,0:0:0:0:
391,292,104998,1,0,0:0:0:0:
307,148,105164,1,4,2:0:0:0:
474,244,105331,1,4,2:0:0:0:
80,332,105831,5,0,0:0:0:0:
108,188,106164,5,0,0:0:0:0:
204,76,106564,5,0,0:0:0:0:
204,76,107005,6,0,P|284:56|360:64,1,160,4|2,0:2|0:0,0:0:0:0:
432,96,107534,1,0,0:0:0:0:
472,164,107710,2,0,P|484:204|480:248,1,80
428,304,108063,2,0,B|372:316|320:284|268:304,2,160,2|0|2,0:0|0:0|0:0,0:0:0:0:
508,320,108946,5,0,0:0:0:0:
404,228,109122,2,0,P|348:164|348:88,1,160,2|0,0:0|0:0,0:0:0:0:
420,60,109652,1,0,0:0:0:0:
424,140,109828,2,0,L|276:200,1,160
80,60,110534,1,2,0:0:0:0:
68,296,110887,1,0,0:0:0:0:
224,348,111152,1,0,0:0:0:0:
224,348,111240,6,0,B|268:308|268:308|324:312|352:264,1,160,4|2,0:0|0:0,0:0:0:0:
144,48,111946,1,0,0:0:0:0:
156,232,112122,1,0,0:0:0:0:
156,232,112299,2,0,P|232:180|308:184,1,160,2|0,0:0|0:0,0:0:0:0:
368,220,112828,1,0,0:0:0:0:
444,244,113005,2,0,P|488:176|476:100,1,160,0|4,0:0|0:0,0:0:0:0:
140,60,113710,6,0,P|116:88|100:132,1,80,2|0,0:0|0:0,0:0:0:0:
228,132,114063,2,0,P|256:168|267:200,1,80
244,340,114416,2,0,P|216:312|196:272,1,80,2|0,0:0|0:0,0:0:0:0:
360,248,114769,2,0,P|384:216|396:176,1,80
408,100,115122,1,2,0:0:0:0:
468,48,115299,1,0,0:0:0:0:
360,248,115475,6,0,P|284:272|212:236,1,160,4|0,0:0|0:0,0:0:0:0:
216,160,116005,1,0,0:0:0:0:
216,160,116181,1,2,0:0:0:0:
70,248,116534,2,0,P|146:272|218:236,1,160,2|0,0:0|0:0,0:0:0:0:
216,160,117063,1,0,0:0:0:0:
216,160,117240,1,2,0:0:0:0:
416,352,117593,5,4,0:0:0:0:
416,32,117972,5,0,0:0:0:0:
96,32,118366,5,0,0:0:0:0:
96,352,118794,5,4,2:0:0:0:
256,192,118897,12,0,121069,0:0:0:0:
256,336,121282,5,4,2:0:0:0:
256,336,121448,1,0,0:0:0:0:
256,48,121781,1,4,2:0:0:0:
112,192,122115,1,0,0:0:0:0:
400,192,122448,1,4,2:0:0:0:
256,192,122781,5,4,2:0:0:0:
256,192,122948,1,0,0:0:0:0:
256,192,123115,1,0,0:0:0:0:
100,332,123448,1,0,0:0:0:0:
76,300,123531,1,0,0:0:0:0:
68,260,123615,2,0,P|72:216|92:184,1,80,0|0,0:0|0:0,0:0:0:0:
256,192,123948,6,0,P|296:176|328:144,1,80,0|0,0:0|2:0,0:0:0:0:
376,52,124281,2,0,P|416:56|456:76,1,80,0|0,0:0|2:0,0:0:0:0:
256,192,124615,2,0,P|216:176|184:144,1,80,0|0,0:0|1:0,0:0:0:0:
136,52,124948,2,0,P|96:56|56:76,1,80,0|4,0:0|2:0,0:0:0:0:
256,284,125448,5,0,0:0:0:0:
256,284,125615,1,0,0:0:0:0:
256,16,125948,5,0,2:0:0:0:
256,36,126031,1,0,2:0:0:0:
256,56,126115,1,0,2:0:0:0:
256,76,126198,1,0,2:0:0:0:
256,96,126281,1,4,2:0:0:0:
364,324,126615,6,0,P|436:284|460:208,1,160,4|8,2:0|0:0,0:0:0:0:
344,208,127115,2,0,P|268:176|196:208,1,160
268,296,127615,1,8,0:0:0:0:
200,340,127781,1,0,0:0:0:0:
124,312,127948,2,0,P|72:252|76:168,1,160,2|8,0:2|0:0,0:0:0:0:
124,112,128448,1,0,0:0:0:0:
204,96,128615,1,0,0:0:0:0:
348,76,128781,1,0,0:0:0:0:
336,104,128865,1,0,0:0:0:0:
324,132,128948,1,8,0:0:0:0:
464,184,129115,1,0,0:0:0:0:
432,324,129281,6,0,P|360:280|336:208,1,160,2|8,0:2|0:0,0:0:0:0:
80,324,129781,2,0,P|152:280|176:208,1,160
176,132,130281,1,8,0:0:0:0:
176,132,130448,1,0,0:0:0:0:
176,212,130615,6,0,P|199:280|271:324,1,160,4|8,2:0|0:0,0:0:0:0:
340,280,131115,1,0,0:0:0:0:
352,320,131198,1,0,0:0:0:0:
348,360,131281,1,4,2:0:0:0:
272,232,131448,1,0,0:0:0:0:
328,176,131615,1,8,0:0:0:0:
408,156,131781,1,0,0:0:0:0:
488,160,131948,6,0,P|444:232|376:232,1,160,4|8,2:0|0:0,0:0:0:0:
244,152,132448,2,0,P|192:88|124:100,1,160
44,116,132948,2,0,P|96:180|164:168,1,160,8|2,0:0|0:2,0:0:0:0:
224,236,133448,1,0,0:0:0:0:
224,236,133531,1,0,0:0:0:0:
224,236,133615,1,8,0:0:0:0:
196,312,133781,2,0,P|280:296|308:234,1,160
340,156,134281,6,0,P|380:148|428:156,1,80,8|0,0:0|0:0,0:0:0:0:
476,344,134615,2,0,P|408:296|388:216,1,160,2|8,0:2|0:0,0:0:0:0:
332,56,135115,2,0,P|264:104|244:184,1,160
248,256,135615,1,8,0:0:0:0:
248,256,135781,1,0,2:0:0:0:
112,348,135948,5,4,2:0:0:0:
100,324,136032,1,0,2:0:0:0:
88,300,136115,1,0,2:0:0:0:
76,276,136198,1,0,2:0:0:0:
88,244,136282,5,4,2:0:0:0:
76,220,136365,1,0,2:0:0:0:
64,196,136448,1,0,2:0:0:0:
52,172,136532,1,0,2:0:0:0:
60,140,136615,5,4,2:0:0:0:
48,116,136698,1,0,2:0:0:0:
36,92,136782,1,0,1:0:0:0:
24,68,136865,1,0,1:0:0:0:
12,44,136948,6,0,P|88:16|164:36,1,160,0|4,1:0|2:0,0:0:0:0:
292,196,137615,5,8,0:0:0:0:
372,196,137782,2,0,P|324:268|256:264,1,160
256,132,138282,1,8,0:0:0:0:
372,104,138448,1,0,0:0:0:0:
448,196,138615,6,0,P|384:324|208:328,1,320,2|0,0:2|0:0,0:0:0:0:
180,24,139615,5,8,0:0:0:0:
144,100,139782,1,0,0:0:0:0:
160,184,139948,2,0,P|212:236|300:228,1,160,2|8,0:2|0:0,0:0:0:0:
472,316,140448,2,0,P|440:240|364:212,1,160
348,288,140948,1,8,0:0:0:0:
294,232,141115,1,0,0:0:0:0:
312,156,141282,6,0,P|312:72|260:16,1,160,4|8,2:0|0:0,0:0:0:0:
119,39,141782,1,0,0:0:0:0:
80,48,141865,1,0,0:0:0:0:
53,80,141948,2,0,P|50:119|64:160,1,80,4|0,2:0|0:0,0:0:0:0:
199,243,142282,2,0,P|216:208|220:168,1,80,8|0,0:0|0:0,0:0:0:0:
28,280,142615,6,0,P|96:328|184:308,1,160,4|8,2:0|0:0,0:0:0:0:
248,304,143115,1,0,0:0:0:0:
388,316,143282,1,0,0:0:0:0:
344,248,143448,1,0,0:0:0:0:
336,208,143532,1,0,0:0:0:0:
344,168,143615,2,0,P|360:128|384:100,1,80,8|0,0:0|0:0,0:0:0:0:
260,220,143948,6,0,P|228:192|208:156,1,80,2|0,0:2|0:0,0:0:0:0:
96,240,144282,2,0,P|118:202|126:166,1,80,8|0,0:0|0:0,0:0:0:0:
280,128,144615,2,0,P|264:88|236:64,1,80
48,160,144948,2,0,P|56:116|76:84,1,80,8|0,0:0|0:0,0:0:0:0:
152,40,145282,5,4,2:0:0:0:
156,60,145365,1,0,2:0:0:0:
164,76,145448,1,0,2:0:0:0:
176,92,145532,1,0,2:0:0:0:
188,108,145615,1,2,2:0:0:0:
204,120,145698,1,0,2:0:0:0:
220,132,145782,1,0,2:0:0:0:
240,140,145865,1,0,2:0:0:0:
260,148,145948,1,2,2:0:0:0:
280,152,146032,1,0,2:0:0:0:
300,152,146115,1,0,2:0:0:0:
320,152,146198,1,0,2:0:0:0:
340,148,146282,1,2,2:0:0:0:
360,144,146365,1,0,2:0:0:0:
380,136,146448,1,0,2:0:0:0:
380,156,146532,1,0,2:0:0:0:
380,176,146615,6,0,P|380:216|396:256,1,80,4|0,2:0|0:0,0:0:0:0:
420,328,146948,1,8,0:0:0:0:
304,232,147115,6,0,P|236:280|156:272,1,160
92,236,147615,1,0,0:0:0:0:
92,236,147782,1,0,0:0:0:0:
160,48,147948,6,0,P|200:36|240:36,2,80,4|0|8,0:2|0:0|0:0,0:0:0:0:
92,88,148448,2,0,P|64:168|100:244,1,160
164,264,148948,1,8,0:0:0:0:
164,264,149115,1,0,0:0:0:0:
376,232,149282,2,0,P|312:284|232:284,1,160,2|8,0:2|0:0,0:0:0:0:
272,216,149782,2,0,P|324:280|324:360,1,160
192,184,150282,1,8,0:0:0:0:
357,36,150615,6,0,P|400:100|392:180,1,160,2|8,0:2|0:0,0:0:0:0:
120,180,151115,2,0,P|112:100|156:36,1,160
256,134,151615,2,0,L|256:294,1,160,8|2,0:0|0:2,0:0:0:0:
368,248,152282,5,8,0:0:0:0:
368,248,152448,1,0,0:0:0:0:
144,248,152782,1,0,0:0:0:0:
144,248,152948,1,8,0:0:0:0:
324,96,153282,6,0,P|256:128|180:96,1,160,4|8,0:0|0:0,0:0:0:0:
256,48,153782,2,0,L|256:208,1,160
216,280,154282,2,0,P|256:288|296:280,1,80,8|0,0:0|0:0,0:0:0:0:
120,316,154615,2,0,P|136:228|196:180,1,160,2|8,0:2|0:0,0:0:0:0:
392,316,155115,2,0,P|376:228|316:180,1,160
256,140,155615,1,8,0:0:0:0:
256,140,155782,1,0,0:0:0:0:
243,61,155948,6,0,P|255:221|267:61,1,480,2|0,0:2|0:0,0:0:0:0:
256,332,157282,5,4,0:2:0:0:
256,140,157448,1,0,0:0:0:0:
164,236,157615,1,4,0:2:0:0:
356,236,157782,1,0,0:0:0:0:
256,236,158115,5,0,2:0:0:0:
256,236,158198,1,0,2:0:0:0:
256,236,158282,1,8,1:0:0:0:
100,112,158615,6,0,P|256:36|408:120,1,360.000013732911,4|0,2:0|0:0,0:0:0:0:
256,192,159948,5,0,0:0:0:0:
256,192,160282,1,0,0:0:0:0:
256,192,160448,1,0,0:0:0:0:
256,352,160782,5,0,1:0:0:0:
256,352,160865,1,0,1:0:0:0:
256,352,160948,1,8,1:2:0:0:
120,180,161282,6,0,P|128:220|152:256,1,80,4|0,1:0|0:0,0:0:0:0:
392,180,161615,2,0,P|384:220|363:252,1,80,8|0,0:0|0:0,0:0:0:0:
180,128,161948,2,0,P|192:88|216:60,1,80
332,128,162282,2,0,P|320:88|296:60,1,80,8|0,0:0|0:0,0:0:0:0:
256,132,162615,2,0,L|256:296,1,160,4|8,2:0|0:0,0:0:0:0:
80,328,163115,5,0,0:0:0:0:
88,288,163198,1,0,0:0:0:0:
112,256,163282,2,0,P|144:228|180:216,1,80,4|0,2:0|0:0,0:0:0:0:
332,216,163615,2,0,P|368:228|400:256,1,80,8|0,0:0|0:0,0:0:0:0:
432,328,163948,1,4,2:0:0:0:
256,108,164282,5,8,0:0:0:0:
256,108,164448,2,0,P|176:120|104:84,1,160
56,24,164948,1,8,0:0:0:0:
332,64,165282,2,0,P|336:144|272:192,1,160,2|8,0:2|0:0,0:0:0:0:
240,340,165782,2,0,P|192:268|208:184,1,160
260,144,166282,1,8,0:0:0:0:
464,280,166615,6,0,P|452:200|400:136,1,160,2|8,0:2|0:0,0:0:0:0:
260,144,167115,2,0,P|188:184|116:168,1,160
176,92,167615,1,8,0:0:0:0:
176,92,167782,1,0,0:0:0:0:
332,112,167948,5,4,2:0:0:0:
336,132,168032,1,0,2:0:0:0:
340,152,168115,1,0,2:0:0:0:
344,172,168198,1,0,2:0:0:0:
280,204,168282,5,4,2:0:0:0:
284,224,168365,1,0,2:0:0:0:
288,244,168448,1,0,2:0:0:0:
292,264,168532,1,0,2:0:0:0:
224,296,168615,5,4,2:0:0:0:
228,316,168698,1,0,2:0:0:0:
232,336,168782,1,0,2:0:0:0:
236,356,168865,1,0,2:0:0:0:
240,372,168948,6,0,P|160:356|104:300,1,160,0|4,1:0|2:0,1:0:0:0:
232,40,169615,5,8,0:0:0:0:
232,40,169782,2,0,P|312:32|388:56,1,160
420,128,170282,2,0,P|436:164|468:196,1,80,8|0,0:0|0:0,0:0:0:0:
272,264,170615,2,0,P|280:180|336:124,1,160,2|8,0:2|0:0,0:0:0:0:
368,200,171115,1,0,0:0:0:0:
452,280,171282,1,0,0:0:0:0:
360,340,171448,1,0,0:0:0:0:
360,340,171532,1,0,0:0:0:0:
360,340,171615,1,8,0:0:0:0:
216,308,171782,1,0,0:0:0:0:
116,148,171948,6,0,P|56:196|40:280,1,160,2|8,0:2|0:0,0:0:0:0:
208,180,172448,2,0,P|196:104|131:48,1,160
136,240,172948,2,0,P|207:267|288:239,1,160,8|4,0:0|2:0,0:0:0:0:
352,144,173448,5,0,0:0:0:0:
384,136,173532,1,0,0:0:0:0:
416,128,173615,1,8,0:0:0:0:
400,236,173782,1,0,0:0:0:0:
492,112,173948,1,4,2:0:0:0:
296,64,174115,1,0,0:0:0:0:
288,96,174198,1,0,0:0:0:0:
280,128,174282,1,8,0:0:0:0:
196,32,174448,1,0,0:0:0:0:
204,272,174615,6,0,P|164:196|188:124,1,160,4|8,2:0|0:0,0:0:0:0:
248,176,175115,2,0,P|172:216|100:192,1,160
28,220,175615,2,0,P|20:260|24:304,1,80,8|0,0:0|0:0,0:0:0:0:
320,328,175948,2,0,P|368:264|364:184,1,160,2|8,0:2|0:0,0:0:0:0:
312,128,176448,1,0,0:0:0:0:
236,100,176615,1,0,0:0:0:0:
132,176,176782,1,0,0:0:0:0:
120,224,176865,1,0,0:0:0:0:
124,268,176948,2,0,P|156:288|200:288,1,80,8|0,0:0|0:0,0:0:0:0:
308,248,177282,6,0,P|328:208|356:188,1,80,4|0,2:0|0:0,0:0:0:0:
452,232,177615,2,0,P|464:192|456:152,1,80,8|0,0:0|0:0,0:0:0:0:
204,136,177948,2,0,P|184:176|156:196,1,80
60,152,178282,2,0,P|48:192|56:232,1,80,8|0,0:0|0:0,0:0:0:0:
256,48,178615,5,4,2:0:0:0:
256,48,178948,1,8,0:0:0:0:
128,192,179115,5,0,0:0:0:0:
128,192,179282,1,0,0:0:0:0:
384,192,179615,1,8,0:0:0:0:
236,256,179948,6,0,L|184:320,2,80,0|0|8,0:0|0:0|0:0,0:0:0:0:
184,104,180615,2,0,L|100:84,2,80,0|0|8,0:0|0:0|0:0,0:0:0:0:
280,160,181115,2,0,L|436:116,1,160,2|0,0:2|0:0,0:0:0:0:
492,60,181615,2,0,P|512:100|508:144,1,80,8|0,0:0|0:0,0:0:0:0:
472,276,181948,2,0,P|452:236|456:192,2,80,0|0|8,0:0|0:0|0:0,0:0:0:0:
172,328,182615,6,0,P|136:308|112:276,2,80,0|0|8,0:0|0:0|0:0,0:0:0:0:
340,56,183282,2,0,P|376:76|400:108,2,80,0|0|8,0:0|0:0|0:0,0:0:0:0:
302,255,183782,2,0,B|292:200|216:176|204:128,1,160,2|0,0:2|0:0,0:0:0:0:
120,132,184282,2,0,P|88:160|68:196,1,80,8|0,0:0|0:0,0:0:0:0:
216,272,184615,2,0,P|232:308|236:352,2,80,0|0|8,0:0|0:0|0:0,0:0:0:0:
152,212,185115,1,0,0:0:0:0:
420,256,185282,6,0,L|452:332,2,80,0|0|8,0:0|0:0|0:0,0:0:0:0:
92,128,185948,2,0,L|60:52,2,80,0|0|8,0:0|0:0|0:0,0:0:0:0:
256,112,186448,2,0,L|256:272,1,160,2|0,0:2|0:0,0:0:0:0:
164,296,186948,2,0,L|220:356,1,80,8|0,0:0|0:0,0:0:0:0:
348,296,187282,2,0,L|292:356,1,80
176,192,187615,2,0,L|336:192,1,160,8|4,0:0|0:0,0:0:0:0:
440,72,188282,5,0,0:0:0:0:
432,152,188448,1,4,0:0:0:0:
72,312,188782,5,0,0:0:0:0:
80,232,188948,1,0,0:0:0:0:
88,152,189115,2,0,P|164:120|240:136,1,160,4|0,0:0|0:0,0:0:0:0:
308,176,189615,1,0,0:0:0:0:
300,352,189782,1,0,0:0:0:0:
264,332,189865,1,0,0:0:0:0:
240,300,189948,2,0,P|220:260|220:220,1,80
456,280,190282,1,2,2:0:0:0:
456,280,190448,6,0,P|472:200|444:120,1,160,4|0,0:0|0:0,0:0:0:0:
380,84,190948,1,0,0:0:0:0:
304,240,191115,1,0,0:0:0:0:
272,96,191282,1,0,0:0:0:0:
180,200,191448,1,0,0:0:0:0:
180,200,191532,1,0,0:0:0:0:
180,200,191615,1,4,2:0:0:0:
88,112,191782,1,4,2:0:0:0:
