osu file format v10

[General]
AudioFilename: nanahira_cut.mp3
AudioLeadIn: 1500
PreviewTime: 40769
Countdown: 0
SampleSet: Soft
StackLeniency: 0.7
Mode: 0
LetterboxInBreaks: 1

[Editor]
DistanceSpacing: 1
BeatDivisor: 4
GridSize: 4

[Metadata]
Title:Nakimushi Girl
TitleUnicode:Nakimushi Girl
Artist:Nanahira
ArtistUnicode:Nanahira
Creator:Star Stream
Version:TuHard
Source:Nico Nico Douga
Tags:hatsune miku vocaloid piichica kakuteip tutuhaha winber1 Guy
BeatmapID:177066
BeatmapSetID:57243

[Difficulty]
HPDrainRate:5
CircleSize:4
OverallDifficulty:6
ApproachRate:7
SliderMultiplier:1.6
SliderTickRate:2

[Events]
//Background and Video events
0,0,"loli.jpg"
//Break Periods
2,66390,75389
//Storyboard Layer 0 (Background)
//Storyboard Layer 1 (Fail)
//Storyboard Layer 2 (Pass)
//Storyboard Layer 3 (Foreground)
//Storyboard Sound Samples
//Background Colour Transformations
3,100,163,162,255

[TimingPoints]
500,315.789473684211,4,2,1,100,1,0
40921,-100,4,2,1,100,0,1
50710,-100,4,2,1,100,0,0
51026,-100,4,2,1,100,0,1
65552,-100,4,2,1,100,0,1
66184,-100,4,2,1,100,0,0
104078,-100,4,2,1,100,0,1
113868,-100,4,2,1,100,0,0
114184,-100,4,2,1,100,0,1
129342,-100,4,2,1,100,0,0

[Colours]
Combo1 : 70,255,255
Combo2 : 255,255,128
Combo3 : 255,151,203

[HitObjects]
256,192,499,1,0,0:0:0
256,192,1131,1,0,0:0:0
468,48,1763,2,0,B|416:116|316:92,1,160
187,93,2394,2,0,B|96:116|44:48,1,160
187,93,3026,6,0,B|224:176|168:248,1,160,4|8,0:0|0:0,0:0:0
120,308,3500,1,0,0:0:0
196,324,3657,2,0,B|292:312|324:220,1,160,0|8,0:0|0:0,0:0:0
360,164,4131,2,0,B|416:164,2,40
256,40,4605,1,8,0:0:0
152,164,4921,1,0,0:0:0
256,40,5236,1,8,0:0:0
232,200,5552,6,0,B|204:260|116:268|84:208,2,160,0|8|0,0:0|0:0|0:0,0:0:0
256,40,6500,1,8,0:0:0
108,100,6815,2,0,B|144:80|188:92,1,80
256,132,7131,2,0,B|296:136|336:96,1,80,8|0,0:0|0:0,0:0:0
388,52,7447,2,0,B|424:28|468:32,2,80,8|0|8,0:0|0:0|0:0,0:0:0
444,108,7921,6,0,B|464:156,2,40,0|0|0,0:0|0:0|0:0,0:0:0
380,256,8394,1,8,0:0:0
256,152,8710,1,0,0:0:0
132,256,9026,5,8,0:0:0
188,196,9184,2,0,B|172:172|172:144,2,40
256,340,9657,5,8,0:0:0
176,324,9815,2,0,B|152:336|120:332,2,40
336,324,10289,5,8,0:0:0
256,340,10447,2,0,B|252:312|264:288,2,40,0|0|0,0:0|0:0|0:0,0:0:0
336,324,10763,6,0,B|364:296|352:244,1,80,0|8,0:0|0:0,0:0:0
296,192,11078,1,0,0:0:0
220,172,11236,2,0,B|172:96|224:16,1,160,0|8,0:0|0:0,0:0:0
296,56,11710,2,0,B|308:80|328:88,2,40
220,21,12026,5,0,0:0:0
140,24,12184,1,8,0:0:0
72,64,12342,1,0,0:0:0
36,136,12500,2,0,B|56:220|152:244,1,160,8|8,0:0|0:0,0:0:0
200,300,12973,1,0,0:0:0
200,300,13131,1,4,0:0:0
256,148,13447,5,8,0:0:0
256,148,13763,2,0,B|308:144|332:104,2,80,0|0|8,0:0|0:0|0:0,0:0:0
260,68,14236,2,0,B|200:4|100:40,2,160
244,228,15184,2,0,B|412:228,1,160,8|0,0:0|0:0,0:0:0
400,148,15657,6,0,B|320:104|336:0,1,160,0|8,0:0|0:0,0:0:0
416,20,16131,1,0,0:0:0
464,84,16289,2,0,B|484:120|472:168,1,80,0|8,0:0|0:0,0:0:0
440,320,16763,5,0,0:0:0
440,320,16921,2,0,B|272:320,1,160,0|8,0:0|0:0,0:0:0
216,272,17394,1,0,0:0:0
160,216,17552,2,0,B|124:136|24:132,1,160,0|8,0:0|0:0,0:0:0
52,52,18026,1,0,0:0:0
52,52,18184,1,0,0:0:0
200,108,18500,5,8,0:0:0
200,108,18657,1,0,0:0:0
244,176,18815,1,0,0:0:0
288,244,18973,2,0,B|380:240|420:152,2,160,0|8|0,0:0|0:0|0:0,0:0:0
312,84,19921,2,0,B|372:24|472:32,1,160,0|8,0:0|0:0,0:0:0
500,184,20552,5,0,0:0:0
500,184,20710,2,0,B|408:340,1,160,0|8,0:0|0:0,0:0:0
340,332,21184,2,0,B|308:248|200:232,1,160
144,208,21657,1,8,0:0:0
80,156,21815,6,0,B|172:8,2,160
64,236,22605,2,0,B|80:284|128:292,1,80,8|0,0:0|0:0,0:0:0
184,340,22921,2,0,B|224:312|228:276,1,80,8|0,0:0|0:0,0:0:0
256,200,23236,5,4,0:0:0
256,200,23552,1,8,0:0:0
256,200,23868,2,0,B|304:192|328:148,2,80,0|0|8,0:0|0:0|0:0,0:0:0
248,120,24342,2,0,B|212:44|100:40,2,160,0|8|0,0:0|0:0|0:0,0:0:0
112,204,25289,5,0,0:0:0
112,204,25447,2,0,B|148:280|260:284,2,160,8|0|8,0:0|0:0|0:0,0:0:0
20,72,26394,1,0,0:0:0
20,72,26710,2,0,B|60:100|120:88,1,80,8|0,0:0|0:0,0:0:0
164,132,27026,6,0,B|200:40|308:40,1,160,0|8,0:0|0:0,0:0:0
424,120,27657,1,0,0:0:0
424,120,27973,1,8,0:0:0
424,120,28289,6,0,B|308:252,1,160,0|8,0:0|0:0,0:0:0
296,320,28763,2,0,B|208:300|188:196,1,160
116,184,29236,1,8,0:0:0
116,184,29552,6,0,B|168:24,1,160,0|8,0:0|0:0,0:0:0
248,32,30026,2,0,B|248:120|328:180,1,160,0|8,0:0|0:0,0:0:0
288,328,30657,5,0,0:0:0
288,328,30815,2,0,B|360:280|464:320,1,160,0|8,0:0|0:0,0:0:0
308,224,31447,2,0,B|268:200|216:220,1,80
152,240,31763,1,8,0:0:0
76,216,31921,6,0,B|128:48,1,160
192,24,32394,1,8,0:0:0
272,40,32552,1,0,0:0:0
332,92,32710,2,0,B|380:112|392:152,1,80
332,204,33026,2,0,B|296:188|272:136,1,80,8|0,0:0|0:0,0:0:0
200,240,33342,5,4,0:0:0
240,308,33500,1,0,0:0:0
312,336,33657,1,8,0:0:0
392,336,33815,2,0,B|476:304|484:200,1,160
452,140,34289,5,8,0:0:0
452,140,34447,2,0,B|332:252,1,160
176,264,34921,1,8,0:0:0
176,264,35078,2,0,B|292:154,1,160,0|0,0:0|0:0,0:0:0
228,108,35552,2,0,B|252:72|304:76,1,80,8|0,0:0|0:0,0:0:0
372,172,35868,6,0,B|352:240|264:252|224:196,1,160,4|8,0:0|0:0,0:0:0
228,108,36342,2,0,B|248:40|336:28|376:84,1,160,0|8,0:0|0:0,0:0:0
456,192,36815,1,0,0:0:0
456,192,36973,2,0,B|448:292|340:324,1,160,0|0,0:0|0:0,0:0:0
288,312,37447,1,8,0:0:0
220,272,37605,1,0,0:0:0
168,212,37763,2,0,B|124:144|20:152,1,160,0|8,0:0|0:0,0:0:0
60,80,38236,1,0,0:0:0
100,12,38394,5,4,0:0:0
100,12,38710,1,8,0:0:0
156,72,38868,2,0,B|232:116|328:64,1,160
388,96,39342,1,8,0:0:0
384,176,39500,6,0,B|400:252|500:288,2,160,0|8|0,0:0|0:0|0:0,0:0:0
228,140,40447,1,0,0:0:0
156,172,40605,1,8,0:0:0
116,240,40763,1,0,0:0:0
108,320,40921,5,6,0:0:0
108,320,41236,1,8,0:0:0
264,348,41552,2,0,B|356:328|380:220,1,160,0|8,0:0|0:0,0:0:0
324,180,42026,1,0,0:0:0
244,176,42184,6,0,B|152:172|108:76,1,160,0|8,0:0|0:0,0:0:0
172,32,42657,1,0,0:0:0
252,16,42815,1,0,0:0:0
244,176,43131,2,0,B|220:216|228:264,1,80,8|0,0:0|0:0,0:0:0
272,320,43447,6,0,B|332:252|432:272,1,160,2|8,0:0|0:0,0:0:0
460,200,43921,1,0,0:0:0
412,136,44078,2,0,B|380:56|272:44,1,160,0|8,0:0|0:0,0:0:0
212,188,44710,6,0,B|124:168|96:56,1,160,0|8,0:0|0:0,0:0:0
172,40,45184,1,0,0:0:0
228,96,45342,2,0,B|276:104|296:148,1,80
264,256,45657,5,8,0:0:0
264,256,45815,2,0,B|332:308|432:268,1,160,2|0,0:0|0:0,0:0:0
464,208,46289,2,0,B|424:176|428:120,1,80,8|0,0:0|0:0,0:0:0
348,120,46605,2,0,B|324:36|208:24,1,160,8|0,0:0|0:0,0:0:0
136,100,47078,6,0,B|180:176|272:176,1,160,2|0,0:0|0:0,0:0:0
252,256,47552,1,8,0:0:0
188,304,47710,1,0,0:0:0
108,316,47868,2,0,B|56:308|40:260,1,80,8|0,0:0|0:0,0:0:0
40,152,48184,2,0,B|88:160|104:192,1,80,8|0,0:0|0:0,0:0:0
180,220,48500,5,2,0:0:0
180,220,48815,1,8,0:0:0
216,64,49131,1,0,0:0:0
216,64,49447,1,8,0:0:0
348,156,49763,6,0,B|432:180|452:284,1,160,0|8,0:0|0:0,0:0:0
396,328,50236,1,0,0:0:0
320,352,50394,1,0,0:0:0
320,352,50710,2,0,B|308:312|268:288,1,80,8|0,0:0|0:0,0:0:0
192,280,51026,6,0,B|104:268|76:176,1,160,6|8,0:0|0:0,0:0:0
60,104,51500,1,0,0:0:0
116,48,51657,2,0,B|160:24|208:36,1,80
240,100,51973,2,0,B|280:116|332:100,1,80,8|0,0:0|0:0,0:0:0
352,176,52289,6,0,B|432:152|448:48,1,160,0|8,0:0|0:0,0:0:0
372,24,52763,1,0,0:0:0
292,40,52921,2,0,B|216:80|224:200,1,160,0|8,0:0|0:0,0:0:0
228,256,53394,1,0,0:0:0
184,324,53552,6,0,B|8:324,1,160,2|8,0:0|0:0,0:0:0
56,168,54184,2,0,B|236:168,1,160,0|8,0:0|0:0,0:0:0
264,104,54657,5,0,0:0:0
264,104,54815,2,0,B|324:160|416:144,1,160,0|8,0:0|0:0,0:0:0
348,244,55289,2,0,B|440:248|504:168,1,160,0|8,0:0|0:0,0:0:0
264,104,55921,6,0,B|188:60|92:96,1,160,0|0,0:0|0:0,0:0:0
60,200,56394,1,8,0:0:0
60,200,56552,2,0,B|152:216|212:152,1,160
320,44,57184,6,0,B|408:56|456:148,2,160,8|0|0,0:0|0:0|0:0,0:0:0
240,48,57973,2,0,B|152:48,1,80,8|0,0:0|0:0,0:0:0
100,152,58289,2,0,B|192:152,1,80,8|0,0:0|0:0,0:0:0
256,184,58605,5,4,0:0:0
156,312,58921,1,8,0:0:0
156,312,59078,1,0,0:0:0
308,356,59394,1,8,0:0:0
420,240,59710,6,0,B|496:188|480:84,1,160
408,68,60184,1,8,0:0:0
328,84,60342,1,0,0:0:0
276,144,60500,1,0,0:0:0
276,144,60815,2,0,B|184:144,1,80,8|0,0:0|0:0,0:0:0
124,104,61131,6,0,B|96:176|4:208,1,160,6|8,0:0|0:0,0:0:0
28,284,61605,2,0,B|212:240,1,160
220,320,62078,2,0,B|252:352|304:348,1,80,8|0,0:0|0:0,0:0:0
392,280,62394,6,0,B|352:208|236:208,1,160,6|8,0:0|0:0,0:0:0
212,144,62868,2,0,B|360:28,1,160,0|8,0:0|0:0,0:0:0
440,168,63500,1,0,0:0:0
440,168,63657,1,8,0:0:0
256,192,63815,12,4,66184,0:0:0
256,192,76289,5,4,0:0:0
256,192,76605,1,8,0:0:0
256,192,76921,2,0,B|256:144|200:108,1,80
176,192,77236,1,8,0:0:0
176,192,77394,2,0,B|88:204|32:128,1,160
172,48,78026,6,0,B|248:4|340:48,2,160,8|0|0,0:0|0:0|0:0,0:0:0
100,84,78815,1,8,0:0:0
100,84,79131,2,0,B|116:180,1,80
120,244,79447,2,0,B|160:236|188:200,1,80,8|0,0:0|0:0,0:0:0
256,56,79921,5,0,0:0:0
256,56,80078,2,0,B|432:100,1,160,8|0,0:0|0:0,0:0:0
416,176,80552,1,0,0:0:0
408,256,80710,2,0,B|320:244|284:144,1,160,8|0,0:0|0:0,0:0:0
216,128,81184,1,0,0:0:0
216,128,81342,1,8,0:0:0
108,244,81657,6,0,B|132:280|184:288,1,80
252,296,81973,1,8,0:0:0
328,268,82131,1,0,0:0:0
336,108,82447,1,8,0:0:0
192,36,82763,1,0,0:0:0
192,196,83078,2,0,B|152:120|48:124,2,160,8|0|0,0:0|0:0|0:0,0:0:0
232,268,83868,6,0,B|312:296|392:232,1,160,8|0,0:0|0:0,0:0:0
400,120,84342,2,0,B|328:88|240:132,1,160,8|0,0:0|0:0,0:0:0
232,268,84815,2,0,B|184:196|68:212,1,160,8|0,0:0|0:0,0:0:0
132,56,85447,5,8,0:0:0
212,56,85605,1,0,0:0:0
288,84,85763,1,0,0:0:0
344,144,85921,1,0,0:0:0
372,220,86078,2,0,B|424:212|444:168,1,80,8|0,0:0|0:0,0:0:0
456,100,86394,5,4,0:0:0
456,100,86710,1,8,0:0:0
456,100,87026,2,0,B|440:52|392:40,1,80
380,120,87342,1,8,0:0:0
380,120,87500,2,0,B|240:228,1,160
100,260,88131,1,8,0:0:0
36,112,88447,2,0,B|104:60|200:104,1,160
204,176,88921,6,0,B|220:224|272:236,1,80,8|0,0:0|0:0,0:0:0
296,304,89236,2,0,B|344:312|384:280,1,80
444,192,89552,2,0,B|388:128|296:144,1,160,8|0,0:0|0:0,0:0:0
256,76,90026,1,0,0:0:0
256,76,90184,6,0,B|172:80|120:176,1,160,8|0,0:0|0:0,0:0:0
84,228,90657,1,0,0:0:0
52,300,90815,2,0,B|92:312|136:292,2,80,8|0|8,0:0|0:0|0:0,0:0:0
128,160,91447,6,0,B|112:72|192:12,1,160,0|8,0:0|0:0,0:0:0
212,136,91921,2,0,B|256:68|356:68,1,160
404,128,92394,1,8,0:0:0
404,128,92710,6,0,B|392:172|344:200,1,80
372,272,93026,2,0,B|336:296|280:288,1,80,8|0,0:0|0:0,0:0:0
144,232,93500,1,8,0:0:0
144,232,93815,1,0,0:0:0
256,192,93973,12,8,95868,0:0:0
256,192,96184,5,0,0:0:0
256,192,96500,2,0,B|224:104|296:28,1,160,4|8,0:0|0:0,0:0:0
340,100,96973,2,0,B|356:184|308:260,1,160,0|8,0:0|0:0,0:0:0
240,292,97447,1,0,0:0:0
160,300,97605,6,0,B|112:228|132:144,1,160,8|0,0:0|0:0,0:0:0
232,24,98236,2,0,B|308:60|320:156,1,160,8|0,0:0|0:0,0:0:0
280,220,98710,1,0,0:0:0
240,292,98868,1,0,0:0:0
284,360,99026,6,0,B|384:352|432:256,1,160,8|0,0:0|0:0,0:0:0
428,164,99500,2,0,B|344:144|312:44,1,160,8|0,0:0|0:0,0:0:0
168,120,100131,6,0,B|16:220,1,160,8|0,0:0|0:0,0:0:0
36,288,100605,1,8,0:0:0
108,324,100763,1,0,0:0:0
188,312,100921,2,0,B|321:224,1,160,0|8,0:0|0:0,0:0:0
256,76,101552,5,8,0:0:0
180,48,101710,1,0,0:0:0
100,60,101868,1,0,0:0:0
40,112,102026,1,8,0:0:0
72,268,102342,1,0,0:0:0
124,328,102500,1,0,0:0:0
200,348,102657,5,8,0:0:0
156,192,102973,1,0,0:0:0
284,288,103289,2,0,B|252:200|300:128,1,160,8|0,0:0|0:0,0:0:0
364,180,103763,2,0,B|416:176|440:124,1,80,8|0,0:0|0:0,0:0:0
404,64,104078,5,6,0:0:0
404,64,104394,1,8,0:0:0
248,36,104710,2,0,B|156:56|132:164,1,160,0|8,0:0|0:0,0:0:0
188,204,105184,1,0,0:0:0
268,208,105342,6,0,B|360:212|404:308,1,160,0|8,0:0|0:0,0:0:0
340,352,105815,1,0,0:0:0
260,368,105973,1,0,0:0:0
268,208,106289,2,0,B|292:168|284:120,1,80,8|0,0:0|0:0,0:0:0
240,64,106605,6,0,B|180:132|80:112,1,160,2|8,0:0|0:0,0:0:0
52,184,107078,1,0,0:0:0
100,248,107236,2,0,B|132:328|240:340,1,160,0|8,0:0|0:0,0:0:0
300,196,107868,6,0,B|388:216|416:328,1,160,0|8,0:0|0:0,0:0:0
340,344,108342,1,0,0:0:0
284,288,108500,2,0,B|236:280|216:236,1,80
248,128,108815,5,8,0:0:0
248,128,108973,2,0,B|180:76|80:116,1,160,2|0,0:0|0:0,0:0:0
48,176,109447,2,0,B|88:208|84:264,1,80,8|0,0:0|0:0,0:0:0
164,264,109763,2,0,B|188:348|304:360,1,160,8|0,0:0|0:0,0:0:0
376,284,110236,6,0,B|332:208|240:208,1,160,2|0,0:0|0:0,0:0:0
260,128,110710,1,8,0:0:0
324,80,110868,1,0,0:0:0
404,68,111026,2,0,B|456:76|472:124,1,80,8|0,0:0|0:0,0:0:0
472,232,111342,2,0,B|424:224|408:192,1,80,8|0,0:0|0:0,0:0:0
332,164,111657,5,2,0:0:0
332,164,111973,1,8,0:0:0
296,320,112289,1,0,0:0:0
296,320,112605,1,8,0:0:0
164,228,112921,6,0,B|80:204|60:100,1,160,0|8,0:0|0:0,0:0:0
116,56,113394,1,0,0:0:0
192,32,113552,1,0,0:0:0
192,32,113868,2,0,B|204:72|244:96,1,80,8|0,0:0|0:0,0:0:0
320,104,114184,6,0,B|408:116|436:208,1,160,6|8,0:0|0:0,0:0:0
452,280,114657,1,0,0:0:0
396,336,114815,2,0,B|352:360|304:348,1,80
272,284,115131,2,0,B|232:268|180:284,1,80,8|0,0:0|0:0,0:0:0
160,208,115447,6,0,B|80:232|64:336,1,160,0|8,0:0|0:0,0:0:0
140,360,115921,1,0,0:0:0
220,344,116078,2,0,B|296:304|288:184,1,160,0|8,0:0|0:0,0:0:0
284,128,116552,1,0,0:0:0
328,60,116710,6,0,B|504:60,1,160,2|8,0:0|0:0,0:0:0
456,216,117342,2,0,B|276:216,1,160,0|8,0:0|0:0,0:0:0
248,280,117815,5,0,0:0:0
248,280,117973,2,0,B|188:224|96:240,1,160,0|8,0:0|0:0,0:0:0
164,140,118447,2,0,B|72:136|8:216,1,160,0|8,0:0|0:0,0:0:0
248,280,119078,6,0,B|324:324|420:288,1,160,0|0,0:0|0:0,0:0:0
452,184,119552,1,8,0:0:0
452,184,119710,2,0,B|360:168|300:232,1,160
192,340,120184,5,8,0:0:0
192,340,120342,2,0,B|104:328|56:236,2,160,0|0|0,0:0|0:0|0:0,0:0:0
272,336,121131,2,0,B|360:336,1,80,8|0,0:0|0:0,0:0:0
412,232,121447,2,0,B|320:232,1,80,8|0,0:0|0:0,0:0:0
256,200,121763,5,4,0:0:0
356,72,122078,1,8,0:0:0
356,72,122236,1,0,0:0:0
204,28,122552,1,8,0:0:0
92,144,122868,6,0,B|16:196|32:300,1,160
104,316,123342,1,8,0:0:0
184,300,123500,1,0,0:0:0
236,240,123657,1,0,0:0:0
236,240,123973,2,0,B|328:240,1,80,8|0,0:0|0:0,0:0:0
388,280,124289,6,0,B|416:208|508:176,1,160,6|8,0:0|0:0,0:0:0
484,100,124763,2,0,B|300:144,1,160
292,64,125236,2,0,B|260:32|208:36,1,80,8|0,0:0|0:0,0:0:0
120,104,125552,6,0,B|160:176|276:176,1,160,6|8,0:0|0:0,0:0:0
300,240,126026,2,0,B|152:356,1,160,0|8,0:0|0:0,0:0:0
72,216,126657,1,0,0:0:0
72,216,126815,1,8,0:0:0
256,192,126973,12,4,129342,0:0:0
