osu file format v10

[General]
AudioFilename: nanahira_cut.mp3
AudioLeadIn: 1500
PreviewTime: 40769
Countdown: 0
SampleSet: Soft
StackLeniency: 0.3
Mode: 0
LetterboxInBreaks: 1

[Editor]
DistanceSpacing: 1
BeatDivisor: 4
GridSize: 4

[Metadata]
Title:Nakimushi Girl
TitleUnicode:
Artist:Nanahira
ArtistUnicode:
Creator:Star Stream
Version:S.S
Source:Nico Nico Douga
Tags:hatsune miku vocaloid piichica kakuteip tutuhaha winber1 Guy
BeatmapID:172645
BeatmapSetID:57243

[Difficulty]
HPDrainRate:7
CircleSize:4
OverallDifficulty:7
ApproachRate:9
SliderMultiplier:2.2
SliderTickRate:1

[Events]
//Background and Video events
0,0,"loli.jpg"
//Break Periods
2,66389,75689
//Storyboard Layer 0 (Background)
//Storyboard Layer 1 (Fail)
//Storyboard Layer 2 (Pass)
//Storyboard Layer 3 (Foreground)
//Storyboard Sound Samples
//Background Colour Transformations
3,100,163,162,255

[TimingPoints]
500,315.789473684211,4,2,1,100,1,0
40921,-83.3333333333333,4,2,1,100,0,1
50710,-83.3333333333333,4,2,1,100,0,0
51026,-83.3333333333333,4,2,1,100,0,1
65552,-125,4,2,1,100,0,1
66184,-100,4,2,1,100,0,0
104078,-83.3333333333333,4,2,1,100,0,1
113868,-83.3333333333333,4,2,1,100,0,0
114184,-83.3333333333333,4,2,1,100,0,1
129342,-100,4,2,1,100,0,0

[Colours]
Combo1 : 70,255,255
Combo2 : 255,255,128
Combo3 : 255,151,203

[HitObjects]
36,192,499,1,0,0:0:0
476,192,1131,1,0,0:0:0
256,60,1763,5,0,0:0:0
124,192,2078,1,0,0:0:0
256,324,2394,1,0,0:0:0
388,192,2710,1,0,0:0:0
256,60,3026,6,0,B|224:108|164:116,1,110,4|0,0:0|0:0,0:0:0
64,72,3342,1,8,0:0:0
16,172,3500,1,0,0:0:0
117,215,3657,1,0,0:0:0
117,215,3736,1,0,0:0:0
117,215,3815,2,0,B|176:228|196:288,2,110,0|8|0,0:0|0:0|0:0,0:0:0
16,172,4289,5,0,0:0:0
140,47,4447,1,0,0:0:0
264,171,4605,1,8,0:0:0
140,296,4763,1,0,0:0:0
164,196,4921,5,0,0:0:0
340,195,5078,1,0,0:0:0
340,370,5236,1,8,0:0:0
164,371,5394,1,0,0:0:0
256,280,5552,6,0,B|372:280,1,110
256,280,5868,2,0,B|140:280,1,110,8|0,0:0|0:0,0:0:0
312,183,6184,6,0,B|366:280,1,110
199,183,6500,2,0,B|146:280,1,110,8|0,0:0|0:0,0:0:0
256,128,6815,1,0,0:0:0
256,128,6973,2,0,B|256:8,2,110,0|8|0,0:0|0:0|0:0,0:0:0
152,248,7447,5,0,0:0:0
176,261,7526,1,0,0:0:0
201,271,7605,1,0,0:0:0
228,277,7684,1,0,0:0:0
255,279,7763,1,8,0:0:0
283,277,7842,1,0,0:0:0
309,271,7921,1,0,0:0:0
335,261,8000,1,0,0:0:0
359,248,8078,6,4,B|440:160,1,110,4|0,0:0|0:0,0:0:0
327,39,8394,2,0,B|312:148,1,110,8|0,0:0|0:0,0:0:0
200,148,8710,2,0,B|184:39,1,110
78,166,9026,2,0,B|152:248,1,110,8|0,0:0|0:0,0:0:0
256,352,9342,5,0,0:0:0
256,352,9500,2,0,B|368:352,2,110,0|8|0,0:0|0:0|0:0,0:0:0
136,352,9973,1,0,0:0:0
108,352,10052,1,0,0:0:0
80,352,10131,1,0,0:0:0
52,352,10210,1,0,0:0:0
24,352,10289,2,0,B|48:300|104:276,1,110,8|0,0:0|0:0,0:0:0
208,248,10605,5,4,0:0:0
308,320,10763,1,0,0:0:0
408,247,10921,1,8,0:0:0
369,130,11078,1,0,0:0:0
246,130,11236,1,0,0:0:0
246,130,11315,1,0,0:0:0
246,130,11394,2,0,B|131:130,2,110,0|8|0,0:0|0:0|0:0,0:0:0
369,130,11868,5,4,0:0:0
408,247,12026,1,0,0:0:0
308,320,12184,1,8,0:0:0
208,248,12342,1,0,0:0:0
246,130,12500,1,0,0:0:0
260,104,12578,1,0,0:0:0
280,84,12657,1,0,0:0:0
300,68,12736,1,0,0:0:0
324,56,12815,1,0,0:0:0
352,48,12894,1,0,0:0:0
380,48,12973,1,0,0:0:0
408,52,13052,1,0,0:0:0
432,60,13131,6,0,B|544:116|536:248,1,220,4|8,0:0|0:0,0:0:0
460,316,13605,1,0,0:0:0
368,256,13763,2,0,B|376:192|440:160,2,110,0|0|8,0:0|0:0|0:0,0:0:0
268,304,14236,6,0,B|44:304,1,220
0,204,14710,1,8,0:0:0
60,112,14868,2,0,B|164:176|116:304,1,220
0,204,15342,1,8,0:0:0
60,112,15500,1,0,0:0:0
164,72,15657,6,0,B|216:92|272:80,1,110
376,40,15973,1,8,0:0:0
480,76,16131,2,0,B|548:168|520:288,1,220
440,360,16605,1,8,0:0:0
336,324,16763,1,0,0:0:0
240,376,16921,6,0,B|116:376,1,110
40,312,17236,1,8,0:0:0
130,248,17394,1,0,0:0:0
130,248,17473,1,0,0:0:0
130,248,17552,2,0,B|241:248,1,110
332,184,17868,1,8,0:0:0
332,184,17947,1,0,0:0:0
332,184,18026,1,0,0:0:0
332,184,18105,1,0,0:0:0
332,184,18184,6,0,B|280:76|156:72,1,220,0|8,0:0|0:0,0:0:0
80,148,18657,1,0,0:0:0
130,248,18815,2,0,B|192:232|212:168,1,110
272,88,19131,1,8,0:0:0
384,108,19289,6,0,B|480:116|476:252|396:256,1,220
292,316,19763,1,8,0:0:0
208,260,19921,2,0,B|272:176|272:176|328:204|384:184,2,220,0|8|0,0:0|0:0|0:0,0:0:0
112,324,20710,6,0,B|96:200|-8:144,1,220,0|8,0:0|0:0,0:0:0
76,68,21184,2,0,B|76:12,2,55
168,128,21500,1,0,0:0:0
252,60,21657,1,8,0:0:0
348,116,21815,6,0,B|376:232|496:276,1,220
488,273,22289,1,8,0:0:0
488,273,22447,1,0,0:0:0
412,352,22605,1,0,0:0:0
384,352,22684,1,0,0:0:0
356,352,22763,1,0,0:0:0
328,352,22842,1,0,0:0:0
300,352,22921,1,0,0:0:0
272,352,23000,1,0,0:0:0
244,352,23078,1,0,0:0:0
216,352,23157,1,0,0:0:0
188,352,23236,6,0,B|253:286|159:187|92:255,1,220,4|8,0:0|0:0,0:0:0
72,364,23710,1,0,0:0:0
152,292,23868,2,0,B|236:200,2,110,0|0|8,0:0|0:0|0:0,0:0:0
56,232,24342,6,0,B|-11:164|87:70|152:135,1,220
152,136,24815,1,8,0:0:0
248,232,24973,2,0,B|315:163|216:70|151:135,1,220
132,244,25447,1,8,0:0:0
212,320,25605,1,0,0:0:0
316,284,25763,6,0,B|364:248|420:248,1,110,4|0,0:0|0:0,0:0:0
464,148,26078,1,8,0:0:0
464,148,26236,1,0,0:0:0
272,88,26394,6,0,B|279:147|251:196,1,110,4|0,0:0|0:0,0:0:0
315,284,26710,1,8,0:0:0
315,284,26868,1,0,0:0:0
464,148,27026,6,0,B|408:124|380:75,1,110,4|0,0:0|0:0,0:0:0
272,87,27342,1,8,0:0:0
272,87,27500,1,0,0:0:0
192,220,27657,5,4,0:0:0
80,116,27815,1,0,0:0:0
0,249,27973,1,8,0:0:0
20,268,28052,1,0,0:0:0
40,284,28131,1,0,0:0:0
60,300,28210,1,0,0:0:0
80,316,28289,6,0,B|152:360|152:360|172:296|256:288,1,220,4|8,0:0|0:0,0:0:0
432,316,28763,2,0,B|360:360|360:360|340:296|256:288,1,220
180,156,29236,1,8,0:0:0
332,156,29394,1,0,0:0:0
256,287,29552,6,0,B|209:252|209:252|125:288|65:216,1,220,4|8,0:0|0:0,0:0:0
256,287,30026,2,0,B|303:252|303:252|387:288|447:216,1,220
332,156,30500,1,8,0:0:0
256,48,30657,1,0,0:0:0
180,156,30815,6,0,B|112:256,1,110,4|0,0:0|0:0,0:0:0
156,352,31131,2,0,B|217:261,1,110,8|0,0:0|0:0,0:0:0
332,156,31447,2,0,B|400:256,1,110
356,352,31763,2,0,B|294:261,1,110,8|0,0:0|0:0,0:0:0
216,184,32078,6,0,B|164:156|112:184,1,110
296,200,32394,2,0,B|348:228|400:200,1,110,8|0,0:0|0:0,0:0:0
300,44,32710,1,0,0:0:0
276,32,32789,1,0,0:0:0
248,24,32868,1,0,0:0:0
220,20,32947,1,0,0:0:0
192,24,33026,1,0,0:0:0
164,32,33105,1,0,0:0:0
140,48,33184,1,0,0:0:0
120,68,33263,1,0,0:0:0
108,92,33342,6,0,B|76:140|88:212,2,110,6|0|2,0:0|0:0|0:0,0:0:0
153,208,33815,2,0,B|139:302|4:280|17:189,1,220,2|2,0:0|0:0,0:0:0
108,92,34289,1,0,0:0:0
228,148,34447,6,0,B|344:184|372:308,1,220,2|2,0:0|0:0,0:0:0
288,376,34921,1,0,0:0:0
192,328,35078,2,0,B|208:268|264:248,1,110,2|0,0:0|0:0,0:0:0
380,352,35394,1,2,0:0:0
276,331,35552,5,0,0:0:0
252,316,35631,1,0,0:0:0
232,300,35710,1,0,0:0:0
216,280,35789,1,0,0:0:0
204,256,35868,2,0,B|176:200|196:144|196:144|164:100|100:108,1,220,2|2,0:0|0:0,0:0:0
20,180,36342,2,0,B|72:160|104:108|104:108|96:44|32:24,2,220,2|2|0,0:0|0:0|0:0,0:0:0
0,288,37131,5,2,0:0:0
88,356,37289,1,0,0:0:0
156,268,37447,1,2,0:0:0
244,336,37605,1,0,0:0:0
312,248,37763,1,2,0:0:0
332,228,37842,1,0,0:0:0
352,208,37921,1,0,0:0:0
372,188,38000,1,0,0:0:0
392,168,38078,2,0,B|472:84,1,110,0|0,0:0|0:0,0:0:0
174,273,38394,5,6,0:0:0
337,110,38552,1,0,0:0:0
141,192,38710,1,2,0:0:0
337,273,38868,1,0,0:0:0
174,110,39026,5,6,0:0:0
256,306,39184,1,0,0:0:0
370,191,39342,1,2,0:0:0
255,77,39500,1,0,0:0:0
141,192,39657,6,0,B|96:232|96:296,1,110,6|0,0:0|0:0,0:0:0
370,191,39973,2,0,B|416:152|416:88,1,110,2|0,0:0|0:0,0:0:0
232,20,40289,5,6,0:0:0
176,28,40368,1,0,0:0:0
128,52,40447,1,0,0:0:0
88,88,40526,1,0,0:0:0
60,136,40605,1,2,0:0:0
44,188,40684,1,0,0:0:0
48,244,40763,1,0,0:0:0
64,296,40842,1,0,0:0:0
96,340,40921,6,0,B|200:248|344:272,1,263.99999194336,4|8,0:0|0:0,0:0:0
404,360,41394,1,0,0:0:0
244,336,41552,2,0,B|184:288|188:216,1,131.99999597168
340,140,41868,2,0,B|328:215|264:248,1,131.99999597168,8|0,0:0|0:0,0:0:0
122,154,42184,5,0,0:0:0
122,154,42342,2,0,B|193:126|253:165,2,131.99999597168,0|8|0,0:0|0:0|0:0,0:0:0
32,252,42815,1,2,0:0:0
52,280,42894,1,0,0:0:0
76,300,42973,1,0,0:0:0
104,316,43052,1,0,0:0:0
136,328,43131,2,0,B|188:280|260:280,1,131.99999597168,10|0,0:0|0:0,0:0:0
404,216,43447,6,0,B|460:260|464:332,1,131.99999597168
316,176,43763,2,0,B|260:132|256:60,1,131.99999597168,8|0,0:0|0:0,0:0:0
380,304,44078,2,0,B|332:352|260:344,1,131.99999597168
344,88,44394,2,0,B|392:40|464:48,1,131.99999597168,8|0,0:0|0:0,0:0:0
404,216,44710,5,0,0:0:0
380,304,44868,1,0,0:0:0
344,88,45026,1,8,0:0:0
316,176,45184,1,0,0:0:0
264,40,45342,1,2,0:0:0
232,32,45421,1,0,0:0:0
200,28,45500,1,0,0:0:0
168,32,45578,1,0,0:0:0
136,44,45657,2,0,B|68:72|48:140,1,131.99999597168,10|0,0:0|0:0,0:0:0
24,268,45973,5,4,0:0:0
140,328,46131,1,0,0:0:0
224,232,46289,2,0,B|288:280|256:348,1,131.99999597168,10|0,0:0|0:0,0:0:0
488,268,46605,1,0,0:0:0
372,328,46763,1,0,0:0:0
288,232,46921,2,0,B|224:280|256:348,1,131.99999597168,10|0,0:0|0:0,0:0:0
24,84,47236,5,0,0:0:0
140,144,47394,1,0,0:0:0
224,48,47552,2,0,B|288:96|256:164,1,131.99999597168,10|0,0:0|0:0,0:0:0
488,84,47868,1,0,0:0:0
372,144,48026,1,0,0:0:0
288,48,48184,2,0,B|224:96|256:164,1,131.99999597168,10|0,0:0|0:0,0:0:0
160,288,48500,5,6,0:0:0
160,288,48657,1,0,0:0:0
352,288,48815,1,10,0:0:0
352,288,48973,1,0,0:0:0
160,96,49131,1,2,0:0:0
160,96,49289,1,0,0:0:0
352,96,49447,1,10,0:0:0
352,96,49605,1,0,0:0:0
256,192,49763,1,6,0:0:0
256,192,49921,6,0,B|256:56,2,131.99999597168,0|8|0,0:0|0:0|0:0,0:0:0
256,324,50394,1,6,0:0:0
376,308,50552,5,0,0:0:0
340,282,50631,1,0,0:0:0
300,264,50710,1,8,0:0:0
256,258,50789,1,0,0:0:0
213,264,50868,1,0,0:0:0
173,281,50947,1,0,0:0:0
137,307,51026,6,0,B|40:208,1,131.99999597168,4|0,0:0|0:0,0:0:0
148,48,51342,2,0,B|192:172,1,131.99999597168,10|0,0:0|0:0,0:0:0
320,172,51657,2,0,B|364:48,1,131.99999597168
467,212,51973,2,0,B|374:307,1,131.99999597168,10|0,0:0|0:0,0:0:0
256,364,52289,5,0,0:0:0
256,364,52368,1,0,0:0:0
256,364,52447,2,0,B|212:364|212:364|176:384|176:384|120:384,2,131.99999597168,0|10|0,0:0|0:0|0:0,0:0:0
364,364,52921,1,2,0:0:0
396,364,53000,1,0,0:0:0
428,364,53078,1,0,0:0:0
460,364,53157,1,0,0:0:0
492,364,53236,2,0,B|472:296|392:280,1,131.99999597168,10|0,0:0|0:0,0:0:0
268,244,53552,6,0,B|232:308|160:316,1,131.99999597168,4|0,0:0|0:0,0:0:0
244,140,53868,2,0,B|280:76|352:68,1,131.99999597168,10|0,0:0|0:0,0:0:0
204,204,54184,2,0,B|140:168|132:96,1,131.99999597168
308,180,54500,2,0,B|372:216|380:288,1,131.99999597168,10|0,0:0|0:0,0:0:0
256,364,54815,6,0,B|296:232|384:184|448:224,1,263.99999194336,2|8,0:0|0:0,0:0:0
256,364,55289,2,0,B|216:232|128:184|64:224,1,263.99999194336,2|2,0:0|0:0,0:0:0
73,218,55763,1,8,0:0:0
176,112,55921,6,0,B|176:-4|336:-4|336:112,1,263.99999194336,6|0,0:0|0:0,0:0:0
256,192,56394,1,10,0:0:0
176,272,56552,2,0,B|176:388|336:388|336:272,2,263.99999194336,2|10|2,0:0|0:0|0:0,0:0:0
256,192,57342,5,0,0:0:0
256,192,57421,1,0,0:0:0
256,192,57500,1,0,0:0:0
256,192,57578,1,0,0:0:0
256,192,57657,2,0,B|400:192,1,131.99999597168,10|0,0:0|0:0,0:0:0
256,96,57973,6,0,B|116:96,1,131.99999597168
256,288,58289,2,0,B|396:288,1,131.99999597168,10|0,0:0|0:0,0:0:0
160,192,58605,6,0,B|88:300|88:300|116:368|200:352,1,263.99999194336,4|10,0:0|0:0,0:0:0
352,192,59078,2,0,B|424:84|424:84|396:16|312:32,2,263.99999194336,0|10|0,0:0|0:0|0:0,0:0:0
256,288,59868,5,0,0:0:0
160,192,60026,1,0,0:0:0
256,96,60184,1,10,0:0:0
352,192,60342,1,0,0:0:0
256,288,60500,2,0,B|192:316|128:288,1,131.99999597168
256,96,60815,1,10,0:0:0
287,85,60894,1,0,0:0:0
320,82,60973,1,0,0:0:0
352,85,61052,1,0,0:0:0
384,96,61131,6,0,B|492:188,1,131.99999597168,4|0,0:0|0:0,0:0:0
320,228,61447,2,0,B|364:352,1,131.99999597168,10|0,0:0|0:0,0:0:0
192,228,61763,2,0,B|148:352,1,131.99999597168
127,96,62078,2,0,B|27:181,1,131.99999597168,10|0,0:0|0:0,0:0:0
256,148,62394,1,4,0:0:0
256,148,62552,5,0,0:0:0
256,148,62631,1,0,0:0:0
256,148,62710,2,0,B|256:16,1,131.99999597168,10|0,0:0|0:0,0:0:0
256,148,63026,5,0,0:0:0
252,176,63105,1,0,0:0:0
260,200,63184,1,0,0:0:0
252,224,63263,1,0,0:0:0
260,248,63342,1,10,0:0:0
252,272,63421,1,0,0:0:0
260,296,63500,1,0,0:0:0
252,320,63578,1,0,0:0:0
256,344,63657,6,0,B|120:344,1,131.99999597168,6|0,0:0|0:0,0:0:0
256,344,63973,2,0,B|392:344,1,131.99999597168,10|0,0:0|0:0,0:0:0
168,252,64289,2,0,B|32:252,1,131.99999597168,2|0,0:0|0:0,0:0:0
344,252,64605,2,0,B|480:252,1,131.99999597168,10|0,0:0|0:0,0:0:0
256,160,64921,5,6,0:0:0
256,160,65000,1,0,0:0:0
256,160,65078,1,0,0:0:0
256,160,65157,1,0,0:0:0
256,160,65236,1,0,0:0:0
256,160,65315,1,0,0:0:0
256,160,65394,1,0,0:0:0
256,160,65473,1,0,0:0:0
256,160,65552,2,0,B|300:160,8,44,6|0|0|0|0|0|0|0|4,0:0|0:0|0:0|0:0|0:0|0:0|0:0|0:0|0:0,0:0:0
256,348,76289,6,0,B|304:236|432:224,1,220,4|8,0:0|0:0,0:0:0
496,140,76763,1,0,0:0:0
412,72,76921,2,0,B|360:48|360:48|312:72,2,110,0|0|8,0:0|0:0|0:0,0:0:0
496,140,77394,6,0,B|380:180|376:320,1,220
464,376,77868,1,8,0:0:0
508,276,78026,2,0,B|415:195|292:262,1,220
220,328,78500,1,8,0:0:0
120,280,78657,1,0,0:0:0
228,128,78815,6,0,B|348:128,1,110
284,32,79131,2,0,B|164:32,1,110,8|0,0:0|0:0,0:0:0
88,100,79447,1,0,0:0:0
88,100,79605,2,0,B|148:116|160:184,2,110,0|8|0,0:0|0:0|0:0,0:0:0
174,32,80078,6,0,B|284:32,1,110
392,52,80394,2,0,B|332:92|324:160|324:160|348:192,1,165,8|0,0:0|0:0,0:0:0
384,224,80710,2,0,B|397:241|397:241|392:286|352:313,1,110
252,364,81026,1,8,0:0:0
232,344,81105,1,0,0:0:0
208,332,81184,1,0,0:0:0
184,324,81263,1,0,0:0:0
156,324,81342,6,0,B|124:276|64:264,1,110,4|0,0:0|0:0,0:0:0
116,164,81657,1,8,0:0:0
56,72,81815,2,0,B|-12:160,1,110
100,20,82131,2,0,B|184:88|316:56,1,220,8|0,0:0|0:0,0:0:0
416,24,82605,6,0,B|480:112,1,110,0|8,0:0|0:0,0:0:0
388,176,82921,2,0,B|332:216,2,55,0|0|8,0:0|0:0|0:0,0:0:0
480,236,83236,1,0,0:0:0
372,344,83394,1,8,0:0:0
264,236,83552,1,0,0:0:0
156,344,83710,1,0,0:0:0
44,236,83868,6,0,B|8:132,1,110,8|0,0:0|0:0,0:0:0
80,48,84184,2,0,B|116:152,1,110
228,152,84500,2,0,B|264:48,1,110,8|0,0:0|0:0,0:0:0
336,132,84815,2,0,B|300:236,1,110
264,336,85131,5,8,0:0:0
208,336,85289,1,0,0:0:0
152,336,85447,1,8,0:0:0
96,336,85605,1,0,0:0:0
40,336,85763,2,0,B|-20:336,4,55,8|0|0|0|0,0:0|0:0|0:0|0:0|0:0,0:0:0
40,336,86394,6,0,B|40:276|80:232,1,110,4|0,0:0|0:0,0:0:0
40,48,86710,2,0,B|40:108|80:152,1,110,8|0,0:0|0:0,0:0:0
152,244,87026,2,0,B|180:192|152:140,2,110,0|0|8,0:0|0:0|0:0,0:0:0
52,192,87500,6,0,B|284:192,1,220
384,192,87973,1,8,0:0:0
304,296,88131,2,0,B|236:192|304:88,2,220,0|8|0,0:0|0:0|0:0,0:0:0
384,192,88921,6,0,B|504:192,1,110,4|0,0:0|0:0,0:0:0
414,296,89236,2,0,B|304:296,1,110,8|0,0:0|0:0,0:0:0
98,296,89552,2,0,B|208:296,1,110,4|0,0:0|0:0,0:0:0
128,192,89868,2,0,B|18:192,1,110,8|0,0:0|0:0,0:0:0
96,112,90184,6,0,B|156:112|200:72,1,110,4|0,0:0|0:0,0:0:0
416,112,90500,2,0,B|356:112|312:72,1,110,8|0,0:0|0:0,0:0:0
256,168,90815,5,4,0:0:0
256,224,90973,1,0,0:0:0
256,280,91131,1,8,0:0:0
256,336,91289,1,0,0:0:0
256,336,91368,1,0,0:0:0
256,336,91447,6,0,B|200:312|200:312|124:356|48:320,1,220,4|8,0:0|0:0,0:0:0
256,336,91921,2,0,B|312:312|312:312|388:356|464:320,1,220
396,232,92394,1,8,0:0:0
116,232,92552,1,0,0:0:0
312,88,92710,6,0,B|428:88,1,110,4|0,0:0|0:0,0:0:0
200,88,93026,1,8,0:0:0
312,160,93184,2,0,B|428:160,1,110
200,160,93500,2,0,B|84:160,2,110,8|0|0,0:0|0:0|0:0,0:0:0
256,192,93973,12,8,95236,0:0:0
256,236,95552,5,8,0:0:0
356,108,95868,5,0,0:0:0
333,91,95947,1,0,0:0:0
309,78,96026,1,0,0:0:0
283,69,96105,1,0,0:0:0
256,66,96184,1,0,0:0:0
229,68,96263,1,0,0:0:0
203,77,96342,1,0,0:0:0
179,90,96421,1,0,0:0:0
157,107,96500,6,0,B|128:160|72:176,1,110,6|0,0:0|0:0,0:0:0
8,88,96815,1,2,0:0:0
96,24,96973,2,0,B|206:80|200:204,1,220,2|2,0:0|0:0,0:0:0
148,300,97447,1,0,0:0:0
64,232,97605,6,0,B|168:164|272:232,1,220,2|2,0:0|0:0,0:0:0
335,291,98078,1,0,0:0:0
478,186,98236,1,2,0:0:0
368,186,98394,1,0,0:0:0
512,291,98552,1,2,0:0:0
424,356,98710,1,0,0:0:0
396,364,98789,1,0,0:0:0
368,372,98868,1,0,0:0:0
340,376,98947,1,0,0:0:0
312,376,99026,6,0,B|220:304|104:348,1,220,2|2,0:0|0:0,0:0:0
24,272,99500,1,2,0:0:0
100,192,99657,2,0,B|136:144|128:88,2,110,0|2|0,0:0|0:0|0:0,0:0:0
20,116,100131,6,0,B|128:52|236:124,1,220,2|0,0:0|0:0,0:0:0
276,220,100605,2,0,B|216:236|172:196,1,110,0|2,0:0|0:0,0:0:0
320,152,100921,2,0,B|363:195|351:254,1,110,2|0,0:0|0:0,0:0:0
236,152,101236,1,0,0:0:0
244,128,101315,1,0,0:0:0
260,104,101394,1,0,0:0:0
280,88,101473,1,0,0:0:0
304,80,101552,6,0,B|408:48,1,110,6|0,0:0|0:0,0:0:0
208,80,101868,2,0,B|104:48,1,110,2|0,0:0|0:0,0:0:0
320,152,102184,6,0,B|432:208,1,110,6|0,0:0|0:0,0:0:0
192,152,102500,2,0,B|80:208,1,110,2|0,0:0|0:0,0:0:0
304,220,102815,6,0,B|368:316,1,110,6|0,0:0|0:0,0:0:0
208,220,103131,2,0,B|144:316,1,110,2|0,0:0|0:0,0:0:0
256,384,103447,5,6,0:0:0
292,344,103526,1,0,0:0:0
316,296,103605,1,0,0:0:0
292,248,103684,1,0,0:0:0
256,208,103763,1,2,0:0:0
220,168,103842,1,0,0:0:0
196,120,103921,1,0,0:0:0
220,72,104000,1,0,0:0:0
256,32,104078,6,0,B|320:4|384:32,1,131.99999597168,4|0,0:0|0:0,0:0:0
196,120,104394,2,0,B|132:148|68:120,1,131.99999597168,10|0,0:0|0:0,0:0:0
316,96,104710,2,0,B|344:160|316:224,1,131.99999597168
196,120,105026,1,10,0:0:0
92,204,105184,1,0,0:0:0
176,308,105342,5,0,0:0:0
176,308,105500,2,0,B|232:260|228:188,2,131.99999597168,0|10|0,0:0|0:0|0:0,0:0:0
48,280,105973,1,2,0:0:0
28,252,106052,1,0,0:0:0
16,220,106131,1,0,0:0:0
16,188,106210,1,0,0:0:0
28,156,106289,2,0,B|48:92|116:64,1,131.99999597168,10|0,0:0|0:0,0:0:0
248,152,106605,6,0,B|192:200|120:176,1,131.99999597168
244,72,106921,2,0,B|300:24|372:48,1,131.99999597168,10|0,0:0|0:0,0:0:0
404,212,107236,1,0,0:0:0
404,212,107394,2,0,B|334:187|319:113,2,131.99999597168,0|10|0,0:0|0:0|0:0,0:0:0
296,288,107868,5,0,0:0:0
296,288,108026,2,0,B|365:312|380:386,2,131.99999597168,0|10|0,0:0|0:0|0:0,0:0:0
196,376,108500,1,2,0:0:0
164,364,108578,1,0,0:0:0
136,344,108657,1,0,0:0:0
116,316,108736,1,0,0:0:0
104,284,108815,2,0,B|76:216|104:152,1,131.99999597168,10|0,0:0|0:0,0:0:0
180,48,109131,5,4,0:0:0
308,12,109289,1,0,0:0:0
436,48,109447,2,0,B|476:112|436:172,1,131.99999597168,10|0,0:0|0:0,0:0:0
332,336,109763,5,0,0:0:0
204,372,109921,1,0,0:0:0
76,336,110078,2,0,B|36:272|76:212,1,131.99999597168,10|0,0:0|0:0,0:0:0
400,108,110394,5,4,0:0:0
436,236,110552,1,0,0:0:0
400,364,110710,2,0,B|336:404|276:364,1,131.99999597168,10|0,0:0|0:0,0:0:0
112,268,111026,5,0,0:0:0
60,148,111184,1,0,0:0:0
116,32,111342,2,0,B|180:-8|240:32,1,131.99999597168,10|0,0:0|0:0,0:0:0
344,112,111657,6,0,B|428:212,1,131.99999597168,6|0,0:0|0:0,0:0:0
168,112,111973,2,0,B|84:212,1,131.99999597168,10|0,0:0|0:0,0:0:0
337,219,112289,6,0,B|256:324,1,131.99999597168,6|0,0:0|0:0,0:0:0
174,219,112605,2,0,B|256:324,1,131.99999597168,10|0,0:0|0:0,0:0:0
480,304,112921,5,6,0:0:0
488,272,113000,1,0,0:0:0
489,239,113078,1,0,0:0:0
479,208,113157,1,0,0:0:0
455,185,113236,1,8,0:0:0
423,178,113315,1,0,0:0:0
391,183,113394,1,0,0:0:0
361,198,113473,1,0,0:0:0
334,219,113552,5,6,0:0:0
339,187,113631,1,0,0:0:0
337,154,113710,1,0,0:0:0
326,123,113789,1,0,0:0:0
304,99,113868,1,8,0:0:0
274,88,113947,1,0,0:0:0
241,94,114026,1,0,0:0:0
213,111,114105,1,0,0:0:0
190,134,114184,6,0,B|152:196|80:204,1,131.99999597168,4|0,0:0|0:0,0:0:0
24,84,114500,2,0,B|62:22|134:14,1,131.99999597168,10|0,0:0|0:0,0:0:0
321,134,114815,2,0,B|360:196|432:204,1,131.99999597168
488,84,115131,2,0,B|449:22|377:14,1,131.99999597168,10|0,0:0|0:0,0:0:0
256,92,115447,6,0,B|256:20,2,65.9999979858399
164,252,115763,1,10,0:0:0
348,252,115921,1,0,0:0:0
256,192,116078,2,0,B|216:136|140:136,1,131.99999597168,2|0,0:0|0:0,0:0:0
256,192,116394,2,0,B|296:136|372:136,1,131.99999597168,10|0,0:0|0:0,0:0:0
164,252,116710,6,0,B|88:360,1,131.99999597168
348,252,117026,2,0,B|424:360,1,131.99999597168,10|0,0:0|0:0,0:0:0
212,192,117342,2,0,B|156:144|88:168,1,131.99999597168
300,192,117657,2,0,B|356:144|424:168,1,131.99999597168,10|0,0:0|0:0,0:0:0
176,28,117973,6,0,B|176:144|336:144|336:28,1,263.99999194336,0|10,0:0|0:0,0:0:0
256,136,118447,2,0,B|180:236|336:288|256:380,1,263.99999194336,0|10,0:0|0:0,0:0:0
256,379,118921,1,0,0:0:0
176,276,119078,6,0,B|176:160|336:160|336:276,1,263.99999194336,4|0,0:0|0:0,0:0:0
436,360,119552,1,10,0:0:0
508,248,119710,2,0,B|416:152,1,131.99999597168
420,20,120026,2,0,B|512:116,1,131.99999597168,2|8,0:0|0:0,0:0:0
380,88,120342,6,0,B|280:204|144:120,1,263.99999194336
36,48,120815,1,10,0:0:0
36,48,120973,1,0,0:0:0
144,120,121131,2,0,B|152:192|96:244,1,131.99999597168,2|0,0:0|0:0,0:0:0
236,84,121447,2,0,B|278:142|255:215,1,131.99999597168,10|0,0:0|0:0,0:0:0
304,8,121763,6,0,B|435:66|469:215,1,263.99999194336,4|10,0:0|0:0,0:0:0
380,304,122236,2,0,B|256:216|132:304,1,263.99999194336,0|10,0:0|0:0,0:0:0
134,302,122710,1,0,0:0:0
45,203,122868,6,0,B|76:66|208:8,1,263.99999194336
336,48,123342,1,10,0:0:0
176,132,123500,1,0,0:0:0
336,216,123657,1,0,0:0:0
176,300,123815,1,0,0:0:0
176,300,123894,1,0,0:0:0
176,300,123973,1,10,0:0:0
176,300,124052,1,0,0:0:0
176,300,124131,1,0,0:0:0
176,300,124210,1,0,0:0:0
176,300,124289,6,0,B|64:212,1,131.99999597168,4|0,0:0|0:0,0:0:0
336,300,124605,2,0,B|448:212,1,131.99999597168,10|0,0:0|0:0,0:0:0
200,184,124921,2,0,B|148:60,1,131.99999597168
312,184,125236,2,0,B|364:60,1,131.99999597168,10|0,0:0|0:0,0:0:0
148,62,125552,6,0,B|28:120,1,131.99999597168,4|0,0:0|0:0,0:0:0
363,62,125868,2,0,B|484:120,1,131.99999597168,10|0,0:0|0:0,0:0:0
200,184,126184,2,0,B|128:304,1,131.99999597168,0|0,0:0|0:0,0:0:0
312,184,126500,2,0,B|384:304,1,131.99999597168,10|0,0:0|0:0,0:0:0
256,48,126815,5,6,0:0:0
256,48,126973,1,0,0:0:0
400,192,127131,1,10,0:0:0
400,192,127289,1,0,0:0:0
112,192,127447,1,6,0:0:0
112,192,127605,1,0,0:0:0
256,336,127763,1,10,0:0:0
256,336,127921,1,0,0:0:0
367,81,128078,6,0,B|320:128,3,65.9999979858399,6|0|0|0,0:0|0:0|0:0|0:0,0:0:0
146,302,128394,2,0,B|192:256,3,65.9999979858399,6|0|0|0,0:0|0:0|0:0|0:0,0:0:0
264,200,128710,5,6,0:0:0
264,200,128789,1,0,0:0:0
264,200,128868,1,0,0:0:0
264,200,128947,1,0,0:0:0
264,200,129026,1,0,0:0:0
264,200,129105,1,0,0:0:0
264,200,129184,1,0,0:0:0
264,200,129263,1,0,0:0:0
264,200,129342,1,4,0:0:0
