osu file format v10

[General]
AudioFilename: nanahira_cut.mp3
AudioLeadIn: 1500
PreviewTime: 40769
Countdown: 0
SampleSet: Soft
StackLeniency: 0.7
Mode: 0
LetterboxInBreaks: 1

[Editor]
Bookmarks: 47558
DistanceSpacing: 1
BeatDivisor: 4
GridSize: 4

[Metadata]
Title:Nakimushi Girl
TitleUnicode:Nakimushi Girl
Artist:Nanahira
ArtistUnicode:Nanahira
Creator:Star Stream
Version:Easy
Source:Nico Nico Douga
Tags:hatsune miku vocaloid piichica kakuteip tutuhaha winber1 Guy
BeatmapID:172644
BeatmapSetID:57243

[Difficulty]
HPDrainRate:2
CircleSize:3
OverallDifficulty:2
ApproachRate:3
SliderMultiplier:0.899999999999999
SliderTickRate:1

[Events]
//Background and Video events
0,0,"loli.jpg"
//Break Periods
2,66390,74849
//Storyboard Layer 0 (Background)
//Storyboard Layer 1 (Fail)
//Storyboard Layer 2 (Pass)
//Storyboard Layer 3 (Foreground)
//Storyboard Sound Samples
//Background Colour Transformations
3,100,163,162,255

[TimingPoints]
500,315.789473684211,4,2,1,50,1,0
3026,-100,4,2,1,100,0,0
40921,-100,4,2,1,100,0,1
50710,-100,4,2,1,100,0,0
51026,-100,4,2,1,100,0,1
66184,-100,4,2,1,100,0,0
104078,-100,4,2,1,100,0,1
113868,-100,4,2,1,100,0,0
114184,-100,4,2,1,100,0,1
129342,-100,4,2,1,100,0,0

[Colours]
Combo1 : 70,255,255
Combo2 : 255,255,128
Combo3 : 255,151,203

[HitObjects]
168,56,499,1,0,0:0:0
344,56,1131,1,0,0:0:0
256,212,1763,2,0,B|224:256|256:296|256:296|288:340|256:380,1,180
104,284,3026,6,0,B|104:208|104:144|180:120,1,180,4|8,0:0|0:0,0:0:0
348,126,4289,2,0,B|408:144|408:208|408:284,1,180,0|8,0:0|0:0,0:0:0
256,380,5552,5,8,0:0:0
136,248,6184,1,8,0:0:0
256,112,6815,2,0,B|340:112|368:144|368:224,2,180,0|8|0,0:0|0:0|0:0,0:0:0
136,248,8710,5,8,0:0:0
24,108,9342,2,0,B|76:24|176:28,1,180,0|8,0:0|0:0,0:0:0
272,212,10605,2,0,B|173:208|126:120,1,180,0|8,0:0|0:0,0:0:0
308,104,11868,2,0,P|443:182|331:375|196:297,1,360,0|4,0:0|0:0,0:0:0
200,108,13763,5,8,0:0:0
56,216,14394,2,0,B|100:312|204:300,1,180,0|8,0:0|0:0,0:0:0
328,176,15657,5,0,0:0:0
452,304,16289,1,8,0:0:0
328,176,16921,2,0,B|268:92|168:128,2,180,0|8|0,0:0|0:0|0:0,0:0:0
200,304,18815,5,8,0:0:0
48,208,19447,2,0,B|-8:120|48:40,1,180,0|8,0:0|0:0,0:0:0
208,124,20710,6,0,B|392:124,2,180,0|8|0,0:0|0:0|0:0,0:0:0
212,304,22605,2,0,B|300:360|380:303,1,180,8|4,0:0|0:0,0:0:0
296,144,23868,5,8,0:0:0
136,60,24500,2,0,B|79:140|135:228,1,180,0|8,0:0|0:0,0:0:0
296,312,25763,5,12,0:0:0
376,152,26394,1,12,0:0:0
216,72,27026,1,12,0:0:0
136,232,27657,1,12,0:0:0
296,312,28289,6,0,B|372:256|372:256|340:228|348:176,1,180,4|8,0:0|0:0,0:0:0
216,312,29552,2,0,B|140:256|140:256|172:228|164:176,1,180,4|8,0:0|0:0,0:0:0
256,24,30815,6,0,P|296:108|408:100|408:100|400:204|304:232,1,360,4|8,0:0|0:0,0:0:0
128,256,32710,1,8,0:0:0
200,88,33342,6,0,B|124:96|96:168,2,135,6|2|0,0:0|0:0|0:0,0:0:0
184,176,34605,2,0,B|152:245|201:306,2,135,2|2|0,0:0|0:0|0:0,0:0:0
252,236,35868,6,0,B|310:316|409:301,1,180,2|2,0:0|0:0,0:0:0
396,120,37131,2,0,B|337:39|238:54,1,180,2|2,0:0|0:0,0:0:0
120,192,38394,5,6,0:0:0
256,328,39026,1,6,0:0:0
392,192,39657,1,6,0:0:0
256,56,40289,1,6,0:0:0
120,192,40921,6,0,B|24:220,1,89.9999999999999,6|0,0:0|0:0,0:0:0
100,280,41552,2,0,B|76:377,1,89.9999999999999,2|0,0:0|0:0,0:0:0
164,340,42184,2,2,B|240:392|336:356,1,180,2|2,0:0|0:0,0:0:0
392,192,43447,6,0,B|488:220,1,89.9999999999999,2|0,0:0|0:0,0:0:0
412,280,44078,2,0,B|435:377,1,89.9999999999999,2|0,0:0|0:0,0:0:0
348,340,44710,2,0,B|272:392|176:356,1,180,2|2,0:0|0:0,0:0:0
32,248,45973,5,0,0:0:0
60,164,46289,2,0,B|152:156|152:156|188:120|184:64,1,180,2|2,0:0|0:0,0:0:0
256,132,47236,1,0,0:0:0
327,77,47552,2,0,B|324:120|360:156|360:156|452:164,1,180,2|2,0:0|0:0,0:0:0
480,248,48500,6,0,B|424:328,1,89.9999999999999,2|0,0:0|0:0,0:0:0
348,280,49131,2,0,B|292:200,1,89.9999999999999,2|0,0:0|0:0,0:0:0
248,284,49763,2,0,B|188:364|80:340,1,180,2|2,0:0|0:0,0:0:0
212,208,51026,6,0,B|256:184|300:208,1,89.9999999999999,6|0,0:0|0:0,0:0:0
348,132,51657,2,0,B|304:108|304:55,1,89.9999999999999,2|0,0:0|0:0,0:0:0
212,60,52289,2,0,B|124:108|124:206,1,180,2|2,0:0|0:0,0:0:0
48,368,53552,6,0,B|76:332|128:324,1,89.9999999999999,2|0,0:0|0:0,0:0:0
216,324,54184,2,0,B|264:331|292:367,1,89.9999999999999,2|0,0:0|0:0,0:0:0
384,368,54815,2,0,B|392:276|464:212,1,180,2|2,0:0|0:0,0:0:0
412,140,55763,1,0,0:0:0
336,92,56078,6,0,B|256:164|176:92,1,180,2|2,0:0|0:0,0:0:0
176,292,57342,2,0,B|256:220|336:292,1,180,2|2,0:0|0:0,0:0:0
188,192,58605,6,0,B|144:164|104:192|104:192|64:224|20:192,2,180,2|2|2,0:0|0:0|0:0,0:0:0
368,192,60500,1,2,0:0:0
256,52,61131,6,0,B|160:76|132:172,1,180,6|2,0:0|0:0,0:0:0
256,52,62394,2,0,B|352:76|380:172,1,180,6|2,0:0|0:0,0:0:0
256,192,63657,12,4,66184,0:0:0
140,224,76289,5,4,0:0:0
312,276,76921,1,8,0:0:0
456,168,77552,2,0,B|412:72|308:84,1,180,0|8,0:0|0:0,0:0:0
184,208,78815,5,0,0:0:0
60,80,79447,1,8,0:0:0
184,208,80078,2,0,B|244:292|344:256,2,180,0|8|0,0:0|0:0|0:0,0:0:0
312,80,81973,5,8,0:0:0
464,176,82605,2,0,B|520:264|464:344,1,180,0|8,0:0|0:0,0:0:0
304,260,83868,6,0,B|120:260,2,180,0|8|0,0:0|0:0|0:0,0:0:0
300,80,85763,2,0,B|212:24|132:81,1,180,8|4,0:0|0:0,0:0:0
216,240,87026,5,8,0:0:0
376,324,87657,2,0,B|433:244|377:156,1,180,0|8,0:0|0:0,0:0:0
216,72,88921,5,12,0:0:0
136,232,89552,1,12,0:0:0
296,312,90184,1,12,0:0:0
376,152,90815,1,12,0:0:0
216,72,91447,6,0,B|140:128|140:128|172:156|164:208,1,180,4|8,0:0|0:0,0:0:0
296,72,92710,2,0,B|372:128|372:128|340:156|348:208,1,180,4|8,0:0|0:0,0:0:0
256,360,93973,6,0,P|216:276|104:284|104:284|112:180|208:152,1,360,4|8,0:0|0:0,0:0:0
384,128,95868,1,8,0:0:0
312,296,96500,6,0,B|388:288|416:216,2,135,6|2|0,0:0|0:0|0:0,0:0:0
328,208,97763,2,0,B|360:139|311:78,2,135,2|2|0,0:0|0:0|0:0,0:0:0
260,148,99026,6,0,B|202:68|103:83,1,180,2|2,0:0|0:0,0:0:0
116,264,100289,2,0,B|175:345|274:330,1,180,2|2,0:0|0:0,0:0:0
392,192,101552,5,6,0:0:0
256,56,102184,1,6,0:0:0
120,192,102815,1,6,0:0:0
256,328,103447,1,6,0:0:0
392,192,104078,6,0,B|488:164,1,89.9999999999999,6|0,0:0|0:0,0:0:0
412,104,104710,2,0,B|436:7,1,89.9999999999999,2|0,0:0|0:0,0:0:0
348,44,105342,2,2,B|272:-8|176:28,1,180,2|2,0:0|0:0,0:0:0
120,192,106605,6,0,B|24:164,1,89.9999999999999,2|0,0:0|0:0,0:0:0
100,104,107236,2,0,B|77:7,1,89.9999999999999,2|0,0:0|0:0,0:0:0
164,44,107868,2,0,B|240:-8|336:28,1,180,2|2,0:0|0:0,0:0:0
480,136,109131,5,0,0:0:0
452,220,109447,2,0,B|360:228|360:228|324:264|328:320,1,180,2|2,0:0|0:0,0:0:0
256,252,110394,1,0,0:0:0
185,307,110710,2,0,B|188:264|152:228|152:228|60:220,1,180,2|2,0:0|0:0,0:0:0
32,136,111657,6,0,B|88:56,1,89.9999999999999,2|0,0:0|0:0,0:0:0
164,104,112289,2,0,B|220:184,1,89.9999999999999,2|0,0:0|0:0,0:0:0
264,100,112921,2,0,B|324:20|432:44,1,180,2|2,0:0|0:0,0:0:0
300,176,114184,6,0,B|256:200|212:176,1,89.9999999999999,6|0,0:0|0:0,0:0:0
164,252,114815,2,0,B|208:276|207:328,1,89.9999999999999,2|0,0:0|0:0,0:0:0
300,324,115447,2,0,B|384:272|383:173,1,180,2|2,0:0|0:0,0:0:0
464,16,116710,6,0,B|436:52|384:60,1,89.9999999999999,2|0,0:0|0:0,0:0:0
296,60,117342,2,0,B|247:52|219:16,1,89.9999999999999,2|0,0:0|0:0,0:0:0
128,16,117973,2,0,B|120:108|48:172,1,180,2|2,0:0|0:0,0:0:0
100,244,118921,1,0,0:0:0
176,292,119236,6,0,B|256:220|336:292,1,180,2|2,0:0|0:0,0:0:0
336,92,120500,2,0,B|256:164|176:92,1,180,2|2,0:0|0:0,0:0:0
324,192,121763,6,0,B|368:220|408:192|408:192|448:160|492:192,2,180,2|2|2,0:0|0:0|0:0,0:0:0
144,192,123657,1,2,0:0:0
256,332,124289,6,0,B|352:308|380:212,1,180,6|2,0:0|0:0,0:0:0
256,332,125552,2,0,B|160:308|132:212,1,180,6|2,0:0|0:0,0:0:0
256,192,126815,12,4,129342,0:0:0
