osu file format v14

[General]
AudioFilename: Monosugoku Kuruttoru Flan-chan ga Monosugoi Uta.mp3
AudioLeadIn: 0
PreviewTime: 31331
Countdown: 0
SampleSet: Normal
StackLeniency: 0.7
Mode: 1
LetterboxInBreaks: 0
WidescreenStoryboard: 0

[Editor]
DistanceSpacing: 1.2
BeatDivisor: 4
GridSize: 32
TimelineZoom: 3.499999

[Metadata]
Title:Monosugoku Kuruttoru Flan-chan ga Monosugoi Uta
TitleUnicode:物凄い狂っとるフランちゃんが物凄いうた
Artist:Nanahira
ArtistUnicode:ななひら
Creator:aabc271
Version:Inner Oni
Source:
Tags:Taiko SOUND VOLTEX III GRAVITY WARS SDVXIII Touhou The Embodiment of Scarlet Devil 東方紅魔郷 Flandre Scarlet フランドール・スカーレット 魔法少女達の百年祭 物凄いベスト Halozy matthewhln climbb65588
BeatmapID:665760
BeatmapSetID:296524

[Difficulty]
HPDrainRate:5
CircleSize:5
OverallDifficulty:5
ApproachRate:7
SliderMultiplier:1.4
SliderTickRate:1

[Events]
//Background and Video events
0,0,"BG.jpg",0,-40
//Break Periods
//Storyboard Layer 0 (Background)
//Storyboard Layer 1 (Fail)
//Storyboard Layer 2 (Pass)
//Storyboard Layer 3 (Foreground)
//Storyboard Sound Samples

[TimingPoints]
3184,352.941176470588,4,1,0,90,1,0
3184,-105.263157894737,4,1,0,90,0,0
8831,-100,4,1,0,90,0,0
14478,-95.2380952380952,4,1,0,90,0,0
15007,-94.3396226415094,4,1,0,90,0,0
15536,-93.4579439252336,4,1,0,90,0,0
16066,-92.5925925925926,4,1,0,90,0,0
16595,-91.743119266055,4,1,0,90,0,0
17654,-90.9090909090909,4,1,0,90,0,0
18713,-90.0900900900901,4,1,0,90,0,0
20125,-100,4,1,0,90,0,0
31066,-71.4285714285714,4,1,0,90,0,0
31419,-100,4,1,0,90,0,0
42713,-95.2380952380952,4,1,0,90,0,0
43242,-94.3396226415094,4,1,0,90,0,0
43772,-93.4579439252336,4,1,0,90,0,0
44654,-92.5925925925926,4,1,0,90,0,0
45183,-91.743119266055,4,1,0,90,0,0
46066,-90.9090909090909,4,1,0,90,0,0
46595,-90.0900900900901,4,1,0,90,0,0
48360,408.163265306122,4,1,0,30,1,0
49992,468.75,4,1,0,90,1,0
61242,461.538461538462,4,1,0,90,1,0
63088,434.782608695652,4,1,0,90,1,0
64827,422.535211267606,4,1,0,90,1,0
66517,405.405405405405,4,1,0,90,1,0
68138,394.736842105263,4,1,0,90,1,0
68532,-98.0392156862745,4,1,0,90,0,0
68927,-96.1538461538461,4,1,0,90,0,0
69322,-94.3396226415094,4,1,0,90,0,0
69716,384.615384615385,4,1,0,90,1,0
69716,-92.5925925925926,4,1,0,90,0,0
70100,-90.9090909090909,4,1,0,90,0,0
70485,-89.2857142857143,4,1,0,90,0,0
70869,-87.719298245614,4,1,0,90,0,0
71254,370.37037037037,4,1,0,90,1,0
71254,-86.2068965517241,4,1,0,90,0,0
71439,-84.7457627118644,4,1,0,90,0,0
71624,-83.3333333333333,4,1,0,90,0,0
71809,-81.9672131147541,4,1,0,90,0,0
71994,-80.6451612903226,4,1,0,90,0,0
72179,-79.3650793650794,4,1,0,90,0,0
72365,-78.125,4,1,0,90,0,0
72550,-76.9230769230769,4,1,0,90,0,0
72735,357.142857142857,4,1,0,90,1,0
72735,-75.7575757575758,4,1,0,90,0,0
72913,-74.6268656716418,4,1,0,90,0,0
73092,-73.5294117647059,4,1,0,90,0,0
73270,-72.463768115942,4,1,0,90,0,0
73449,-71.4285714285714,4,1,0,90,0,0
73627,-70.4225352112676,4,1,0,90,0,0
73806,-69.4444444444444,4,1,0,90,0,0
73985,-68.4931506849315,4,1,0,90,0,0
79877,352.941176470588,4,1,0,90,1,0
79877,-68.4931506849315,4,1,0,90,0,0
82347,-55.5555555555556,4,1,0,90,0,0
82700,-90.9090909090909,4,1,0,100,0,1
92759,-89.8876404494382,4,1,0,100,0,1
92935,-88.8888888888889,4,1,0,100,0,1
93112,-87.9120879120879,4,1,0,100,0,1
93288,-86.9565217391304,4,1,0,100,0,1
93465,-86.0215053763441,4,1,0,100,0,1
93641,-85.1063829787234,4,1,0,100,0,1
93818,-84.2105263157895,4,1,0,100,0,1
93994,-83.3333333333333,4,1,0,100,0,1
104935,-55.5555555555556,4,1,0,100,0,1
105288,-83.3333333333333,4,1,0,90,0,0
105641,-84.7457627118644,4,1,0,90,0,0
105994,-86.2068965517241,4,1,0,90,0,0
106259,-87.3362445414847,4,1,0,90,0,0
106347,-87.719298245614,4,1,0,90,0,0
106524,-88.4955752212389,4,1,0,90,0,0
106700,-89.2857142857143,4,1,0,90,0,0
106788,-89.6860986547085,4,1,0,90,0,0
106965,-90.4977375565611,4,1,0,90,0,0
107053,-90.9090909090909,4,1,0,90,0,0
107229,-91.743119266055,4,1,0,90,0,0
107406,-92.5925925925926,4,1,0,90,0,0
107582,-93.4579439252336,4,1,0,90,0,0
107671,-93.8967136150235,4,1,0,90,0,0
107759,-94.3396226415094,4,1,0,90,0,0
107935,-95.2380952380952,4,1,0,90,0,0
108112,-96.1538461538461,4,1,0,90,0,0
108465,-98.0392156862745,4,1,0,90,0,0
108818,-100,4,1,0,90,0,0
116229,-71.4285714285714,4,1,0,90,0,0
116582,-100,4,1,0,60,0,0

[HitObjects]
256,192,3184,5,8,0:0:0:0:
256,192,3272,1,8,0:0:0:0:
256,192,3360,1,8,0:0:0:0:
256,192,3448,1,8,0:0:0:0:
256,192,3536,5,0,0:0:0:0:
256,192,3713,1,0,0:0:0:0:
256,192,3889,1,0,0:0:0:0:
256,192,4066,1,0,0:0:0:0:
256,192,4242,5,8,0:0:0:0:
256,192,4595,5,0,0:0:0:0:
256,192,4683,1,0,0:0:0:0:
256,192,4772,1,0,0:0:0:0:
256,192,4860,1,0,0:0:0:0:
256,192,4948,5,8,0:0:0:0:
256,192,5125,1,8,0:0:0:0:
256,192,5301,5,0,0:0:0:0:
256,192,5654,1,0,0:0:0:0:
256,192,5831,5,8,0:0:0:0:
256,192,6007,1,8,0:0:0:0:
256,192,6095,1,8,0:0:0:0:
256,192,6183,1,8,0:0:0:0:
256,192,6272,1,8,0:0:0:0:
256,192,6360,5,0,0:0:0:0:
256,192,6536,1,0,0:0:0:0:
256,192,6713,1,0,0:0:0:0:
256,192,6889,1,0,0:0:0:0:
256,192,7066,5,8,0:0:0:0:
256,192,7419,5,8,0:0:0:0:
256,192,7595,5,0,0:0:0:0:
256,192,7683,5,8,0:0:0:0:
256,192,7772,5,0,0:0:0:0:
256,192,7948,5,8,0:0:0:0:
256,192,8125,5,0,0:0:0:0:
256,192,8213,5,8,0:0:0:0:
256,192,8301,5,0,0:0:0:0:
256,192,8478,5,8,0:0:0:0:
256,192,8831,1,12,0:0:0:0:
256,192,9007,1,8,0:0:0:0:
256,192,9095,1,8,0:0:0:0:
256,192,9183,5,0,0:0:0:0:
256,192,9360,5,8,0:0:0:0:
256,192,9448,1,8,0:0:0:0:
256,192,9536,5,0,0:0:0:0:
256,192,9713,1,0,0:0:0:0:
256,192,9889,5,8,0:0:0:0:
256,192,10242,5,0,0:0:0:0:
256,192,10419,1,0,0:0:0:0:
256,192,10507,1,0,0:0:0:0:
256,192,10595,5,8,0:0:0:0:
256,192,10772,1,8,0:0:0:0:
256,192,10948,5,0,0:0:0:0:
256,192,11301,1,0,0:0:0:0:
256,192,11478,5,8,0:0:0:0:
256,192,11654,1,8,0:0:0:0:
256,192,11831,1,8,0:0:0:0:
256,192,11919,1,8,0:0:0:0:
256,192,12007,5,0,0:0:0:0:
256,192,12183,5,8,0:0:0:0:
256,192,12272,1,8,0:0:0:0:
256,192,12360,5,0,0:0:0:0:
256,192,12536,1,0,0:0:0:0:
256,192,12713,5,8,0:0:0:0:
256,192,13066,1,8,0:0:0:0:
256,192,13242,5,0,0:0:0:0:
256,192,13331,5,8,0:0:0:0:
256,192,13419,5,0,0:0:0:0:
256,192,13595,5,8,0:0:0:0:
256,192,13772,5,0,0:0:0:0:
256,192,13860,5,8,0:0:0:0:
256,192,13948,5,0,0:0:0:0:
256,192,14125,5,8,0:0:0:0:
256,192,14478,1,12,0:0:0:0:
256,192,14654,5,0,0:0:0:0:
256,192,14742,5,8,0:0:0:0:
256,192,14831,5,0,0:0:0:0:
256,192,15007,5,8,0:0:0:0:
256,192,15183,5,0,0:0:0:0:
256,192,15272,5,8,0:0:0:0:
256,192,15360,5,0,0:0:0:0:
256,192,15536,5,8,0:0:0:0:
256,192,15625,5,0,0:0:0:0:
256,192,15713,1,0,0:0:0:0:
256,192,15801,1,0,0:0:0:0:
256,192,15889,5,8,0:0:0:0:
256,192,16066,5,0,0:0:0:0:
256,192,16154,5,8,0:0:0:0:
256,192,16242,5,0,0:0:0:0:
256,192,16419,5,8,0:0:0:0:
256,192,16595,5,0,0:0:0:0:
256,192,16683,5,8,0:0:0:0:
256,192,16772,5,0,0:0:0:0:
256,192,16948,1,8,0:0:0:0:
256,192,17036,1,8,0:0:0:0:
256,192,17125,5,0,0:0:0:0:
256,192,17213,1,0,0:0:0:0:
256,192,17301,5,8,0:0:0:0:
256,192,17389,1,8,0:0:0:0:
256,192,17478,5,0,0:0:0:0:
256,192,17654,5,8,0:0:0:0:
256,192,17742,1,8,0:0:0:0:
256,192,17831,5,0,0:0:0:0:
256,192,18007,5,8,0:0:0:0:
256,192,18095,1,8,0:0:0:0:
256,192,18183,5,0,0:0:0:0:
256,192,18272,1,0,0:0:0:0:
256,192,18360,5,8,0:0:0:0:
256,192,18448,1,8,0:0:0:0:
256,192,18536,5,0,0:0:0:0:
256,192,18713,1,0,0:0:0:0:
256,192,18889,5,8,0:0:0:0:
256,192,19066,5,0,0:0:0:0:
256,192,19242,1,0,0:0:0:0:
256,192,19419,5,8,0:0:0:0:
256,192,20125,1,12,0:0:0:0:
256,192,20478,1,8,0:0:0:0:
256,192,20831,1,8,0:0:0:0:
256,192,21095,1,8,0:0:0:0:
256,192,21183,5,0,0:0:0:0:
256,192,21360,5,8,0:0:0:0:
256,192,21536,5,0,0:0:0:0:
256,192,21625,5,8,0:0:0:0:
256,192,21801,5,0,0:0:0:0:
256,192,21889,5,8,0:0:0:0:
256,192,22066,5,0,0:0:0:0:
256,192,22242,5,8,0:0:0:0:
256,192,22419,5,0,0:0:0:0:
256,192,22507,5,8,0:0:0:0:
256,192,22595,1,8,0:0:0:0:
256,192,22772,1,8,0:0:0:0:
256,192,22948,1,8,0:0:0:0:
256,192,23301,1,8,0:0:0:0:
256,192,23654,1,8,0:0:0:0:
256,192,23919,1,8,0:0:0:0:
256,192,24007,5,0,0:0:0:0:
256,192,24183,5,8,0:0:0:0:
256,192,24360,5,0,0:0:0:0:
256,192,24448,5,8,0:0:0:0:
256,192,24625,5,0,0:0:0:0:
256,192,24713,5,8,0:0:0:0:
256,192,24889,5,0,0:0:0:0:
256,192,25066,5,8,0:0:0:0:
256,192,25242,1,8,0:0:0:0:
256,192,25331,5,0,0:0:0:0:
256,192,25507,5,8,0:0:0:0:
256,192,25595,5,0,0:0:0:0:
256,192,25772,5,8,0:0:0:0:
256,192,26125,1,8,0:0:0:0:
256,192,26478,1,8,0:0:0:0:
256,192,26742,1,8,0:0:0:0:
256,192,26831,5,0,0:0:0:0:
256,192,27007,5,8,0:0:0:0:
256,192,27183,5,0,0:0:0:0:
256,192,27272,5,8,0:0:0:0:
256,192,27448,5,0,0:0:0:0:
256,192,27536,5,8,0:0:0:0:
256,192,27713,5,0,0:0:0:0:
256,192,27889,5,8,0:0:0:0:
256,192,28066,5,0,0:0:0:0:
256,192,28154,5,8,0:0:0:0:
256,192,28242,1,8,0:0:0:0:
256,192,28419,1,8,0:0:0:0:
256,192,28595,1,8,0:0:0:0:
256,192,28948,1,8,0:0:0:0:
256,192,29301,1,8,0:0:0:0:
256,192,29566,1,8,0:0:0:0:
256,192,29654,5,0,0:0:0:0:
256,192,29831,5,8,0:0:0:0:
256,192,30007,1,8,0:0:0:0:
256,192,30183,5,0,0:0:0:0:
256,192,30272,5,8,0:0:0:0:
256,192,30448,5,0,0:0:0:0:
256,192,30536,5,8,0:0:0:0:
256,192,30713,1,8,0:0:0:0:
256,192,31066,1,12,0:0:0:0:
256,192,31419,1,12,0:0:0:0:
256,192,31595,1,8,0:0:0:0:
256,192,31683,1,8,0:0:0:0:
256,192,31772,5,0,0:0:0:0:
256,192,31948,1,0,0:0:0:0:
256,192,32125,1,0,0:0:0:0:
256,192,32301,1,0,0:0:0:0:
256,192,32478,5,8,0:0:0:0:
256,192,32831,5,0,0:0:0:0:
256,192,33007,1,0,0:0:0:0:
256,192,33095,1,0,0:0:0:0:
256,192,33183,5,8,0:0:0:0:
256,192,33360,1,8,0:0:0:0:
256,192,33536,5,0,0:0:0:0:
256,192,33889,1,0,0:0:0:0:
256,192,34066,5,8,0:0:0:0:
256,192,34242,1,8,0:0:0:0:
256,192,34419,1,8,0:0:0:0:
256,192,34507,1,8,0:0:0:0:
256,192,34595,5,0,0:0:0:0:
256,192,34772,1,0,0:0:0:0:
256,192,34948,1,0,0:0:0:0:
256,192,35036,1,0,0:0:0:0:
256,192,35125,1,0,0:0:0:0:
256,192,35213,1,0,0:0:0:0:
256,192,35301,5,8,0:0:0:0:
256,192,35654,1,8,0:0:0:0:
256,192,35831,1,8,0:0:0:0:
256,192,35919,5,0,0:0:0:0:
256,192,36007,1,0,0:0:0:0:
256,192,36183,5,8,0:0:0:0:
256,192,36360,1,8,0:0:0:0:
256,192,36448,5,0,0:0:0:0:
256,192,36536,1,0,0:0:0:0:
256,192,36713,5,8,0:0:0:0:
256,192,37066,1,12,0:0:0:0:
256,192,37242,1,8,0:0:0:0:
256,192,37331,1,8,0:0:0:0:
256,192,37419,5,0,0:0:0:0:
256,192,37595,5,8,0:0:0:0:
256,192,37683,1,8,0:0:0:0:
256,192,37772,5,0,0:0:0:0:
256,192,37948,1,0,0:0:0:0:
256,192,38125,5,8,0:0:0:0:
256,192,38478,5,0,0:0:0:0:
256,192,38566,1,0,0:0:0:0:
256,192,38654,1,0,0:0:0:0:
256,192,38742,1,0,0:0:0:0:
256,192,38831,5,8,0:0:0:0:
256,192,39007,1,8,0:0:0:0:
256,192,39183,5,0,0:0:0:0:
256,192,39536,1,0,0:0:0:0:
256,192,39713,5,8,0:0:0:0:
256,192,39889,1,8,0:0:0:0:
256,192,40066,1,8,0:0:0:0:
256,192,40154,1,8,0:0:0:0:
256,192,40242,5,0,0:0:0:0:
256,192,40419,5,8,0:0:0:0:
256,192,40507,1,8,0:0:0:0:
256,192,40595,5,0,0:0:0:0:
256,192,40772,1,0,0:0:0:0:
256,192,40948,5,8,0:0:0:0:
256,192,41301,1,8,0:0:0:0:
256,192,41478,5,8,0:0:0:0:
256,192,41566,1,0,0:0:0:0:
256,192,41654,1,0,0:0:0:0:
256,192,41831,5,8,0:0:0:0:
256,192,42007,1,8,0:0:0:0:
256,192,42095,5,0,0:0:0:0:
256,192,42183,1,0,0:0:0:0:
256,192,42360,5,8,0:0:0:0:
256,192,42713,1,12,0:0:0:0:
256,192,42889,1,8,0:0:0:0:
256,192,42978,5,0,0:0:0:0:
256,192,43066,1,0,0:0:0:0:
256,192,43242,5,8,0:0:0:0:
256,192,43419,1,8,0:0:0:0:
256,192,43507,5,0,0:0:0:0:
256,192,43595,1,0,0:0:0:0:
256,192,43772,5,8,0:0:0:0:
256,192,43860,5,0,0:0:0:0:
256,192,43948,1,0,0:0:0:0:
256,192,44036,1,0,0:0:0:0:
256,192,44125,5,8,0:0:0:0:
256,192,44213,5,0,0:0:0:0:
256,192,44301,1,0,0:0:0:0:
256,192,44389,5,8,0:0:0:0:
256,192,44478,5,0,0:0:0:0:
256,192,44654,5,8,0:0:0:0:
256,192,44742,5,0,0:0:0:0:
256,192,44831,1,0,0:0:0:0:
256,192,44919,5,8,0:0:0:0:
256,192,45007,5,0,0:0:0:0:
256,192,45183,5,8,0:0:0:0:
256,192,45272,1,8,0:0:0:0:
256,192,45360,5,0,0:0:0:0:
256,192,45448,1,0,0:0:0:0:
256,192,45536,5,8,0:0:0:0:
256,192,45625,1,8,0:0:0:0:
256,192,45713,5,0,0:0:0:0:
256,192,45801,5,8,0:0:0:0:
256,192,45889,5,0,0:0:0:0:
256,192,46066,5,8,0:0:0:0:
256,192,46154,1,8,0:0:0:0:
256,192,46242,5,0,0:0:0:0:
256,192,46331,5,8,0:0:0:0:
256,192,46419,5,0,0:0:0:0:
256,192,46595,5,8,0:0:0:0:
256,192,46683,1,8,0:0:0:0:
256,192,46772,5,0,0:0:0:0:
256,192,46860,5,8,0:0:0:0:
256,192,46948,5,0,0:0:0:0:
256,192,47125,5,8,0:0:0:0:
256,192,47301,1,8,0:0:0:0:
256,192,47478,5,0,0:0:0:0:
256,192,47654,5,8,0:0:0:0:
256,192,48360,12,0,49890,0:0:0:0:
256,192,49992,5,12,0:0:0:0:
256,192,50460,1,8,0:0:0:0:
256,192,50929,1,8,0:0:0:0:
256,192,51281,1,8,0:0:0:0:
256,192,51398,5,0,0:0:0:0:
256,192,51632,5,8,0:0:0:0:
256,192,51867,5,0,0:0:0:0:
256,192,51984,5,8,0:0:0:0:
256,192,52218,5,0,0:0:0:0:
256,192,52335,5,8,0:0:0:0:
256,192,52570,5,0,0:0:0:0:
256,192,52687,1,0,0:0:0:0:
256,192,52804,5,8,0:0:0:0:
256,192,53038,5,0,0:0:0:0:
256,192,53156,5,8,0:0:0:0:
256,192,53390,1,8,0:0:0:0:
256,192,53507,1,8,0:0:0:0:
256,192,53742,1,8,0:0:0:0:
256,192,53976,1,8,0:0:0:0:
256,192,54093,5,0,0:0:0:0:
256,192,54210,1,0,0:0:0:0:
256,192,54679,5,8,0:0:0:0:
256,192,54913,1,8,0:0:0:0:
256,192,55031,5,0,0:0:0:0:
256,192,55148,1,0,0:0:0:0:
256,192,55617,5,8,0:0:0:0:
256,192,55851,1,8,0:0:0:0:
256,192,55968,5,0,0:0:0:0:
256,192,56085,5,8,0:0:0:0:
256,192,56320,1,8,0:0:0:0:
256,192,56437,5,0,0:0:0:0:
256,192,56554,5,8,0:0:0:0:
256,192,56788,1,8,0:0:0:0:
256,192,56906,5,0,0:0:0:0:
256,192,57023,1,0,0:0:0:0:
256,192,57492,5,8,0:0:0:0:
256,192,57726,1,8,0:0:0:0:
256,192,57843,5,0,0:0:0:0:
256,192,57960,1,0,0:0:0:0:
256,192,58429,5,8,0:0:0:0:
256,192,58663,1,8,0:0:0:0:
256,192,58781,5,0,0:0:0:0:
256,192,58898,1,0,0:0:0:0:
256,192,59367,5,8,0:0:0:0:
256,192,59601,1,8,0:0:0:0:
256,192,59718,5,0,0:0:0:0:
256,192,59835,5,8,0:0:0:0:
256,192,59952,1,8,0:0:0:0:
256,192,60070,1,8,0:0:0:0:
256,192,60187,5,0,0:0:0:0:
256,192,60304,5,8,0:0:0:0:
256,192,60538,1,8,0:0:0:0:
256,192,60656,5,0,0:0:0:0:
256,192,60773,1,0,0:0:0:0:
256,192,61242,5,8,0:0:0:0:
256,192,61357,1,8,0:0:0:0:
256,192,61472,5,0,0:0:0:0:
256,192,61588,1,0,0:0:0:0:
256,192,61703,5,8,0:0:0:0:
256,192,61818,1,8,0:0:0:0:
256,192,61934,5,0,0:0:0:0:
256,192,62049,1,0,0:0:0:0:
256,192,62165,5,8,0:0:0:0:
256,192,63088,5,0,0:0:0:0:
256,192,63196,5,8,0:0:0:0:
256,192,63305,5,0,0:0:0:0:
256,192,63414,1,0,0:0:0:0:
256,192,63522,5,8,0:0:0:0:
256,192,63631,5,0,0:0:0:0:
256,192,63740,5,8,0:0:0:0:
256,192,63957,1,8,0:0:0:0:
256,192,64827,5,0,0:0:0:0:
256,192,65038,5,8,0:0:0:0:
256,192,65143,5,0,0:0:0:0:
256,192,65249,5,8,0:0:0:0:
256,192,65355,5,0,0:0:0:0:
256,192,65460,5,8,0:0:0:0:
256,192,65672,1,8,0:0:0:0:
256,192,66517,5,0,0:0:0:0:
256,192,66618,5,8,0:0:0:0:
256,192,66719,1,8,0:0:0:0:
256,192,66821,1,8,0:0:0:0:
256,192,66922,1,8,0:0:0:0:
256,192,67023,1,8,0:0:0:0:
256,192,67125,5,0,0:0:0:0:
256,192,67226,1,0,0:0:0:0:
256,192,67327,5,8,0:0:0:0:
256,192,68138,5,4,0:0:0:0:
256,192,68532,5,12,0:0:0:0:
256,192,68927,5,4,0:0:0:0:
256,192,69322,5,12,0:0:0:0:
256,192,69716,5,4,0:0:0:0:
256,192,70100,5,12,0:0:0:0:
256,192,70485,5,4,0:0:0:0:
256,192,70869,5,12,0:0:0:0:
256,192,71254,5,4,0:0:0:0:
256,192,71439,5,12,0:0:0:0:
256,192,71624,5,4,0:0:0:0:
256,192,71809,5,12,0:0:0:0:
256,192,71994,5,4,0:0:0:0:
256,192,72179,5,12,0:0:0:0:
256,192,72365,5,4,0:0:0:0:
256,192,72550,5,12,0:0:0:0:
256,192,72735,5,4,0:0:0:0:
256,192,72913,5,12,0:0:0:0:
256,192,73092,5,4,0:0:0:0:
256,192,73270,5,12,0:0:0:0:
256,192,73449,5,4,0:0:0:0:
256,192,73627,5,12,0:0:0:0:
256,192,73806,5,4,0:0:0:0:
256,192,73985,5,12,0:0:0:0:
256,192,74163,1,8,0:0:0:0:
256,192,74342,5,0,0:0:0:0:
256,192,74431,1,0,0:0:0:0:
256,192,74520,5,8,0:0:0:0:
256,192,74877,1,8,0:0:0:0:
256,192,75056,5,0,0:0:0:0:
256,192,75145,1,0,0:0:0:0:
256,192,75235,5,8,0:0:0:0:
256,192,75592,1,8,0:0:0:0:
256,192,75770,5,0,0:0:0:0:
256,192,75860,1,0,0:0:0:0:
256,192,75949,5,8,0:0:0:0:
256,192,76127,5,0,0:0:0:0:
256,192,76306,5,8,0:0:0:0:
256,192,76395,1,8,0:0:0:0:
256,192,76485,5,0,0:0:0:0:
256,192,76574,1,0,0:0:0:0:
256,192,76663,5,8,0:0:0:0:
256,192,77020,5,0,0:0:0:0:
256,192,77199,5,8,0:0:0:0:
256,192,77288,5,0,0:0:0:0:
256,192,77377,5,8,0:0:0:0:
256,192,77735,5,0,0:0:0:0:
256,192,77913,5,8,0:0:0:0:
256,192,78002,5,0,0:0:0:0:
256,192,78092,5,8,0:0:0:0:
256,192,78449,5,0,0:0:0:0:
256,192,78627,5,8,0:0:0:0:
256,192,78717,5,0,0:0:0:0:
256,192,78806,5,8,0:0:0:0:
256,192,78985,5,0,0:0:0:0:
256,192,79163,5,8,0:0:0:0:
256,192,79252,5,0,0:0:0:0:
256,192,79342,5,8,0:0:0:0:
256,192,79431,1,8,0:0:0:0:
256,192,79520,5,0,0:0:0:0:
256,192,79877,12,0,81994,0:0:0:0:
256,192,82347,5,12,0:0:0:0:
256,192,82700,1,12,0:0:0:0:
256,192,82965,1,8,0:0:0:0:
256,192,83053,5,0,0:0:0:0:
256,192,83229,5,8,0:0:0:0:
256,192,83406,1,8,0:0:0:0:
256,192,83582,5,0,0:0:0:0:
256,192,83759,1,0,0:0:0:0:
256,192,83847,1,0,0:0:0:0:
256,192,83935,5,8,0:0:0:0:
256,192,84112,1,8,0:0:0:0:
256,192,84288,5,0,0:0:0:0:
256,192,84377,1,0,0:0:0:0:
256,192,84465,5,8,0:0:0:0:
256,192,84641,5,0,0:0:0:0:
256,192,84818,5,8,0:0:0:0:
256,192,85171,5,0,0:0:0:0:
256,192,85524,5,8,0:0:0:0:
256,192,85700,1,8,0:0:0:0:
256,192,85788,5,0,0:0:0:0:
256,192,85877,1,0,0:0:0:0:
256,192,86053,5,8,0:0:0:0:
256,192,86229,5,0,0:0:0:0:
256,192,86582,1,0,0:0:0:0:
256,192,86935,5,8,0:0:0:0:
256,192,87112,1,8,0:0:0:0:
256,192,87200,5,0,0:0:0:0:
256,192,87288,1,0,0:0:0:0:
256,192,87465,1,0,0:0:0:0:
256,192,87641,5,8,0:0:0:0:
256,192,87818,1,12,0:0:0:0:
256,192,87994,5,0,0:0:0:0:
256,192,88171,5,12,0:0:0:0:
256,192,88347,1,8,0:0:0:0:
256,192,88612,1,8,0:0:0:0:
256,192,88700,5,0,0:0:0:0:
256,192,88877,5,8,0:0:0:0:
256,192,89053,1,8,0:0:0:0:
256,192,89229,5,0,0:0:0:0:
256,192,89406,1,0,0:0:0:0:
256,192,89494,1,0,0:0:0:0:
256,192,89582,5,8,0:0:0:0:
256,192,89759,1,8,0:0:0:0:
256,192,89935,5,0,0:0:0:0:
256,192,90024,1,0,0:0:0:0:
256,192,90112,5,8,0:0:0:0:
256,192,90288,5,0,0:0:0:0:
256,192,90465,5,8,0:0:0:0:
256,192,90818,5,0,0:0:0:0:
256,192,91171,5,8,0:0:0:0:
256,192,91347,1,8,0:0:0:0:
256,192,91435,5,0,0:0:0:0:
256,192,91524,1,0,0:0:0:0:
256,192,91700,5,8,0:0:0:0:
256,192,91877,5,0,0:0:0:0:
256,192,92053,5,8,0:0:0:0:
256,192,92141,1,8,0:0:0:0:
256,192,92229,5,0,0:0:0:0:
256,192,92406,1,0,0:0:0:0:
256,192,92582,5,8,0:0:0:0:
256,192,92759,1,12,0:0:0:0:
256,192,92935,5,0,0:0:0:0:
256,192,93112,5,12,0:0:0:0:
256,192,93288,5,0,0:0:0:0:
256,192,93465,5,12,0:0:0:0:
256,192,93641,5,0,0:0:0:0:
256,192,93818,5,12,0:0:0:0:
256,192,93994,1,12,0:0:0:0:
256,192,94259,1,8,0:0:0:0:
256,192,94347,5,0,0:0:0:0:
256,192,94524,5,8,0:0:0:0:
256,192,94700,1,8,0:0:0:0:
256,192,94788,1,8,0:0:0:0:
256,192,94876,5,0,0:0:0:0:
256,192,94965,1,0,0:0:0:0:
256,192,95053,5,8,0:0:0:0:
256,192,95229,1,8,0:0:0:0:
256,192,95406,1,8,0:0:0:0:
256,192,95582,5,0,0:0:0:0:
256,192,95671,1,0,0:0:0:0:
256,192,95759,5,8,0:0:0:0:
256,192,95935,5,0,0:0:0:0:
256,192,96112,5,8,0:0:0:0:
256,192,96376,5,0,0:0:0:0:
256,192,96465,5,8,0:0:0:0:
256,192,96641,5,0,0:0:0:0:
256,192,96818,5,8,0:0:0:0:
256,192,96994,1,8,0:0:0:0:
256,192,97082,5,0,0:0:0:0:
256,192,97171,1,0,0:0:0:0:
256,192,97347,5,8,0:0:0:0:
256,192,97524,5,0,0:0:0:0:
256,192,97612,1,0,0:0:0:0:
256,192,97700,1,0,0:0:0:0:
256,192,97788,1,0,0:0:0:0:
256,192,97876,5,8,0:0:0:0:
256,192,98053,5,0,0:0:0:0:
256,192,98229,5,8,0:0:0:0:
256,192,98406,5,0,0:0:0:0:
256,192,98494,5,8,0:0:0:0:
256,192,98582,5,0,0:0:0:0:
256,192,98759,1,0,0:0:0:0:
256,192,98935,5,8,0:0:0:0:
256,192,99112,1,12,0:0:0:0:
256,192,99288,5,0,0:0:0:0:
256,192,99465,5,12,0:0:0:0:
256,192,99641,1,8,0:0:0:0:
256,192,99906,1,8,0:0:0:0:
256,192,99994,5,0,0:0:0:0:
256,192,100171,5,8,0:0:0:0:
256,192,100347,1,8,0:0:0:0:
256,192,100435,1,8,0:0:0:0:
256,192,100524,5,0,0:0:0:0:
256,192,100612,1,0,0:0:0:0:
256,192,100700,1,0,0:0:0:0:
256,192,100876,5,8,0:0:0:0:
256,192,101053,1,8,0:0:0:0:
256,192,101229,5,0,0:0:0:0:
256,192,101318,1,0,0:0:0:0:
256,192,101406,5,8,0:0:0:0:
256,192,101582,5,0,0:0:0:0:
256,192,101759,5,8,0:0:0:0:
256,192,102024,5,0,0:0:0:0:
256,192,102112,5,8,0:0:0:0:
256,192,102288,5,0,0:0:0:0:
256,192,102465,5,12,0:0:0:0:
256,192,102641,1,8,0:0:0:0:
256,192,102729,5,0,0:0:0:0:
256,192,102818,1,0,0:0:0:0:
256,192,102994,5,8,0:0:0:0:
256,192,103171,5,4,0:0:0:0:
256,192,103347,5,8,0:0:0:0:
256,192,103435,1,8,0:0:0:0:
256,192,103524,5,0,0:0:0:0:
256,192,103700,1,0,0:0:0:0:
256,192,103876,5,12,0:0:0:0:
256,192,104053,5,0,0:0:0:0:
256,192,104141,1,0,0:0:0:0:
256,192,104229,5,8,0:0:0:0:
256,192,104318,1,8,0:0:0:0:
256,192,104406,5,0,0:0:0:0:
256,192,104494,1,0,0:0:0:0:
256,192,104582,5,8,0:0:0:0:
256,192,104935,1,12,0:0:0:0:
256,192,105288,1,12,0:0:0:0:
256,192,105641,1,8,0:0:0:0:
256,192,105994,1,8,0:0:0:0:
256,192,106259,1,8,0:0:0:0:
256,192,106347,5,0,0:0:0:0:
256,192,106524,5,8,0:0:0:0:
256,192,106700,5,0,0:0:0:0:
256,192,106788,5,8,0:0:0:0:
256,192,106965,5,0,0:0:0:0:
256,192,107053,5,8,0:0:0:0:
256,192,107229,5,0,0:0:0:0:
256,192,107406,5,8,0:0:0:0:
256,192,107582,5,0,0:0:0:0:
256,192,107671,5,8,0:0:0:0:
256,192,107759,1,8,0:0:0:0:
256,192,107935,1,8,0:0:0:0:
256,192,108112,1,8,0:0:0:0:
256,192,108465,1,8,0:0:0:0:
256,192,108818,1,8,0:0:0:0:
256,192,109082,1,8,0:0:0:0:
256,192,109171,5,0,0:0:0:0:
256,192,109347,5,8,0:0:0:0:
256,192,109524,5,0,0:0:0:0:
256,192,109612,5,8,0:0:0:0:
256,192,109788,5,0,0:0:0:0:
256,192,109876,5,8,0:0:0:0:
256,192,110053,5,0,0:0:0:0:
256,192,110229,5,8,0:0:0:0:
256,192,110406,1,8,0:0:0:0:
256,192,110494,5,0,0:0:0:0:
256,192,110671,5,8,0:0:0:0:
256,192,110759,5,0,0:0:0:0:
256,192,110935,5,8,0:0:0:0:
256,192,111288,1,8,0:0:0:0:
256,192,111641,1,8,0:0:0:0:
256,192,111906,1,8,0:0:0:0:
256,192,111994,5,0,0:0:0:0:
256,192,112171,5,8,0:0:0:0:
256,192,112347,5,0,0:0:0:0:
256,192,112435,5,8,0:0:0:0:
256,192,112612,5,0,0:0:0:0:
256,192,112700,5,8,0:0:0:0:
256,192,112876,5,0,0:0:0:0:
256,192,113053,5,8,0:0:0:0:
256,192,113229,1,8,0:0:0:0:
256,192,113318,1,8,0:0:0:0:
256,192,113406,5,0,0:0:0:0:
256,192,113582,1,0,0:0:0:0:
256,192,113759,5,8,0:0:0:0:
256,192,114112,1,8,0:0:0:0:
256,192,114465,1,8,0:0:0:0:
256,192,114729,1,8,0:0:0:0:
256,192,114818,5,0,0:0:0:0:
256,192,114994,5,8,0:0:0:0:
256,192,115171,1,8,0:0:0:0:
256,192,115259,5,0,0:0:0:0:
256,192,115347,1,0,0:0:0:0:
256,192,115435,5,8,0:0:0:0:
256,192,115524,5,0,0:0:0:0:
256,192,115612,1,0,0:0:0:0:
256,192,115700,5,8,0:0:0:0:
256,192,115788,5,0,0:0:0:0:
256,192,115876,5,8,0:0:0:0:
256,192,116229,1,12,0:0:0:0:
256,192,116582,12,0,117906,0:0:0:0:
