osu file format v14

[General]
AudioFilename: Mathematic.mp3
AudioLeadIn: 0
PreviewTime: 64921
Countdown: 0
SampleSet: Soft
StackLeniency: 0.7
Mode: 3
LetterboxInBreaks: 0
SpecialStyle: 0
WidescreenStoryboard: 1

[Editor]
DistanceSpacing: 1
BeatDivisor: 4
GridSize: 32
TimelineZoom: 2.1

[Metadata]
Title:Mathematics. Ma+Ma = Magic!
TitleUnicode:ませまてぃっく.ま+ま=まじっく!
Artist:Nanahira
ArtistUnicode:ななひら
Creator:Zylin
Version:Beginner
Source:
Tags:camellia noodles longnote FAMoss
BeatmapID:1544298
BeatmapSetID:731372

[Difficulty]
HPDrainRate:6.5
CircleSize:7
OverallDifficulty:6.5
ApproachRate:5
SliderMultiplier:1.4
SliderTickRate:1

[Events]
//Background and Video events
0,0,"pedo lu cog.jpg",0,0
//Break Periods
//Storyboard Layer 0 (Background)
//Storyboard Layer 1 (Fail)
//Storyboard Layer 2 (Pass)
//Storyboard Layer 3 (Foreground)
//Storyboard Sound Samples
Sample,2500,0,"soft-hitnormal.wav",0
Sample,10937,0,"soft-hitnormal.wav",0
Sample,11093,0,"soft-hitnormal.wav",0
Sample,11406,0,"soft-hitnormal.wav",0
Sample,11562,0,"soft-hitnormal.wav",0
Sample,12031,0,"soft-hitnormal.wav",0
Sample,12187,0,"soft-hitnormal.wav",0
Sample,12343,0,"soft-hitnormal.wav",0
Sample,13125,0,"soft-hitnormal.wav",0
Sample,13437,0,"soft-hitnormal.wav",0
Sample,13437,0,"soft-hitnormal.wav",0
Sample,13750,0,"soft-hitnormal.wav",0
Sample,14062,0,"soft-hitnormal.wav",0
Sample,14062,0,"soft-hitnormal.wav",0
Sample,14375,0,"soft-hitnormal.wav",0
Sample,14531,0,"soft-hitnormal.wav",0
Sample,14687,0,"soft-hitnormal.wav",0
Sample,15000,0,"soft-hitnormal.wav",0
Sample,15625,0,"soft-hitnormal.wav",0
Sample,15937,0,"soft-hitnormal.wav",0
Sample,15937,0,"soft-hitnormal.wav",0
Sample,16250,0,"soft-hitnormal.wav",0
Sample,17031,0,"soft-hitnormal.wav",0
Sample,17343,0,"soft-hitnormal.wav",0
Sample,17656,0,"soft-hitnormal.wav",0
Sample,17812,0,"soft-hitnormal.wav",0
Sample,18125,0,"soft-hitnormal.wav",0
Sample,18437,0,"soft-hitnormal.wav",0
Sample,18437,0,"soft-hitnormal.wav",0
Sample,18750,0,"soft-hitnormal.wav",0
Sample,19062,0,"soft-hitnormal.wav",0
Sample,19062,0,"soft-hitnormal.wav",0
Sample,19375,0,"soft-hitnormal.wav",0
Sample,19687,0,"soft-hitnormal.wav",0
Sample,19687,0,"soft-hitnormal.wav",0
Sample,20000,0,"soft-hitnormal.wav",0
Sample,20312,0,"soft-hitnormal.wav",0
Sample,20312,0,"soft-hitnormal.wav",0
Sample,20625,0,"soft-hitnormal.wav",0
Sample,20937,0,"soft-hitnormal.wav",0
Sample,20937,0,"soft-hitnormal.wav",0
Sample,21250,0,"soft-hitnormal.wav",0
Sample,21406,0,"soft-hitnormal.wav",0
Sample,21562,0,"soft-hitnormal.wav",0
Sample,21718,0,"soft-hitnormal.wav",0
Sample,21875,0,"soft-hitnormal.wav",0
Sample,22500,0,"soft-hitnormal.wav",0
Sample,22812,0,"soft-hitnormal.wav",0
Sample,22812,0,"soft-hitnormal.wav",0
Sample,23125,0,"soft-hitnormal.wav",0
Sample,23437,0,"soft-hitnormal.wav",0
Sample,23437,0,"soft-hitnormal.wav",0
Sample,23750,0,"soft-hitnormal.wav",0
Sample,23750,0,"soft-hitnormal.wav",0
Sample,24375,0,"soft-hitnormal.wav",0
Sample,25312,0,"soft-hitnormal.wav",0
Sample,25312,0,"soft-hitnormal.wav",0
Sample,25625,0,"soft-hitnormal.wav",0
Sample,25937,0,"soft-hitnormal.wav",0
Sample,25937,0,"soft-hitnormal.wav",0
Sample,26250,0,"soft-hitnormal.wav",0
Sample,26406,0,"soft-hitnormal.wav",0
Sample,26718,0,"soft-hitnormal.wav",0
Sample,27500,0,"soft-hitnormal.wav",0
Sample,27812,0,"soft-hitnormal.wav",0
Sample,27812,0,"soft-hitnormal.wav",0
Sample,28125,0,"soft-hitnormal.wav",0
Sample,28437,0,"soft-hitnormal.wav",0
Sample,28437,0,"soft-hitnormal.wav",0
Sample,28750,0,"soft-hitnormal.wav",0
Sample,31406,0,"soft-hitnormal.wav",0
Sample,31562,0,"soft-hitnormal.wav",0
Sample,31718,0,"soft-hitnormal.wav",0
Sample,31875,0,"soft-hitnormal.wav",0
Sample,32187,0,"soft-hitnormal.wav",0
Sample,32812,0,"soft-hitnormal.wav",0
Sample,33125,0,"soft-hitnormal.wav",0
Sample,34062,0,"soft-hitnormal.wav",0
Sample,34375,0,"soft-hitnormal.wav",0
Sample,34687,0,"soft-hitnormal.wav",0
Sample,35625,0,"soft-hitnormal.wav",0
Sample,36562,0,"soft-hitnormal.wav",0
Sample,36875,0,"soft-hitnormal.wav",0
Sample,37187,0,"soft-hitnormal.wav",0
Sample,37500,0,"soft-hitnormal.wav",0
Sample,37812,0,"soft-hitnormal.wav",0
Sample,38125,0,"soft-hitnormal.wav",0
Sample,39062,0,"soft-hitnormal.wav",0
Sample,39375,0,"soft-hitnormal.wav",0
Sample,39687,0,"soft-hitnormal.wav",0
Sample,40312,0,"soft-hitnormal.wav",0
Sample,40468,0,"soft-hitnormal.wav",0
Sample,40781,0,"soft-hitnormal.wav",0
Sample,40937,0,"soft-hitnormal.wav",0
Sample,41875,0,"soft-hitnormal.wav",0
Sample,42812,0,"soft-hitnormal.wav",0
Sample,42812,0,"soft-hitnormal.wav",0
Sample,43125,0,"soft-hitnormal.wav",0
Sample,43437,0,"soft-hitnormal.wav",0
Sample,43437,0,"soft-hitnormal.wav",0
Sample,43750,0,"soft-hitnormal.wav",0
Sample,44062,0,"soft-hitnormal.wav",0
Sample,44062,0,"soft-hitnormal.wav",0
Sample,44375,0,"soft-hitnormal.wav",0
Sample,44687,0,"soft-hitnormal.wav",0
Sample,44687,0,"soft-hitnormal.wav",0
Sample,45000,0,"soft-hitnormal.wav",0
Sample,45312,0,"soft-hitnormal.wav",0
Sample,45312,0,"soft-hitnormal.wav",0
Sample,45625,0,"soft-hitnormal.wav",0
Sample,45937,0,"soft-hitnormal.wav",0
Sample,45937,0,"soft-hitnormal.wav",0
Sample,46250,0,"soft-hitnormal.wav",0
Sample,46562,0,"soft-hitnormal.wav",0
Sample,46562,0,"soft-hitnormal.wav",0
Sample,46875,0,"soft-hitnormal.wav",0
Sample,47187,0,"soft-hitnormal.wav",0
Sample,47187,0,"soft-hitnormal.wav",0
Sample,47500,0,"soft-hitnormal.wav",0
Sample,47812,0,"soft-hitnormal.wav",0
Sample,48125,0,"soft-hitnormal.wav",0
Sample,48437,0,"soft-hitnormal.wav",0
Sample,48437,0,"soft-hitnormal.wav",0
Sample,48750,0,"soft-hitnormal.wav",0
Sample,49062,0,"soft-hitnormal.wav",0
Sample,49062,0,"soft-hitnormal.wav",0
Sample,49375,0,"soft-hitnormal.wav",0
Sample,49687,0,"soft-hitnormal.wav",0
Sample,49687,0,"soft-hitnormal.wav",0
Sample,50000,0,"soft-hitnormal.wav",0
Sample,50312,0,"soft-hitnormal.wav",0
Sample,50312,0,"soft-hitnormal.wav",0
Sample,50625,0,"soft-hitnormal.wav",0
Sample,50937,0,"soft-hitnormal.wav",0
Sample,50937,0,"soft-hitnormal.wav",0
Sample,51250,0,"soft-hitnormal.wav",0
Sample,51562,0,"soft-hitnormal.wav",0
Sample,51562,0,"soft-hitnormal.wav",0
Sample,51875,0,"soft-hitnormal.wav",0
Sample,52187,0,"soft-hitnormal.wav",0
Sample,52187,0,"soft-hitnormal.wav",0
Sample,52500,0,"soft-hitnormal.wav",0
Sample,52968,0,"soft-hitnormal.wav",0
Sample,53125,0,"soft-hitnormal.wav",0
Sample,53437,0,"soft-hitnormal.wav",0
Sample,53750,0,"soft-hitnormal.wav",0
Sample,54218,0,"soft-hitnormal.wav",0
Sample,54687,0,"soft-hitnormal.wav",0
Sample,55000,0,"soft-hitnormal.wav",0
Sample,55468,0,"soft-hitnormal.wav",0
Sample,55625,0,"soft-hitnormal.wav",0
Sample,55937,0,"soft-hitnormal.wav",0
Sample,56250,0,"soft-hitnormal.wav",0
Sample,56718,0,"soft-hitnormal.wav",0
Sample,57187,0,"soft-hitnormal.wav",0
Sample,57500,0,"soft-hitnormal.wav",0
Sample,57656,0,"soft-hitnormal.wav",0
Sample,57812,0,"soft-hitnormal.wav",0
Sample,57968,0,"soft-hitnormal.wav",0
Sample,58125,0,"soft-hitnormal.wav",0
Sample,58750,0,"soft-hitnormal.wav",0
Sample,59218,0,"soft-hitnormal.wav",0
Sample,60000,0,"soft-hitnormal.wav",0
Sample,60312,0,"soft-hitnormal.wav",0
Sample,60625,0,"soft-hitnormal.wav",0
Sample,60937,0,"soft-hitnormal.wav",0
Sample,63750,0,"soft-hitnormal.wav",0
Sample,64062,0,"soft-hitnormal.wav",0
Sample,64062,0,"soft-hitnormal.wav",0
Sample,64375,0,"soft-hitnormal.wav",0
Sample,64375,0,"soft-hitnormal.wav",0
Sample,64687,0,"soft-hitnormal.wav",0
Sample,64687,0,"soft-hitnormal.wav",0
Sample,64687,0,"soft-hitnormal.wav",0
Sample,65312,0,"soft-hitnormal.wav",0
Sample,65312,0,"soft-hitnormal.wav",0
Sample,65625,0,"soft-hitnormal.wav",0
Sample,65937,0,"soft-hitnormal.wav",0
Sample,65937,0,"soft-hitnormal.wav",0
Sample,66250,0,"soft-hitnormal.wav",0
Sample,66562,0,"soft-hitnormal.wav",0
Sample,66562,0,"soft-hitnormal.wav",0
Sample,66875,0,"soft-hitnormal.wav",0
Sample,67500,0,"soft-hitnormal.wav",0
Sample,67812,0,"soft-hitnormal.wav",0
Sample,67812,0,"soft-hitnormal.wav",0
Sample,68125,0,"soft-hitnormal.wav",0
Sample,68437,0,"soft-hitnormal.wav",0
Sample,68437,0,"soft-hitnormal.wav",0
Sample,68750,0,"soft-hitnormal.wav",0
Sample,69375,0,"soft-hitnormal.wav",0
Sample,69531,0,"soft-hitnormal.wav",0
Sample,70156,0,"soft-hitnormal.wav",0
Sample,70312,0,"soft-hitnormal.wav",0
Sample,70312,0,"soft-hitnormal.wav",0
Sample,70625,0,"soft-hitnormal.wav",0
Sample,70937,0,"soft-hitnormal.wav",0
Sample,70937,0,"soft-hitnormal.wav",0
Sample,71250,0,"soft-hitnormal.wav",0
Sample,71562,0,"soft-hitnormal.wav",0
Sample,71562,0,"soft-hitnormal.wav",0
Sample,71875,0,"soft-hitnormal.wav",0
Sample,72187,0,"soft-hitnormal.wav",0
Sample,72187,0,"soft-hitnormal.wav",0
Sample,72500,0,"soft-hitnormal.wav",0
Sample,72812,0,"soft-hitnormal.wav",0
Sample,72812,0,"soft-hitnormal.wav",0
Sample,73125,0,"soft-hitnormal.wav",0
Sample,73437,0,"soft-hitnormal.wav",0
Sample,73593,0,"soft-hitnormal.wav",0
Sample,73906,0,"soft-hitnormal.wav",0
Sample,74062,0,"soft-hitnormal.wav",0
Sample,74531,0,"soft-hitnormal.wav",0
Sample,74687,0,"soft-hitnormal.wav",0
Sample,74843,0,"soft-hitnormal.wav",0
Sample,74843,0,"soft-hitnormal.wav",0
Sample,75625,0,"soft-hitnormal.wav",0
Sample,75937,0,"soft-hitnormal.wav",0
Sample,75937,0,"soft-hitnormal.wav",0
Sample,76250,0,"soft-hitnormal.wav",0
Sample,76562,0,"soft-hitnormal.wav",0
Sample,76562,0,"soft-hitnormal.wav",0
Sample,76875,0,"soft-hitnormal.wav",0
Sample,77500,0,"soft-hitnormal.wav",0
Sample,77656,0,"soft-hitnormal.wav",0
Sample,77812,0,"soft-hitnormal.wav",0
Sample,78125,0,"soft-hitnormal.wav",0
Sample,78437,0,"soft-hitnormal.wav",0
Sample,78437,0,"soft-hitnormal.wav",0
Sample,78750,0,"soft-hitnormal.wav",0
Sample,79375,0,"soft-hitnormal.wav",0
Sample,79531,0,"soft-hitnormal.wav",0
Sample,80156,0,"soft-hitnormal.wav",0
Sample,80312,0,"soft-hitnormal.wav",0
Sample,80312,0,"soft-hitnormal.wav",0
Sample,80625,0,"soft-hitnormal.wav",0
Sample,80937,0,"soft-hitnormal.wav",0
Sample,80937,0,"soft-hitnormal.wav",0
Sample,81250,0,"soft-hitnormal.wav",0
Sample,81562,0,"soft-hitnormal.wav",0
Sample,81562,0,"soft-hitnormal.wav",0
Sample,81875,0,"soft-hitnormal.wav",0
Sample,82187,0,"soft-hitnormal.wav",0
Sample,82187,0,"soft-hitnormal.wav",0
Sample,82500,0,"soft-hitnormal.wav",0
Sample,82812,0,"soft-hitnormal.wav",0
Sample,82812,0,"soft-hitnormal.wav",0
Sample,83125,0,"soft-hitnormal.wav",0
Sample,83437,0,"soft-hitnormal.wav",0
Sample,83437,0,"soft-hitnormal.wav",0
Sample,83750,0,"soft-hitnormal.wav",0
Sample,84062,0,"soft-hitnormal.wav",0
Sample,84375,0,"soft-hitnormal.wav",0
Sample,84687,0,"soft-hitnormal.wav",0
Sample,85625,0,"soft-hitnormal.wav",0
Sample,85937,0,"soft-hitnormal.wav",0
Sample,86250,0,"soft-hitnormal.wav",0
Sample,86406,0,"soft-hitnormal.wav",0
Sample,86562,0,"soft-hitnormal.wav",0
Sample,86718,0,"soft-hitnormal.wav",0
Sample,87812,0,"soft-hitnormal.wav",0
Sample,87812,0,"soft-hitnormal.wav",0
Sample,88125,0,"soft-hitnormal.wav",0
Sample,88437,0,"soft-hitnormal.wav",0
Sample,88437,0,"soft-hitnormal.wav",0
Sample,88750,0,"soft-hitnormal.wav",0
Sample,90000,0,"soft-hitnormal.wav",0
Sample,90312,0,"soft-hitnormal.wav",0
Sample,90312,0,"soft-hitnormal.wav",0
Sample,90625,0,"soft-hitnormal.wav",0
Sample,90937,0,"soft-hitnormal.wav",0
Sample,90937,0,"soft-hitnormal.wav",0
Sample,92500,0,"soft-hitnormal.wav",0
Sample,92812,0,"soft-hitnormal.wav",0
Sample,92812,0,"soft-hitnormal.wav",0
Sample,93125,0,"soft-hitnormal.wav",0
Sample,93437,0,"soft-hitnormal.wav",0
Sample,93437,0,"soft-hitnormal.wav",0
Sample,93750,0,"soft-hitnormal.wav",0
Sample,96406,0,"soft-hitnormal.wav",0
Sample,96562,0,"soft-hitnormal.wav",0
Sample,96718,0,"soft-hitnormal.wav",0
Sample,96875,0,"soft-hitnormal.wav",0
Sample,96875,0,"soft-hitnormal.wav",0
Sample,97187,0,"soft-hitnormal.wav",0
Sample,97812,0,"soft-hitnormal.wav",0
Sample,97812,0,"soft-hitnormal.wav",0
Sample,98125,0,"soft-hitnormal.wav",0
Sample,98437,0,"soft-hitnormal.wav",0
Sample,98437,0,"soft-hitnormal.wav",0
Sample,98750,0,"soft-hitnormal.wav",0
Sample,100000,0,"soft-hitnormal.wav",0
Sample,100312,0,"soft-hitnormal.wav",0
Sample,100312,0,"soft-hitnormal.wav",0
Sample,100625,0,"soft-hitnormal.wav",0
Sample,100781,0,"soft-hitnormal.wav",0
Sample,100937,0,"soft-hitnormal.wav",0
Sample,100937,0,"soft-hitnormal.wav",0
Sample,101250,0,"soft-hitnormal.wav",0
Sample,101562,0,"soft-hitnormal.wav",0
Sample,101875,0,"soft-hitnormal.wav",0
Sample,102500,0,"soft-hitnormal.wav",0
Sample,102812,0,"soft-hitnormal.wav",0
Sample,102812,0,"soft-hitnormal.wav",0
Sample,103125,0,"soft-hitnormal.wav",0
Sample,103281,0,"soft-hitnormal.wav",0
Sample,103437,0,"soft-hitnormal.wav",0
Sample,103437,0,"soft-hitnormal.wav",0
Sample,103750,0,"soft-hitnormal.wav",0
Sample,106406,0,"soft-hitnormal.wav",0
Sample,106562,0,"soft-hitnormal.wav",0
Sample,106718,0,"soft-hitnormal.wav",0
Sample,106875,0,"soft-hitnormal.wav",0

[TimingPoints]
2500,312.5,4,2,1,70,1,0
65000,-100.0,4,2,1,70,0,1
74843,-100.0,4,2,1,70,0,0
75312,-100.0,4,2,1,70,0,1
85000,-100.0,4,2,1,70,0,0

[HitObjects]
475,192,1406,128,8,2187:0:0:0:0:
36,192,2187,128,8,2500:0:0:0:0:
256,192,2187,128,0,2500:0:0:0:0:
182,192,2500,1,6,0:0:0:0:
329,192,2500,1,0,0:0:0:0:
329,192,3750,1,0,0:0:0:0:
402,192,3750,1,0,0:0:0:0:
36,192,4375,1,0,0:0:0:0:
109,192,4375,1,0,0:0:0:0:
182,192,5000,1,0,0:0:0:0:
256,192,5000,1,0,0:0:0:0:
402,192,6250,1,0,0:0:0:0:
475,192,6250,1,0,0:0:0:0:
36,192,6875,1,0,0:0:0:0:
475,192,6875,1,0,0:0:0:0:
109,192,7500,1,0,0:0:0:0:
182,192,7500,1,0,0:0:0:0:
256,192,7812,1,0,0:0:0:0:
329,192,8125,1,0,0:0:0:0:
475,192,8437,1,0,0:0:0:0:
36,192,8750,1,0,0:0:0:0:
182,192,8750,1,0,0:0:0:0:
256,192,9062,1,0,0:0:0:0:
402,192,9375,1,0,0:0:0:0:
109,192,9687,1,0,0:0:0:0:
36,192,10000,128,0,10937:0:0:0:0:
475,192,10000,128,0,10937:0:0:0:0:
402,192,10937,1,2,0:0:0:0:
256,192,11093,1,2,0:0:0:0:
109,192,11406,1,2,0:0:0:0:
182,192,11562,1,2,0:0:0:0:
475,192,12031,128,2,12343:0:0:0:0:
402,192,12187,128,2,12343:0:0:0:0:
329,192,12343,1,2,0:0:0:0:
36,192,12656,128,0,12812:0:0:0:0:
182,192,12812,1,0,0:0:0:0:
256,192,12812,1,0,0:0:0:0:
475,192,13125,1,2,0:0:0:0:
109,192,13437,1,8,0:0:0:0:
329,192,13750,1,2,0:0:0:0:
36,192,14062,1,8,0:0:0:0:
402,192,14375,1,2,0:0:0:0:
109,192,14531,1,0,0:0:0:0:
109,192,14687,1,8,0:0:0:0:
475,192,15000,128,2,15312:0:0:0:0:
36,192,15312,1,0,0:0:0:0:
329,192,15312,1,0,0:0:0:0:
182,192,15625,1,2,0:0:0:0:
256,192,15937,1,8,0:0:0:0:
329,192,16250,1,2,0:0:0:0:
36,192,16406,128,0,16562:0:0:0:0:
109,192,16562,1,0,0:0:0:0:
402,192,16718,128,0,16875:0:0:0:0:
475,192,16875,1,2,0:0:0:0:
329,192,17031,1,2,0:0:0:0:
36,192,17343,1,6,0:0:0:0:
182,192,17343,1,0,0:0:0:0:
109,192,17656,1,2,0:0:0:0:
329,192,17812,1,8,0:0:0:0:
256,192,18125,1,2,0:0:0:0:
109,192,18437,1,8,0:0:0:0:
475,192,18750,1,2,0:0:0:0:
402,192,19062,1,8,0:0:0:0:
182,192,19375,1,2,0:0:0:0:
256,192,19687,1,8,0:0:0:0:
109,192,20000,1,2,0:0:0:0:
329,192,20312,1,8,0:0:0:0:
36,192,20625,1,2,0:0:0:0:
475,192,20937,1,8,0:0:0:0:
182,192,21250,1,2,0:0:0:0:
109,192,21406,1,2,0:0:0:0:
36,192,21562,1,2,0:0:0:0:
256,192,21718,1,2,0:0:0:0:
475,192,21875,128,2,22500:0:0:0:0:
36,192,22187,128,2,22500:0:0:0:0:
109,192,22500,1,6,0:0:0:0:
329,192,22500,1,0,0:0:0:0:
182,192,22812,1,8,0:0:0:0:
402,192,23125,1,2,0:0:0:0:
256,192,23281,1,2,0:0:0:0:
109,192,23437,1,8,0:0:0:0:
475,192,23593,128,2,23750:0:0:0:0:
329,192,23750,1,2,0:0:0:0:
182,192,24218,1,2,0:0:0:0:
36,192,24375,128,8,24687:0:0:0:0:
475,192,24687,1,0,0:0:0:0:
329,192,24843,1,0,0:0:0:0:
109,192,25000,1,6,0:0:0:0:
182,192,25000,1,0,0:0:0:0:
256,192,25312,1,8,0:0:0:0:
475,192,25625,1,2,0:0:0:0:
36,192,25781,1,2,0:0:0:0:
182,192,25937,1,8,0:0:0:0:
329,192,26250,1,2,0:0:0:0:
402,192,26406,1,2,0:0:0:0:
109,192,26718,1,2,0:0:0:0:
329,192,27031,1,2,0:0:0:0:
36,192,27343,128,2,27500:0:0:0:0:
475,192,27500,1,2,0:0:0:0:
109,192,27812,1,8,0:0:0:0:
402,192,28125,1,2,0:0:0:0:
256,192,28281,1,2,0:0:0:0:
36,192,28437,1,8,0:0:0:0:
475,192,28750,128,2,29062:0:0:0:0:
36,192,29062,128,0,29375:0:0:0:0:
256,192,29375,128,0,30000:0:0:0:0:
182,192,30000,1,0,0:0:0:0:
329,192,30000,1,0,0:0:0:0:
36,192,30625,1,0,0:0:0:0:
475,192,30625,1,0,0:0:0:0:
256,192,31406,1,2,0:0:0:0:
109,192,31562,1,2,0:0:0:0:
402,192,31718,1,2,0:0:0:0:
329,192,31875,1,2,0:0:0:0:
36,192,32187,1,4,0:0:0:0:
256,192,32500,1,2,0:0:0:0:
475,192,32500,1,0,0:0:0:0:
109,192,32812,1,8,0:0:0:0:
329,192,33125,1,2,0:0:0:0:
182,192,33437,1,8,0:0:0:0:
475,192,33750,1,2,0:0:0:0:
36,192,34062,1,8,0:0:0:0:
402,192,34375,1,2,0:0:0:0:
329,192,34687,1,8,0:0:0:0:
36,192,35312,1,8,0:0:0:0:
475,192,35312,1,0,0:0:0:0:
182,192,35625,1,2,0:0:0:0:
329,192,35937,1,8,0:0:0:0:
256,192,36250,1,2,0:0:0:0:
109,192,36562,1,8,0:0:0:0:
402,192,36875,1,2,0:0:0:0:
329,192,37187,1,8,0:0:0:0:
36,192,37500,128,2,37812:0:0:0:0:
256,192,37812,1,2,0:0:0:0:
402,192,38125,1,2,0:0:0:0:
109,192,38437,1,8,0:0:0:0:
475,192,38750,1,2,0:0:0:0:
256,192,39062,1,8,0:0:0:0:
475,192,39375,1,2,0:0:0:0:
475,192,39687,1,8,0:0:0:0:
402,192,40312,1,8,0:0:0:0:
329,192,40468,1,2,0:0:0:0:
36,192,40781,1,2,0:0:0:0:
109,192,40937,1,2,0:0:0:0:
182,192,41093,1,2,0:0:0:0:
475,192,41406,1,0,0:0:0:0:
256,192,41562,1,0,0:0:0:0:
329,192,41718,1,0,0:0:0:0:
182,192,41875,1,0,0:0:0:0:
402,192,42031,1,0,0:0:0:0:
36,192,42187,128,0,42500:0:0:0:0:
256,192,42500,1,4,0:0:0:0:
475,192,42500,1,2,0:0:0:0:
182,192,42812,1,8,0:0:0:0:
402,192,43125,1,2,0:0:0:0:
109,192,43437,1,8,0:0:0:0:
475,192,43750,1,2,0:0:0:0:
36,192,44062,1,8,0:0:0:0:
402,192,44375,1,2,0:0:0:0:
109,192,44687,1,8,0:0:0:0:
329,192,45000,1,2,0:0:0:0:
182,192,45312,1,8,0:0:0:0:
256,192,45625,1,2,0:0:0:0:
109,192,45937,1,8,0:0:0:0:
329,192,46250,1,2,0:0:0:0:
36,192,46562,1,8,0:0:0:0:
475,192,46875,1,2,0:0:0:0:
109,192,47187,1,8,0:0:0:0:
402,192,47500,1,2,0:0:0:0:
36,192,47812,1,8,0:0:0:0:
256,192,47812,1,0,0:0:0:0:
182,192,48125,1,2,0:0:0:0:
329,192,48437,1,8,0:0:0:0:
402,192,48750,1,2,0:0:0:0:
109,192,49062,1,8,0:0:0:0:
475,192,49375,1,2,0:0:0:0:
36,192,49687,1,8,0:0:0:0:
402,192,50000,1,2,0:0:0:0:
109,192,50312,1,8,0:0:0:0:
329,192,50625,1,2,0:0:0:0:
182,192,50937,1,8,0:0:0:0:
256,192,51250,1,2,0:0:0:0:
109,192,51562,1,8,0:0:0:0:
329,192,51875,1,2,0:0:0:0:
256,192,52187,1,8,0:0:0:0:
109,192,52500,1,2,0:0:0:0:
475,192,52968,1,2,0:0:0:0:
475,192,53125,1,2,0:0:0:0:
36,192,53437,1,8,0:0:0:0:
329,192,53437,1,0,0:0:0:0:
182,192,53750,1,2,0:0:0:0:
109,192,54218,1,2,0:0:0:0:
109,192,54375,1,2,0:0:0:0:
182,192,54687,1,8,0:0:0:0:
329,192,54687,1,0,0:0:0:0:
256,192,55000,1,2,0:0:0:0:
109,192,55468,1,2,0:0:0:0:
329,192,55625,1,2,0:0:0:0:
256,192,55937,1,8,0:0:0:0:
475,192,55937,1,0,0:0:0:0:
402,192,56250,1,2,0:0:0:0:
109,192,56718,1,2,0:0:0:0:
402,192,56875,1,2,0:0:0:0:
182,192,57187,1,8,0:0:0:0:
256,192,57187,1,0,0:0:0:0:
402,192,57500,1,2,0:0:0:0:
109,192,57656,1,2,0:0:0:0:
256,192,57812,1,2,0:0:0:0:
109,192,57968,1,2,0:0:0:0:
402,192,58125,1,2,0:0:0:0:
36,192,58281,128,8,58750:0:0:0:0:
402,192,58750,1,2,0:0:0:0:
109,192,59218,1,2,0:0:0:0:
475,192,59531,1,0,0:0:0:0:
475,192,59687,1,0,0:0:0:0:
36,192,60000,1,2,0:0:0:0:
402,192,60312,1,2,0:0:0:0:
109,192,60625,1,2,0:0:0:0:
329,192,60937,1,2,0:0:0:0:
182,192,61250,1,0,0:0:0:0:
256,192,61562,1,0,0:0:0:0:
329,192,61875,1,0,0:0:0:0:
109,192,62187,1,0,0:0:0:0:
402,192,62500,1,0,0:0:0:0:
109,192,62968,1,0,0:0:0:0:
256,192,63437,1,0,0:0:0:0:
475,192,63750,1,2,0:0:0:0:
402,192,64062,1,2,0:0:0:0:
256,192,64375,1,2,0:0:0:0:
36,192,64687,128,12,65000:0:0:0:0:
109,192,65000,1,6,0:0:0:0:
475,192,65000,1,0,0:0:0:0:
329,192,65312,1,8,0:0:0:0:
36,192,65625,1,2,0:0:0:0:
475,192,65937,1,8,0:0:0:0:
109,192,66250,1,2,0:0:0:0:
402,192,66562,1,8,0:0:0:0:
182,192,66875,1,2,0:0:0:0:
329,192,67031,1,0,0:0:0:0:
329,192,67187,1,0,0:0:0:0:
256,192,67500,1,2,0:0:0:0:
109,192,67812,1,8,0:0:0:0:
329,192,68125,1,2,0:0:0:0:
256,192,68437,1,8,0:0:0:0:
182,192,68750,1,2,0:0:0:0:
475,192,68906,128,0,69062:0:0:0:0:
402,192,69062,1,0,0:0:0:0:
36,192,69218,128,0,69375:0:0:0:0:
109,192,69375,1,2,0:0:0:0:
256,192,69531,1,2,0:0:0:0:
329,192,69843,1,6,0:0:0:0:
475,192,69843,1,0,0:0:0:0:
36,192,70156,1,2,0:0:0:0:
329,192,70312,1,8,0:0:0:0:
256,192,70625,1,2,0:0:0:0:
109,192,70937,1,8,0:0:0:0:
402,192,71250,1,2,0:0:0:0:
182,192,71562,1,8,0:0:0:0:
475,192,71875,1,2,0:0:0:0:
109,192,72187,1,8,0:0:0:0:
402,192,72500,1,2,0:0:0:0:
182,192,72812,1,8,0:0:0:0:
256,192,73125,1,2,0:0:0:0:
36,192,73437,1,2,0:0:0:0:
329,192,73593,1,2,0:0:0:0:
256,192,73906,1,2,0:0:0:0:
109,192,74062,1,2,0:0:0:0:
475,192,74531,1,2,0:0:0:0:
182,192,74687,1,2,0:0:0:0:
402,192,74843,1,2,0:0:0:0:
36,192,75156,128,0,75312:0:0:0:0:
256,192,75312,1,0,0:0:0:0:
475,192,75312,1,0,0:0:0:0:
109,192,75625,1,2,0:0:0:0:
329,192,75937,1,8,0:0:0:0:
182,192,76250,1,2,0:0:0:0:
475,192,76562,1,8,0:0:0:0:
36,192,76875,1,2,0:0:0:0:
402,192,77031,1,0,0:0:0:0:
402,192,77187,1,0,0:0:0:0:
109,192,77500,1,2,0:0:0:0:
475,192,77656,128,2,77812:0:0:0:0:
329,192,77812,1,2,0:0:0:0:
36,192,78125,1,2,0:0:0:0:
182,192,78437,1,8,0:0:0:0:
475,192,78750,1,2,0:0:0:0:
109,192,78906,128,0,79062:0:0:0:0:
329,192,79062,1,0,0:0:0:0:
402,192,79218,128,0,79375:0:0:0:0:
182,192,79375,1,2,0:0:0:0:
109,192,79531,1,2,0:0:0:0:
329,192,79843,1,6,0:0:0:0:
475,192,79843,1,0,0:0:0:0:
36,192,80156,1,2,0:0:0:0:
256,192,80312,1,8,0:0:0:0:
109,192,80625,1,2,0:0:0:0:
402,192,80937,1,8,0:0:0:0:
182,192,81250,1,2,0:0:0:0:
475,192,81562,1,8,0:0:0:0:
109,192,81875,1,2,0:0:0:0:
402,192,82187,1,8,0:0:0:0:
36,192,82500,1,2,0:0:0:0:
329,192,82812,1,8,0:0:0:0:
109,192,83125,1,2,0:0:0:0:
475,192,83437,1,8,0:0:0:0:
402,192,83750,1,2,0:0:0:0:
329,192,84062,1,2,0:0:0:0:
36,192,84375,128,2,85000:0:0:0:0:
109,192,84687,128,2,85000:0:0:0:0:
182,192,85000,1,6,0:0:0:0:
475,192,85000,1,0,0:0:0:0:
256,192,85625,1,0,0:0:0:0:
329,192,85937,1,0,0:0:0:0:
475,192,86250,1,2,0:0:0:0:
109,192,86406,1,2,0:0:0:0:
402,192,86562,1,2,0:0:0:0:
182,192,86718,1,0,0:0:0:0:
329,192,87031,1,0,0:0:0:0:
329,192,87187,1,0,0:0:0:0:
36,192,87500,1,6,0:0:0:0:
475,192,87500,1,0,0:0:0:0:
182,192,87812,1,8,0:0:0:0:
36,192,88125,128,2,88437:0:0:0:0:
256,192,88437,1,8,0:0:0:0:
475,192,88750,128,2,89218:0:0:0:0:
402,192,89218,1,2,0:0:0:0:
36,192,89375,128,8,90000:0:0:0:0:
182,192,90000,1,6,0:0:0:0:
329,192,90312,1,8,0:0:0:0:
475,192,90625,128,2,90937:0:0:0:0:
109,192,90937,1,8,0:0:0:0:
329,192,91250,1,2,0:0:0:0:
182,192,91406,1,0,0:0:0:0:
256,192,91718,1,0,0:0:0:0:
36,192,92031,128,0,92500:0:0:0:0:
256,192,92500,1,2,0:0:0:0:
109,192,92812,1,8,0:0:0:0:
475,192,93125,128,2,93437:0:0:0:0:
402,192,93437,1,8,0:0:0:0:
36,192,93750,128,2,94375:0:0:0:0:
256,192,94375,128,0,95000:0:0:0:0:
36,192,95000,1,0,0:0:0:0:
475,192,95000,1,0,0:0:0:0:
329,192,95625,1,0,0:0:0:0:
402,192,95625,1,0,0:0:0:0:
109,192,96406,1,2,0:0:0:0:
329,192,96562,1,2,0:0:0:0:
256,192,96718,1,2,0:0:0:0:
182,192,96875,1,6,0:0:0:0:
475,192,97187,1,0,0:0:0:0:
36,192,97500,1,2,0:0:0:0:
329,192,97500,1,0,0:0:0:0:
182,192,97812,1,8,0:0:0:0:
36,192,98125,128,2,98437:0:0:0:0:
329,192,98437,1,8,0:0:0:0:
109,192,98750,1,2,0:0:0:0:
475,192,99375,128,2,100000:0:0:0:0:
36,192,99687,128,0,100000:0:0:0:0:
109,192,100000,1,2,0:0:0:0:
402,192,100312,1,8,0:0:0:0:
256,192,100625,1,2,0:0:0:0:
36,192,100781,1,2,0:0:0:0:
109,192,100937,1,8,0:0:0:0:
475,192,101250,128,2,101562:0:0:0:0:
402,192,101562,1,2,0:0:0:0:
36,192,101875,128,2,102187:0:0:0:0:
329,192,102187,1,2,0:0:0:0:
182,192,102343,128,2,102500:0:0:0:0:
109,192,102500,1,2,0:0:0:0:
475,192,102812,1,8,0:0:0:0:
109,192,103125,1,2,0:0:0:0:
256,192,103281,1,2,0:0:0:0:
402,192,103437,1,8,0:0:0:0:
36,192,103750,1,2,0:0:0:0:
109,192,104062,1,0,0:0:0:0:
256,192,104375,128,0,105000:0:0:0:0:
182,192,105000,1,0,0:0:0:0:
329,192,105000,1,0,0:0:0:0:
36,192,105625,1,0,0:0:0:0:
475,192,105625,1,0,0:0:0:0:
329,192,106406,1,2,0:0:0:0:
182,192,106562,1,2,0:0:0:0:
402,192,106718,1,2,0:0:0:0:
36,192,106875,1,6,0:0:0:0:
329,192,106875,1,0,0:0:0:0:
109,192,34531,1,0,0:0:0:0:
256,192,34843,1,0,0:0:0:0:
182,192,37031,1,0,0:0:0:0:
182,192,37343,1,0,0:0:0:0:
36,192,39531,1,0,0:0:0:0:
36,192,39843,1,0,0:0:0:0:
256,192,58984,1,0,0:0:0:0:
182,192,64531,1,0,0:0:0:0:
256,192,98984,1,0,0:0:0:0:
329,192,99218,1,0,0:0:0:0:
