osu file format v9

[General]
AudioFilename: awawa.mp3
AudioLeadIn: 0
PreviewTime: 37634
Countdown: 0
SampleSet: Normal
StackLeniency: 0.7
Mode: 0
LetterboxInBreaks: 1

[Editor]
DistanceSpacing: 1.5
BeatDivisor: 4
GridSize: 4

[Metadata]
Title:Fukkura Fuwaama Cake
Artist:Nanahira
Creator:cRyo[iceeicee]
Version:Hard
Source:
Tags:vredina h3k1ru c79 poyatchio kanarin

[Difficulty]
HPDrainRate:6
CircleSize:4
OverallDifficulty:6
ApproachRate:7
SliderMultiplier:1.4
SliderTickRate:2

[Events]
//Background and Video events
0,0,"BG.jpg"
//Break Periods
2,61834,71401
//Storyboard Layer 0 (Background)
//Storyboard Layer 1 (Fail)
//Storyboard Layer 2 (Pass)
//Storyboard Layer 3 (Foreground)
//Storyboard Sound Samples
//Background Colour Transformations
3,100,163,162,255

[TimingPoints]
8301,333.333333333333,4,2,1,50,1,0
10050,-100,4,2,1,5,0,0
10217,-100,4,2,1,50,0,0
10885,-100,4,1,1,50,0,0
22551,-100,4,1,2,50,0,0
22718,-100,4,1,1,50,0,0
58968,-100,4,2,0,50,0,0
60218,-100,4,2,1,50,0,0
60884,-100,4,1,1,50,0,0
73218,-100,4,1,2,50,0,0
73384,-100,4,1,1,50,0,0
109426,-100,4,2,2,65,0,0
110968,-100,4,1,1,55,0,0
112218,-100,4,1,1,45,0,0
116718,-100,4,2,2,70,0,0
117593,-100,4,1,1,35,0,0
117718,-100,4,1,1,45,0,0
120259,-100,4,1,2,35,0,0
120384,-100,4,1,1,35,0,0
120551,-100,4,1,2,35,0,0
120926,-100,4,1,1,50,0,0
121301,-100,4,1,1,45,0,0
122218,-100,4,2,0,65,0,0
122968,-100,4,1,2,35,0,0
123051,-100,4,1,1,35,0,0
123218,-100,4,1,2,35,0,0
123468,-100,4,1,1,50,0,0
123968,-100,4,1,1,45,0,0
125593,-100,4,1,2,35,0,0
125718,-100,4,1,1,35,0,0
125884,-100,4,1,2,35,0,0
126134,-100,4,1,1,50,0,0
126634,-100,4,1,1,45,0,0
127718,-100,4,2,0,65,0,0
128218,-100,4,1,2,35,0,0
128384,-100,4,1,1,35,0,0
128551,-100,4,1,2,35,0,0
128801,-100,4,1,1,50,0,0
129301,-100,4,1,1,45,0,0
130968,-100,4,1,1,50,0,0
152259,-100,4,2,0,50,0,0
153551,-100,4,2,1,50,0,0
154218,-100,4,1,1,50,0,0

[Colours]
Combo1 : 255,75,165
Combo2 : 0,75,165

[HitObjects]
256,192,8301,12,0,9635
400,296,9968,6,0,B|368:228|400:160,1,140
456,96,10468,2,0,B|477:125|493:185,2,70
324,48,10968,6,0,B|256:16|188:48,1,140,4|8
128,108,11468,1,0
60,156,11635,2,0,B|48:192|52:232,1,70
115,336,11968,2,0,B|127:301|124:268,1,70,8|0
200,228,12301,6,0,B|257:276|331:263,2,140,0|8|0
212,144,13135,1,0
180,68,13301,2,0,B|148:48|100:44,1,70,8|0
28,108,13634,5,0
56,208,13801,2,0,B|-4:192,2,35,0|0|8
152,248,14134,2,0,B|185:240|221:240,1,70
360,292,14468,2,0,B|326:299|290:299,1,70,0|8
196,348,14801,6,0,B|161:351,2,35
100,308,15134,2,0,B|65:311,2,35,0|0|8
12,248,15468,1,0
12,248,15634,2,0,B|12:212|23:178,1,70
115,87,15968,2,0,B|115:123|104:156,1,70,8|8
212,224,16301,6,0,B|269:175|342:188,2,140,4|8|0
200,308,17134,1,0
280,328,17301,2,0,B|315:326|351:309,1,70,8|0
400,248,17634,2,0,B|448:190|435:117,2,140,0|8|0
408,332,18468,1,0
324,348,18634,2,0,B|288:344|252:360,1,70,8|0
152,336,18968,5,4
76,264,19134,2,0,B|44:252,2,35,0|0|8
156,192,19468,2,0,B|192:192|228:180,1,70,0|0
352,112,19801,2,0,B|316:112|280:124,1,70,0|8
188,80,20134,6,0,B|136:60,2,35,0|0|4
84,100,20468,2,0,B|32:80,2,35,0|0|12
28,188,20801,1,0
28,188,20968,2,0,B|85:236|158:223,1,140,4|8
364,268,21634,6,0,B|400:264|448:284,2,70,4|0|8
292,312,22134,2,0,B|218:325|161:276,2,140
364,268,22968,6,0,B|380:236|384:200,1,70
336,84,23301,2,0,B|320:115|316:150,1,70,8|0
240,188,23634,2,0,B|166:201|109:152,1,140,0|8
156,328,24301,6,0,B|188:316|225:316,1,70,0|0
308,332,24634,1,8
364,268,24801,2,0,B|412:210|399:137,1,140
344,72,25301,1,8
260,60,25468,6,0,B|224:60|172:40,2,70
292,136,25968,1,8
208,144,26134,1,0
132,112,26301,2,0,B|84:169|96:242,1,140,0|8
320,320,26968,6,0,B|340:288|344:240,1,70,4|0
416,216,27301,1,8
416,216,27468,2,0,B|403:143|451:85,1,140
367,64,27968,6,0,B|336:80|301:84,1,70,8|0
256,156,28301,1,0
256,156,28468,1,0
212,228,28634,2,0,B|177:232|145:248,2,70,8|0|0
412,320,29301,6,0,B|380:335|345:340,1,70,8|0
272,300,29634,2,0,B|199:287|141:335,2,140,4|8|0
292,216,30468,2,0,B|323:200|358:195,1,70,0|8
440,212,30801,1,0
480,136,30968,1,0
420,76,31134,1,0
344,112,31301,1,8
256,172,31468,6,0,B|256:228,2,35,0|0|0
168,112,31801,2,0,B|168:56,2,35,0|0|0
80,172,32134,1,0
80,172,32301,2,0,B|108:220|52:260|80:308,2,140,4|8|0
28,108,33134,5,0
72,36,33301,1,8
152,60,33468,1,0
160,144,33634,2,0,B|232:156|290:109,1,140,0|8
351,239,34134,2,0,B|279:227|221:274,1,140
152,224,34634,1,8
360,104,34968,6,0,B|326:96|290:104,1,70,6|0
154,164,35301,2,0,B|187:171|223:163,1,70,10|0
360,224,35634,2,0,B|326:216|290:224,1,70,10|0
153,284,35967,2,0,B|186:291|222:283,1,70,10|0
256,192,36301,12,0,37301
332,68,37634,6,0,B|259:55|201:102,1,140,6|10
180,316,38301,2,0,B|252:328|310:281,1,140,2|8
376,332,38801,2,0,B|328:274|341:201,1,140,2|0
388,132,39301,2,0,B|457:120,1,70,10|0
316,88,39634,2,0,B|246:99,2,70,2|0|10
168,240,40301,6,0,B|120:268|80:212|32:240,2,140,2|10|2
256,80,41301,1,10
256,80,41468,2,0,B|304:52|344:108|392:80,1,140,2|0
460,128,41968,2,0,B|448:216,1,70,10|0
356,292,42301,2,0,B|365:222,1,70,2|0
288,128,42634,2,0,B|278:197,1,70,10|8
252,320,42968,6,0,B|179:332|121:285,1,140,6|10
260,64,43634,2,0,B|332:51|390:98,1,140,2|8
456,48,44134,2,0,B|408:105|421:178,1,140,2|0
360,240,44634,2,0,B|272:252,1,70,10|0
148,304,44968,2,0,B|217:294,1,70,2|0
364,320,45301,2,0,B|276:332,1,70,10|0
148,304,45634,6,0,B|160:231|113:173,1,140,2|8
32,144,46134,2,0,B|104:156|162:109,1,140,2|0
236,72,46634,1,8
320,84,46801,1,0
388,36,46968,6,0,B|340:93|353:166,1,140,2|8
422,217,47468,2,0,B|435:290|388:348,2,140,2|0|0
366,107,48301,6,0,B|308:59|235:72,1,140,6|10
146,277,48968,2,0,B|203:324|276:311,1,140,2|8
336,252,49468,2,0,B|408:239|466:286,1,140,2|0
488,184,49968,2,0,B|415:196|357:149,2,140,10|2|10
256,148,50968,6,0,B|278:120|282:80,1,70,2|0
201,53,51301,2,0,B|178:80|174:120,1,70,10|0
172,201,51634,2,0,B|229:248|302:235,1,140,2|8
468,196,52134,2,0,B|410:148|337:161,1,140,2|0
194,124,52634,5,10
198,38,52801,1,0
281,18,52968,1,2
324,92,53134,1,0
269,155,53301,1,10
104,124,53634,6,0,B|72:192|104:259,1,140,6|10
407,259,54301,2,0,B|439:192|408:124,1,140,2|8
324,52,54801,2,0,B|292:119|324:188,1,140,2|0
256,240,55301,6,0,B|256:310,1,70,10|0
188,188,55634,2,0,B|131:228,1,70,2|0
324,188,55968,2,0,B|380:228,1,70,10|0
324,100,56301,6,0,B|256:68|188:99,1,140,6|10
188,284,56968,2,0,B|256:315|324:284,1,140,6|8
256,192,57468,12,8,58634
164,280,58968,6,0,B|116:308|76:252|28:280,2,140,2|0|2
232,228,59801,1,0
280,156,59968,1,0
348,104,60134,2,0,B|396:76|436:132|484:104,1,140,2|0
488,188,60634,2,0,B|486:223|468:264,1,70
380,312,60968,6,0,B|392:356,4,35
288,260,61468,2,0,B|278:226,2,35,0|0|4
96,80,72301,6,0,B|64:147|94:215,1,140,4|8
176,244,72801,2,0,B|103:231|45:280,2,140
256,276,73634,5,0
256,276,73801,1,0
336,244,73968,1,8
336,244,74134,1,0
408,284,74301,2,0,B|456:226|444:152,1,140,0|8
236,104,74968,6,0,B|237:67|256:26,2,70,0|0|8
288,172,75468,2,0,B|230:123|156:135,1,140,0|0
88,180,75968,1,8
100,264,76134,6,0,B|30:275,2,70
160,324,76634,2,0,B|229:312,1,70,8|0
300,268,76968,2,0,B|357:316|430:304,1,140,0|8
440,132,77634,6,0,B|404:112|356:104,1,70,4|0
308,56,77968,1,8
308,56,78134,2,0,B|250:104|176:92,1,140,0|0
116,148,78634,6,0,B|136:228,1,70,8|0
184,284,78968,1,0
184,284,79134,1,0
256,244,79301,2,0,B|276:324,2,70,8|0|0
304,88,79968,5,8
304,88,80134,1,0
360,152,80301,2,0,B|407:124|447:180|495:152,2,140,4|8|0
336,232,81134,2,0,B|324:264|280:308,1,70,0|8
212,292,81468,5,0
212,292,81634,2,0,B|139:279|81:328,1,140,0|8
56,224,82134,2,0,B|8:216,2,35,0|0|0
144,164,82468,2,0,B|178:169,2,35,0|0|0
64,96,82801,5,0
64,96,82968,2,0,B|102:57|155:100|194:61,2,140,4|8|0
8,160,83801,1,0
8,160,83968,2,0,B|40:248,1,70,8|0
64,304,84301,2,0,B|121:255|194:267,1,140,0|8
256,324,84801,2,0,B|328:336|386:287,1,140,0|0
468,308,85301,1,8
256,120,85634,6,0,B|183:107|125:156,1,140,6|10
256,264,86301,2,0,B|328:276|386:227,1,140,2|10
256,192,86968,12,0,87968
424,220,88301,6,0,B|351:207|293:256,1,140,6|10
88,164,88968,2,0,B|160:176|218:127,1,140,2|8
296,164,89468,2,0,B|353:115|426:127,1,140,2|0
456,208,89968,1,10
388,256,90134,1,0
416,336,90301,2,0,B|447:351|483:351,2,70,2|0|10
296,164,90968,6,0,B|260:168|224:148,1,70,2|0
156,192,91301,2,0,B|124:174|88:178,1,70,10|0
12,228,91634,2,0,B|60:170|48:97,1,140,2|10
124,60,92134,2,0,B|181:108|254:96,1,140,2|0
336,72,92634,5,10
428,124,92801,1,0
420,228,92968,2,0,B|404:316,2,70,2|0|10
200,300,93634,6,0,B|257:251|330:263,1,140,6|10
312,84,94301,2,0,B|254:132|181:120,1,140,2|8
148,44,94801,2,0,B|160:116|111:174,1,140,2|0
148,252,95301,2,0,B|217:242,1,70,10|0
364,268,95635,2,0,B|295:278,1,70,2|0
151,331,95968,2,0,B|221:322,1,70,10|0
364,268,96301,6,0,B|317:210|329:137,1,140,2|8
380,68,96801,2,0,B|322:114|249:102,1,140,2|0
168,76,97301,1,8
88,104,97468,1,0
56,180,97634,2,0,B|86:248|55:315,1,140,2|8
168,212,98134,2,0,B|137:143|168:76,2,140,2|0|0
220,328,98968,6,0,B|277:281|350:292,1,140,6|10
292,56,99634,2,0,B|234:102|161:91,1,140,2|8
96,35,100134,2,0,B|142:93|131:166,1,140,2|0
200,212,100634,5,10
192,296,100801,1,0
108,308,100968,1,2
76,232,101134,1,0
131,167,101301,1,10
324,308,101634,6,0,B|277:250|288:177,1,140,2|10
452,64,102301,2,0,B|498:121|487:194,1,140,2|8
455,273,102801,2,0,B|381:261|324:308,1,140,2|0
256,228,103301,2,0,B|198:274|125:263,2,140,2|2|10
276,124,104134,1,8
368,76,104301,6,0,B|398:143|368:211,1,140,6|10
144,308,104968,2,0,B|113:240|143:172,1,140,2|8
92,104,105468,2,0,B|150:150|222:138,1,140,2|0
289,245,105968,2,0,B|361:233|420:280,2,140,10|2|10
56,192,106968,5,6
256,344,107301,1,10
456,192,107634,1,6
256,40,107968,1,8
256,192,108301,12,8,109301
60,136,109634,6,0,B|107:163|147:107|195:135,1,140,2|0
260,192,110134,1,0
316,248,110301,2,0,B|352:252|408:232,2,70,2|0|0
212,320,110801,2,0,B|139:331|81:285,1,140,2|0
24,220,111301,6,0,B|20:148,1,70
80,64,111634,2,0,B|120:52,2,35
180,100,111968,2,0,B|213:89,2,35
224,196,112301,6,2,B|272:176|272:176|312:184|312:184|360:152,1,140,0|2
448,240,112801,2,2,B|400:260|400:260|360:252|360:252|312:284,1,140,0|2
232,332,113301,6,2,B|200:348|160:348,1,70,0|2
140,324,113551,1,0
120,296,113634,2,2,B|148:260|148:260|200:256|200:256|256:228,1,140,0|2
296,124,114134,2,2,B|252:116|252:116|224:80|224:80|160:56,1,140,0|2
88,88,114634,5,2
44,168,114801,1,2
76,252,114968,2,2,B|110:264|110:264|130:290|130:290|167:292|167:292|191:316,1,140,0|2
320,316,115468,2,2,B|344:292|344:292|381:290|381:290|401:264|401:264|436:252,1,140,0|2
492,192,115968,1,2
436,132,116134,2,2,B|401:119|401:119|381:93|381:93|344:91|344:91|320:67,1,140,0|2
240,84,116634,1,2
156,148,116801,6,0,B|124:160,3,35,2|0|0|0
124,212,117134,2,0,B|84:236,4,35,2|0|0|0|2
160,312,117634,6,2,B|204:296|204:296|232:312|232:312|300:292,1,140,0|2
376,200,118134,2,2,B|332:216|332:216|304:200|304:200|236:220,1,140,0|2
148,172,118634,5,2
180,72,118801,2,2,B|224:52|224:52|284:60|284:60|316:48,1,140,0|2
412,88,119301,1,2
460,180,119468,2,2,B|456:224|456:224|480:272|480:272|472:320,2,140,0|0|0
324,192,120301,6,0,B|276:164|236:220|188:192,1,140,4|4
68,76,120968,1,8
68,76,121134,1,8
56,244,121468,6,0,B|36:284,2,35,0|0|4
132,212,121801,1,0
212,236,121968,1,0
256,308,122134,1,0
336,332,122301,2,0,B|402:309,1,70,2|0
474,201,122634,2,0,B|408:224,1,70,2|0
328,128,122968,6,0,B|255:116|197:162,1,140,4|4
108,308,123634,1,8
108,308,123801,1,8
256,228,124134,6,0,B|297:208,2,35,0|0|4
187,175,124468,1,0
107,202,124634,1,0
62,130,124801,1,0
111,63,124968,1,0
191,90,125134,2,0,B|228:88|258:64,2,70
107,202,125634,6,0,B|179:190|237:236,1,140,4|4
424,200,126301,1,8
424,200,126468,1,8
236,80,126801,6,0,B|200:48,2,35,0|0|4
292,144,127134,1,0
376,128,127301,1,0
424,200,127468,1,0
364,260,127634,1,0
288,228,127801,2,0,B|252:228|220:211,2,70,2|0|2
376,128,128301,6,0,B|327:70|254:68,1,140,4|4
220,272,128968,1,8
220,272,129134,1,8
420,240,129468,6,0,B|456:192,2,35,0|0|4
360,300,129801,2,0,B|288:316,1,70
220,272,130134,2,0,B|148:288,1,70,0|8
96,220,130468,2,0,B|27:235,2,70,0|8|0
148,104,130968,6,0,B|206:57|278:69,1,140,6|10
352,112,131468,1,0
400,180,131634,2,0,B|341:226|269:214,1,140,2|8
204,280,132134,2,0,B|168:288|138:304,2,70,2|0|0
284,328,132634,2,0,B|368:340,1,70,10|0
469,277,132968,2,0,B|400:268,1,70,2|0
258,202,133301,2,0,B|328:212,1,70,10|0
420,124,133634,6,0,B|361:77|289:89,1,140,2|10
216,128,134134,1,8
216,128,134301,2,0,B|157:174|85:162,1,140,2|10
20,108,134801,2,0,B|66:166|54:238,1,140,2|0
148,292,135301,2,0,B|180:304|224:304,1,70,10|0
296,272,135634,2,0,B|332:271|364:283,1,70,2|0
436,208,135968,5,10
404,108,136134,1,8
312,56,136301,2,0,B|253:102|180:90,1,140,6|10
100,68,136801,1,0
60,144,136968,2,0,B|106:202|94:275,1,140,2|8
44,344,137468,6,0,B|102:297|174:309,1,140,2|0
256,336,137968,2,0,B|288:336|344:320,1,70,10|0
435,239,138301,2,0,B|404:240|367:250,1,70,2|0
228,216,138634,2,0,B|259:215|296:205,1,70,10|0
424,140,138968,6,0,B|365:93|292:105,1,140,2|8
220,64,139468,2,0,B|161:110|88:98,1,140,2|0
20,148,139968,1,8
32,232,140134,1,0
88,296,140301,2,0,B|146:249|219:261,1,140,2|8
292,300,140801,2,0,B|364:311|423:265,1,140,2|0
476,172,141301,1,8
412,88,141468,5,0
412,88,141551,1,0
412,88,141634,2,0,B|339:76|280:122,1,140,6|10
196,124,142134,1,0
116,96,142301,2,0,B|84:116|36:120,2,70,2|0|8
192,212,142801,6,0,B|250:165|323:177,1,140,2|0
396,216,143301,2,0,B|408:248|416:304,1,70,10|0
332,264,143634,2,0,B|336:300|332:352,1,70,2|0
256,296,143968,2,0,B|256:328|240:368,1,70,10|0
104,364,144301,6,0,B|92:291|137:232,1,140,2|10
88,164,144801,1,0
128,88,144968,2,0,B|200:99|259:54,1,140,2|8
384,116,145468,2,0,B|311:104|252:150,1,140,2|0
236,232,145968,2,0,B|260:320,1,70,10|0
388,348,146301,2,0,B|369:280,1,70,2|0
444,204,146634,5,10
384,116,146801,1,8
284,84,146968,2,0,B|225:129|152:117,1,140,6|10
76,152,147468,1,0
28,220,147634,2,0,B|28:256|8:308,2,70,2|0|8
144,300,148134,6,0,B|202:254|275:266,1,140,2|0
348,308,148634,2,0,B|384:320|440:320,1,70,10|0
496,248,148968,2,0,B|460:236|404:236,1,70,2|0
376,144,149301,2,0,B|412:156|468:156,1,70,10|0
328,76,149634,6,0,B|255:64|196:109,1,140,6|10
156,184,150134,1,0
184,264,150301,2,0,B|256:275|315:230,1,140,6|8
256,192,150801,12,8,151968
360,196,152301,6,0,B|388:148|332:108|360:60,2,140,2|0|2
396,272,153134,1,0
328,324,153301,1,0
256,284,153468,2,0,B|183:272|124:317,1,140,2|0
48,284,153968,2,0,B|56:216,1,70
148,160,154301,6,0,B|180:144,4,35
64,100,154801,2,0,B|32:115,2,35,0|0|4
