osu file format v14

[General]
AudioFilename: Energy_Drink!.mp3
AudioLeadIn: 0
PreviewTime: 112650
Countdown: 1
SampleSet: None
StackLeniency: 0.7
Mode: 0
LetterboxInBreaks: 1
WidescreenStoryboard: 1

[Editor]
DistanceSpacing: 1
BeatDivisor: 4
GridSize: 4
TimelineZoom: 2.1

[Metadata]
Title:Energy_Drink Girl * Fein-chan!
TitleUnicode:エナジー_ドリン娘◎ふぇいんちゃん!
Artist:Nanahira
ArtistUnicode:ななひら
Creator:- Kevin
Version:Cafein
Source:Voltage Ignition 2
Tags:かめりあ Camellia
BeatmapID:627503
BeatmapSetID:276847

[Difficulty]
HPDrainRate:7
CircleSize:4
OverallDifficulty:8
ApproachRate:9.6
SliderMultiplier:1.7
SliderTickRate:1

[Events]
//Background and Video events
0,0,"BG.png",0,0
//Break Periods
2,91177,99332
2,176405,190695
//Storyboard Layer 0 (Background)
//Storyboard Layer 1 (Fail)
//Storyboard Layer 2 (Pass)
//Storyboard Layer 3 (Foreground)
//Storyboard Sound Samples

[TimingPoints]
1660,272.727272727273,4,2,0,65,1,0
2478,-100,4,2,0,40,0,0
2750,-100,4,2,0,90,0,0
196932,-100,4,2,0,90,0,0

[Colours]
Combo1 : 255,62,255
Combo2 : 0,255,255
Combo3 : 157,0,79
Combo4 : 0,165,244

[HitObjects]
256,192,1387,12,0,2614,0:0:0:0:
248,318,2750,6,0,P|289:315|336:290,1,85,2|0,0:0|0:0,0:0:0:0:
314,101,3023,2,0,P|231:99|160:143,2,170,0|0|0,0:0|0:0|0:0,0:0:0:0:
260,207,3705,1,0,0:0:0:0:
256,208,3841,6,0,P|272:272|360:336,1,170,0|2,0:0|0:0,0:0:0:0:
468,312,4250,1,2,0:0:0:0:
468,312,4387,1,2,0:0:0:0:
256,208,4660,1,2,0:0:0:0:
160,140,4796,5,2,0:0:0:0:
160,140,4932,1,2,0:0:0:0:
108,32,5069,1,0,0:0:0:0:
108,32,5205,1,0,0:0:0:0:
228,36,5341,1,0,0:0:0:0:
228,36,5478,2,0,B|273:36|312:8,2,85
256,152,5887,5,0,0:0:0:0:
340,236,6022,1,0,0:0:0:0:
256,320,6160,1,0,0:0:0:0:
256,236,6432,5,0,0:0:0:0:
256,236,6705,5,2,0:0:0:0:
242,257,6773,1,0,0:0:0:0:
226,274,6841,1,2,0:0:0:0:
206,290,6910,1,0,0:0:0:0:
184,297,6978,1,2,0:0:0:0:
160,295,7046,1,0,0:0:0:0:
140,288,7114,6,0,B|79:225|60:141,1,170,2|0,0:0|0:0,0:0:0:0:
300,304,7523,2,0,B|282:220|221:157,1,170,2|0,0:0|0:0,0:0:0:0:
222,156,7932,1,2,0:0:0:0:
315,365,8478,5,4,0:0:0:0:
222,156,8887,1,4,0:0:0:0:
16,216,9296,1,4,0:0:0:0:
292,268,10387,5,0,0:0:0:0:
292,268,10523,1,0,0:0:0:0:
292,268,10660,1,0,0:0:0:0:
292,268,10796,2,0,B|243:226|264:165|213:119,1,170,0|0,0:0|0:0,0:0:0:0:
214,120,11204,1,2,0:0:0:0:
292,268,11478,5,0,0:0:0:0:
385,181,11614,1,0,0:0:0:0:
325,68,11751,1,8,0:0:0:0:
200,98,11887,1,0,0:0:0:0:
171,222,12022,1,0,0:0:0:0:
232,324,12159,1,0,0:0:0:0:
248,340,12228,1,0,0:0:0:0:
272,344,12296,1,8,0:0:0:0:
384,308,12431,5,0,0:0:0:0:
384,308,12499,1,0,0:0:0:0:
384,308,12568,1,0,0:0:0:0:
384,180,12705,1,0,0:0:0:0:
316,104,12841,1,8,0:0:0:0:
288,92,12909,1,0,0:0:0:0:
257,89,12978,2,0,B|211:89|175:109,1,85
252,240,13250,2,0,B|298:239|334:220,1,85,0|10,0:0|0:0,0:0:0:0:
188,176,13523,2,0,B|143:176|106:196,1,85,2|2,0:0|0:0,0:0:0:0:
109,324,13796,5,0,0:0:0:0:
216,324,13932,1,8,0:0:0:0:
243,328,13999,1,0,0:0:0:0:
271,316,14068,2,0,B|307:296|353:297,1,85
452,232,14341,5,0,0:0:0:0:
464,206,14409,1,0,0:0:0:0:
468,178,14478,2,0,B|471:131|450:92,1,85,8|0,0:0|0:0,0:0:0:0:
294,26,14750,5,0,0:0:0:0:
379,108,14887,1,0,0:0:0:0:
308,204,15023,1,8,0:0:0:0:
222,123,15159,2,0,B|178:122|141:142,1,85
188,319,15432,2,0,B|233:319|269:300,1,85,0|10,0:0|0:0,0:0:0:0:
135,237,15705,2,2,B|90:238|53:257,1,85,0|2,0:0|0:0,0:0:0:0:
116,356,15978,5,0,0:0:0:0:
232,352,16113,1,8,0:0:0:0:
260,348,16181,1,0,0:0:0:0:
288,340,16250,2,0,B|332:328|356:288,1,85
292,188,16523,1,0,0:0:0:0:
296,160,16590,1,0,0:0:0:0:
312,136,16659,2,0,B|333:98|376:82,1,85,8|0,0:0|0:0,0:0:0:0:
384,200,16931,5,0,0:0:0:0:
384,200,17068,2,0,B|424:212|487:167,1,85,0|8,0:0|0:0,0:0:0:0:
400,84,17341,2,0,B|312:60|228:92,1,170
132,152,17750,5,10,0:0:0:0:
252,261,17886,1,2,0:0:0:0:
252,261,18023,2,0,B|272:298|271:344,1,85,2|0,0:0|0:0,0:0:0:0:
156,312,18296,1,8,0:0:0:0:
156,312,18363,1,0,0:0:0:0:
156,312,18432,2,0,B|136:276|137:230,1,85
92,120,18704,1,0,0:0:0:0:
92,120,18772,1,0,0:0:0:0:
92,120,18840,1,8,0:0:0:0:
192,56,18978,1,0,0:0:0:0:
220,52,19046,1,0,0:0:0:0:
248,52,19114,1,0,0:0:0:0:
276,64,19182,1,0,0:0:0:0:
300,80,19250,1,0,0:0:0:0:
320,100,19319,1,0,0:0:0:0:
336,128,19387,6,0,B|356:164|356:184,3,42.5
360,196,19660,2,0,P|356:228|332:260,3,42.5
340,264,19932,1,0,0:0:0:0:
320,288,20000,1,0,0:0:0:0:
300,308,20069,1,0,0:0:0:0:
276,328,20137,1,0,0:0:0:0:
248,340,20205,1,0,0:0:0:0:
236,160,20478,1,4,0:0:0:0:
112,156,20614,1,0,0:0:0:0:
112,156,20682,1,0,0:0:0:0:
112,156,20750,1,0,0:0:0:0:
236,160,20886,1,0,0:0:0:0:
236,160,20955,1,0,0:0:0:0:
236,160,21023,2,0,B|320:160,1,85,8|0,0:0|0:0,0:0:0:0:
314,301,21296,5,0,0:0:0:0:
203,238,21432,1,0,0:0:0:0:
218,112,21568,1,8,0:0:0:0:
340,69,21705,1,0,0:0:0:0:
452,120,21840,1,0,0:0:0:0:
452,120,21909,1,0,0:0:0:0:
452,120,21977,1,0,0:0:0:0:
440,244,22113,1,10,0:0:0:0:
324,184,22249,1,2,0:0:0:0:
232,80,22387,6,0,B|190:112|186:168,1,85,2|0,0:0|0:0,0:0:0:0:
168,248,22659,1,8,0:0:0:0:
168,284,22727,1,0,0:0:0:0:
184,320,22796,1,0,0:0:0:0:
264,368,22932,2,0,B|301:348|347:350,2,85,0|0|8,0:0|0:0|0:0,0:0:0:0:
144,360,23341,1,0,0:0:0:0:
64,272,23478,5,0,0:0:0:0:
170,192,23614,2,0,B|150:155|112:132,1,85,0|8,0:0|0:0,0:0:0:0:
52,48,23887,1,0,0:0:0:0:
152,40,24023,6,0,B|197:40|233:21,1,85,0|0,0:0|0:0,0:0:0:0:
255,105,24296,6,0,B|296:104|336:124,1,85,10|2,0:0|0:0,0:0:0:0:
364,168,24500,1,0,0:0:0:0:
364,168,24568,2,0,B|400:186|454:188,2,85,2|0|8,0:0|0:0|0:0,0:0:0:0:
176,229,24978,1,0,0:0:0:0:
88,158,25114,1,0,0:0:0:0:
163,77,25250,1,0,0:0:0:0:
249,145,25387,1,8,0:0:0:0:
286,248,25523,6,0,B|284:295|304:331,1,85
225,135,25796,2,0,B|226:89|207:53,1,85,0|8,0:0|0:0,0:0:0:0:
199,222,26068,2,0,B|152:221|116:241,1,85
312,161,26341,1,0,0:0:0:0:
312,161,26478,2,0,B|358:163|394:144,1,85,10|2,0:0|0:0,0:0:0:0:
451,219,26750,5,2,0:0:0:0:
376,273,26887,1,0,0:0:0:0:
286,248,27023,2,0,B|239:248|203:267,1,85,8|0,0:0|0:0,0:0:0:0:
165,353,27296,1,0,0:0:0:0:
86,299,27432,1,0,0:0:0:0:
127,214,27568,1,8,0:0:0:0:
127,120,27841,6,0,B|163:100|192:56,1,85,2|0,0:0|0:0,0:0:0:0:
309,113,28114,2,0,B|272:134|244:176,1,85,2|0,0:0|0:0,0:0:0:0:
364,284,28387,2,0,B|400:264|424:212,1,85,2|0,0:0|0:0,0:0:0:0:
287,247,28659,2,0,B|252:267|216:308,1,85,2|0,0:0|0:0,0:0:0:0:
97,294,28932,2,0,B|175:253|220:180,1,170,0|8,0:0|0:0,0:0:0:0:
300,104,29341,1,0,0:0:0:0:
410,132,29478,2,0,B|364:206|286:248,1,170,0|8,0:0|0:0,0:0:0:0:
227,342,29887,1,0,0:0:0:0:
227,342,30023,1,0,0:0:0:0:
397,252,30159,5,0,0:0:0:0:
410,132,30296,1,8,0:0:0:0:
288,133,30432,1,0,0:0:0:0:
278,252,30568,1,0,0:0:0:0:
397,252,30705,1,0,0:0:0:0:
410,132,30841,2,0,P|408:76|424:44,1,85,8|0,0:0|0:0,0:0:0:0:
303,94,31114,6,0,B|266:112|220:112,1,85
170,210,31387,2,0,B|133:230|108:269,1,85,8|0,0:0|0:0,0:0:0:0:
27,222,31659,1,0,0:0:0:0:
52,132,31796,1,0,0:0:0:0:
131,85,31932,1,8,0:0:0:0:
221,111,32068,6,0,B|257:91|282:53,1,85
429,65,32341,2,0,B|393:86|367:123,1,85,0|8,0:0|0:0,0:0:0:0:
285,251,32614,2,0,B|322:232|367:232,1,85
266,329,32887,1,0,0:0:0:0:
266,329,33023,1,8,0:0:0:0:
271,220,33159,5,0,0:0:0:0:
271,220,33228,1,0,0:0:0:0:
271,220,33296,2,0,B|250:183|212:158,1,85
257,50,33568,1,8,0:0:0:0:
349,128,33705,1,0,0:0:0:0:
447,194,33841,1,0,0:0:0:0:
369,285,33978,1,0,0:0:0:0:
271,220,34114,1,8,0:0:0:0:
349,128,34250,6,0,B|385:108|410:69,1,85
216,212,34523,2,0,B|196:248|193:293,1,85,0|8,0:0|0:0,0:0:0:0:
208,68,34796,2,0,B|185:34|139:10,1,85
104,172,35068,1,0,0:0:0:0:
104,172,35137,1,0,0:0:0:0:
104,172,35205,2,0,B|79:210|43:231,1,85,8|0,0:0|0:0,0:0:0:0:
208,68,35478,5,0,0:0:0:0:
104,172,35614,1,0,0:0:0:0:
201,302,35750,1,8,0:0:0:0:
312,297,35887,2,0,B|336:261|373:240,1,85
387,149,36159,5,0,0:0:0:0:
390,120,36228,1,0,0:0:0:0:
393,91,36296,1,8,0:0:0:0:
302,31,36432,2,0,B|277:69|240:90,1,85
165,167,36705,5,0,0:0:0:0:
140,153,36773,1,0,0:0:0:0:
115,140,36841,1,8,0:0:0:0:
47,225,36978,2,0,B|84:251|105:287,1,85
214,268,37250,1,0,0:0:0:0:
214,268,37318,1,0,0:0:0:0:
214,268,37387,2,0,B|235:304|272:330,1,85,8|0,0:0|0:0,0:0:0:0:
381,283,37659,5,0,0:0:0:0:
285,212,37796,1,0,0:0:0:0:
352,116,37932,1,8,0:0:0:0:
450,183,38068,1,0,0:0:0:0:
381,283,38205,2,0,B|426:291|488:264,2,85,0|0|8,0:0|0:0|0:0,0:0:0:0:
381,283,38614,2,0,B|364:180,1,85
360,140,38886,1,0,0:0:0:0:
339,34,39023,5,8,0:0:0:0:
241,54,39159,1,0,0:0:0:0:
200,148,39296,1,0,0:0:0:0:
124,80,39432,1,0,0:0:0:0:
200,148,39568,1,8,0:0:0:0:
244,240,39705,1,0,0:0:0:0:
244,240,39841,6,0,B|181:277|179:298|141:378,2,170,0|8|0,0:0|0:0|0:0,0:0:0:0:
144,224,40523,1,0,0:0:0:0:
130,127,40659,2,0,B|155:90|192:69,1,85,8|0,0:0|0:0,0:0:0:0:
332,156,40932,2,0,B|286:230|208:271,1,170,0|8,0:0|0:0,0:0:0:0:
215,158,41341,2,0,B|339:275,1,170
339,276,41750,1,8,0:0:0:0:
417,196,41887,5,0,0:0:0:0:
417,196,41955,1,0,0:0:0:0:
417,196,42023,2,0,B|398:160|398:115,1,85
297,98,42296,2,0,B|296:53|277:16,1,85
215,158,42568,2,0,B|233:197|233:242,1,85
307,314,42841,2,0,B|344:296|389:296,1,85
417,196,43114,5,2,0:0:0:0:
400,180,43387,1,2,0:0:0:0:
384,164,43659,1,2,0:0:0:0:
292,92,43932,1,2,0:0:0:0:
263,89,44000,1,0,0:0:0:0:
237,99,44068,1,0,0:0:0:0:
212,112,44137,1,0,0:0:0:0:
189,129,44205,6,0,B|151:147|124:184,1,85,2|0,0:0|0:0,0:0:0:0:
68,288,44478,1,8,0:0:0:0:
188,296,44614,2,0,B|232:300|270:277,1,85
328,172,44887,2,0,B|328:128|309:90,1,85,0|8,0:0|0:0,0:0:0:0:
192,72,45159,5,0,0:0:0:0:
149,76,45228,1,0,0:0:0:0:
111,97,45296,2,0,B|90:134|53:159,2,85,0|0|8,0:0|0:0|0:0,0:0:0:0:
244,204,45705,2,0,B|219:242|182:262,1,85
83,348,45978,2,2,B|120:323|162:315,2,85,2|2|0,0:0|0:0|0:0,0:0:0:0:
372,240,46387,6,0,B|372:195|354:157,1,85
312,64,46659,1,8,0:0:0:0:
240,136,46796,2,0,B|240:181|259:218,1,85
148,264,47068,2,0,B|148:220|129:182,1,85,0|8,0:0|0:0,0:0:0:0:
64,40,47341,5,0,0:0:0:0:
64,40,47409,1,0,0:0:0:0:
64,40,47478,1,0,0:0:0:0:
176,172,47614,1,0,0:0:0:0:
280,96,47750,1,8,0:0:0:0:
176,172,47887,1,0,0:0:0:0:
292,240,48023,1,0,0:0:0:0:
261,329,48159,1,2,0:0:0:0:
230,332,48228,1,0,0:0:0:0:
200,334,48296,1,10,0:0:0:0:
99,288,48432,1,0,0:0:0:0:
78,131,48568,6,0,B|118:206,1,85,2|0,0:0|0:0,0:0:0:0:
230,332,48841,2,0,B|178:233,1,85,2|0,0:0|0:0,0:0:0:0:
209,139,49114,1,2,0:0:0:0:
328,149,49250,1,0,0:0:0:0:
309,267,49387,1,2,0:0:0:0:
190,257,49523,6,0,B|165:295|129:315,1,85,0|2,0:0|0:0,0:0:0:0:
328,149,49796,2,0,B|352:112|389:91,1,85,2|8,0:0|0:0,0:0:0:0:
309,267,50068,2,0,B|347:293|367:329,1,85,2|2,0:0|0:0,0:0:0:0:
209,139,50341,2,0,B|172:115|151:78,1,85,0|10,0:0|0:0,0:0:0:0:
308,204,50614,5,0,0:0:0:0:
308,204,50682,1,0,0:0:0:0:
308,204,50750,2,0,B|353:204|390:187,1,85
316,100,51023,1,8,0:0:0:0:
209,139,51159,1,0,0:0:0:0:
209,139,51228,1,0,0:0:0:0:
209,139,51296,2,0,B|164:139|127:158,1,85
94,264,51568,1,8,0:0:0:0:
202,288,51705,6,0,B|240:313|260:350,1,85
268,200,51978,2,0,B|230:174|210:138,1,85,0|8,0:0|0:0,0:0:0:0:
237,38,52250,1,0,0:0:0:0:
316,100,52387,1,0,0:0:0:0:
362,8,52523,1,0,0:0:0:0:
434,83,52659,1,8,0:0:0:0:
388,176,52796,5,0,0:0:0:0:
388,176,52864,1,0,0:0:0:0:
388,176,52932,2,0,B|405:214|406:259,2,85,0|0|8,0:0|0:0|0:0,0:0:0:0:
316,100,53341,2,0,B|263:129|263:129|272:196|176:229,1,170
177,138,53750,1,8,0:0:0:0:
172,290,53887,5,0,0:0:0:0:
172,290,53955,1,0,0:0:0:0:
172,290,54023,2,0,B|193:327|230:352,2,85,0|0|8,0:0|0:0|0:0,0:0:0:0:
292,276,54432,2,0,B|348:272|388:216,1,85
460,164,54704,1,0,0:0:0:0:
460,164,54841,1,8,0:0:0:0:
406,48,54978,5,0,0:0:0:0:
406,48,55046,1,0,0:0:0:0:
406,48,55114,2,0,B|361:48|323:67,1,85
214,46,55387,2,0,B|189:84|153:105,1,85,8|0,0:0|0:0,0:0:0:0:
126,229,55659,1,0,0:0:0:0:
253,238,55796,1,0,0:0:0:0:
253,238,55864,1,0,0:0:0:0:
253,238,55932,2,0,B|253:194|234:156,1,85,8|0,0:0|0:0,0:0:0:0:
145,273,56205,5,0,0:0:0:0:
265,364,56341,1,0,0:0:0:0:
357,244,56478,1,8,0:0:0:0:
232,156,56614,1,0,0:0:0:0:
232,156,56750,1,0,0:0:0:0:
451,210,56887,5,0,0:0:0:0:
451,210,56955,1,0,0:0:0:0:
451,210,57023,2,0,B|430:175|393:149,1,85,8|0,0:0|0:0,0:0:0:0:
288,116,57296,2,0,B|288:71|269:34,1,85
280,216,57568,2,0,B|255:254|218:275,1,85,8|0,0:0|0:0,0:0:0:0:
124,344,57841,1,0,0:0:0:0:
64,240,57978,1,0,0:0:0:0:
120,132,58114,1,8,0:0:0:0:
124,344,58386,2,0,B|160:324|185:287,1,85,4|0,0:0|0:0,0:0:0:0:
364,128,58796,2,0,B|339:166|303:186,1,85,4|0,0:0|0:0,0:0:0:0:
304,360,59204,2,0,B|303:314|285:277,1,85,4|0,0:0|0:0,0:0:0:0:
127,273,59613,2,0,B|89:249|69:213,1,85,4|0,0:0|0:0,0:0:0:0:
172,180,59887,1,0,0:0:0:0:
210,87,60023,2,0,B|248:113|269:148,2,85
256,268,60568,1,4,0:0:0:0:
400,92,60978,1,4,0:0:0:0:
416,116,61387,1,4,0:0:0:0:
432,140,61795,1,4,0:0:0:0:
180,313,62068,5,2,0:0:0:0:
302,280,62205,1,0,0:0:0:0:
212,187,62341,1,2,0:0:0:0:
84,201,62478,1,2,0:0:0:0:
256,88,62750,6,0,P|316:72|360:80,1,85,0|2,0:0|0:0,0:0:0:0:
447,117,63023,1,2,0:0:0:0:
423,243,63159,1,0,0:0:0:0:
328,157,63296,1,2,0:0:0:0:
447,117,63432,1,2,0:0:0:0:
423,243,63568,1,0,0:0:0:0:
302,280,63705,1,2,0:0:0:0:
302,280,63773,1,0,0:0:0:0:
302,280,63841,2,0,B|242:303|192:275|135:318,1,170,2|2,0:0|0:0,0:0:0:0:
246,378,64251,5,0,0:0:0:0:
246,378,64319,1,0,0:0:0:0:
246,378,64387,2,0,B|211:321|232:274|209:214,1,170,2|2,0:0|0:0,0:0:0:0:
195,129,64796,1,2,0:0:0:0:
308,154,64932,1,2,0:0:0:0:
450,156,65477,6,0,B|384:160|384:160|380:94|315:74,1,170,0|0,0:0|0:0,0:0:0:0:
203,161,66023,1,0,0:0:0:0:
156,300,66296,1,0,0:0:0:0:
254,188,66568,5,0,0:0:0:0:
363,189,66704,1,0,0:0:0:0:
392,56,66841,1,0,0:0:0:0:
254,188,67114,5,0,0:0:0:0:
193,279,67250,1,0,0:0:0:0:
193,279,67318,1,0,0:0:0:0:
193,279,67386,1,8,0:0:0:0:
67,228,67523,1,0,0:0:0:0:
88,128,67659,1,0,0:0:0:0:
192,71,67796,5,0,0:0:0:0:
192,71,67931,1,8,0:0:0:0:
170,210,68069,1,0,0:0:0:0:
170,210,68204,2,0,B|133:230|108:269,1,85
27,222,68477,1,10,0:0:0:0:
52,132,68614,1,2,0:0:0:0:
131,85,68750,1,2,0:0:0:0:
221,111,68886,6,0,B|257:91|282:53,1,85,0|8,0:0|0:0,0:0:0:0:
429,65,69159,2,0,B|393:86|367:123,1,85
285,251,69432,2,0,B|322:232|367:232,1,85,0|8,0:0|0:0,0:0:0:0:
266,329,69705,1,0,0:0:0:0:
266,329,69840,1,0,0:0:0:0:
271,220,69977,5,0,0:0:0:0:
271,220,70045,1,0,0:0:0:0:
271,220,70113,2,0,B|250:183|212:158,1,85,8|0,0:0|0:0,0:0:0:0:
260,48,70386,1,0,0:0:0:0:
349,128,70522,1,0,0:0:0:0:
447,194,70659,1,10,0:0:0:0:
369,285,70795,1,2,0:0:0:0:
271,220,70932,1,2,0:0:0:0:
349,128,71068,6,0,B|385:108|410:69,1,85,0|8,0:0|0:0,0:0:0:0:
200,156,71341,2,0,B|165:177|139:214,1,85
172,40,71614,2,0,B|210:26|255:34,1,85,0|8,0:0|0:0,0:0:0:0:
270,134,71886,1,0,0:0:0:0:
270,134,71955,1,0,0:0:0:0:
270,134,72023,2,0,B|245:172|209:193,1,85
115,140,72296,5,8,0:0:0:0:
170,210,72432,1,0,0:0:0:0:
170,210,72568,2,0,B|133:230|108:269,1,85,2|2,0:0|0:0,0:0:0:0:
27,222,72841,1,10,0:0:0:0:
52,132,72978,1,0,0:0:0:0:
131,85,73114,1,0,0:0:0:0:
221,111,73250,6,0,B|257:91|282:53,1,85,0|8,0:0|0:0,0:0:0:0:
429,65,73523,2,0,B|393:86|367:123,1,85
285,251,73796,2,0,B|322:232|367:232,1,85,0|8,0:0|0:0,0:0:0:0:
266,329,74068,1,0,0:0:0:0:
266,329,74204,1,0,0:0:0:0:
271,220,74341,5,0,0:0:0:0:
271,220,74409,1,0,0:0:0:0:
271,220,74477,2,0,B|250:183|212:158,1,85,8|0,0:0|0:0,0:0:0:0:
248,44,74750,1,0,0:0:0:0:
340,120,74886,1,0,0:0:0:0:
340,120,74955,1,0,0:0:0:0:
340,120,75023,2,0,B|370:155|380:194,1,85,0|0,0:0|0:0,0:0:0:0:
314,301,75295,1,8,0:0:0:0:
314,301,75432,1,0,0:0:0:0:
261,202,75568,1,0,0:0:0:0:
261,202,75705,1,0,0:0:0:0:
201,293,75841,6,0,B|160:292|119:313,1,85,8|0,0:0|0:0,0:0:0:0:
44,176,76114,2,0,B|43:217|64:257,1,85
80,108,76387,2,0,B|120:88|162:90,1,85,8|0,0:0|0:0,0:0:0:0:
203,178,76659,5,0,0:0:0:0:
209,207,76728,1,0,0:0:0:0:
212,237,76796,1,0,0:0:0:0:
209,266,76864,1,0,0:0:0:0:
201,293,76932,1,8,0:0:0:0:
314,301,77069,5,0,0:0:0:0:
450,251,77204,1,0,0:0:0:0:
429,108,77341,1,0,0:0:0:0:
287,89,77477,1,8,0:0:0:0:
288,88,77613,1,0,0:0:0:0:
84,156,77887,6,0,P|64:220|112:320,1,170
184,228,78295,1,8,0:0:0:0:
268,144,78432,1,0,0:0:0:0:
380,104,78568,2,0,B|412:138|420:179,1,85,0|0,0:0|0:0,0:0:0:0:
352,276,78841,1,8,0:0:0:0:
232,276,78978,2,0,B|172:214|152:128,1,170
264,168,79387,1,8,0:0:0:0:
380,188,79523,2,0,B|381:148|361:107,1,85
264,168,79796,1,0,0:0:0:0:
180,84,79932,2,0,B|220:64|262:66,1,85,8|0,0:0|0:0,0:0:0:0:
380,88,80205,5,0,0:0:0:0:
380,88,80341,2,0,B|379:128|399:169,1,85,0|8,0:0|0:0,0:0:0:0:
312,240,80613,1,0,0:0:0:0:
212,176,80750,2,0,B|184:152|180:92,1,85
300,84,81023,1,8,0:0:0:0:
418,105,81159,6,0,B|416:147|437:188,1,85
344,296,81432,2,0,B|348:252|324:216,1,85,0|8,0:0|0:0,0:0:0:0:
187,174,81705,2,0,B|166:134|168:92,1,85
328,152,81978,1,0,0:0:0:0:
484,216,82114,5,8,0:0:0:0:
484,216,82250,1,0,0:0:0:0:
484,216,82387,2,0,B|445:230|445:230|435:220|435:220|439:236|439:236|429:230|429:230|389:235|343:249,1,170,0|8,0:0|0:0,0:0:0:0:
250,295,82795,1,0,0:0:0:0:
255,191,82932,2,0,B|301:119|378:77,1,170,0|8,0:0|0:0,0:0:0:0:
257,32,83341,6,0,B|217:55|195:90,1,85
89,241,83614,2,0,B|130:219|152:184,1,85,0|8,0:0|0:0,0:0:0:0:
255,191,83886,1,0,0:0:0:0:
345,139,84023,1,0,0:0:0:0:
448,144,84159,1,0,0:0:0:0:
452,246,84296,2,0,B|376:290|289:289,1,170,8|0,0:0|0:0,0:0:0:0:
197,345,84705,5,0,0:0:0:0:
160,242,84841,1,0,0:0:0:0:
256,192,84978,2,0,B|296:171|318:136,2,85,0|8|0,0:0|0:0|0:0,0:0:0:0:
153,114,85387,1,0,0:0:0:0:
249,64,85523,1,0,0:0:0:0:
256,192,85660,1,8,0:0:0:0:
366,187,85796,5,0,0:0:0:0:
376,60,85932,1,0,0:0:0:0:
249,64,86068,1,0,0:0:0:0:
225,185,86204,1,0,0:0:0:0:
216,203,86273,1,0,0:0:0:0:
210,225,86341,1,0,0:0:0:0:
207,245,86409,1,0,0:0:0:0:
209,266,86477,1,0,0:0:0:0:
211,287,86545,1,0,0:0:0:0:
217,307,86614,1,0,0:0:0:0:
227,325,86682,1,0,0:0:0:0:
236,342,86750,6,0,B|276:322|318:324,1,85,10|0,0:0|0:0,0:0:0:0:
408,348,87022,1,0,0:0:0:0:
396,180,87296,2,0,B|437:183|478:163,1,85,8|0,0:0|0:0,0:0:0:0:
512,76,87568,1,0,0:0:0:0:
284,282,87841,2,0,B|326:283|367:262,1,85,8|0,0:0|0:0,0:0:0:0:
396,180,88114,1,0,0:0:0:0:
276,184,88250,2,2,B|235:183|194:204,1,85,0|8,0:0|0:0,0:0:0:0:
152,288,88522,1,0,0:0:0:0:
152,288,88795,5,0,0:0:0:0:
152,288,88863,1,0,0:0:0:0:
152,288,88932,2,0,B|116:316|96:356,2,85,0|0|0,0:0|0:0|0:0,0:0:0:0:
227,334,89341,1,0,0:0:0:0:
269,234,89477,1,0,0:0:0:0:
180,168,89614,1,0,0:0:0:0:
253,84,89750,1,0,0:0:0:0:
342,151,89887,2,0,B|383:153|424:132,1,85
269,234,90295,6,0,B|227:232|186:253,1,85
253,84,90568,2,0,B|294:87|335:66,1,85
180,168,90841,2,0,B|138:167|97:187,1,85
256,192,99841,12,0,100523,0:0:0:0:
92,196,100660,6,0,P|120:240|176:268,1,85
264,244,100931,1,0,0:0:0:0:
368,188,101068,2,0,B|409:168|450:170,2,85
264,244,101477,1,0,0:0:0:0:
164,184,101613,6,0,B|207:167|232:135,1,85
48,136,101886,2,0,B|15:180|21:233,1,85
36,336,102160,1,0,0:0:0:0:
36,336,102228,1,0,0:0:0:0:
36,336,102296,2,0,B|77:339|118:318,1,85
224,264,102568,1,0,0:0:0:0:
320,196,102704,5,0,0:0:0:0:
320,196,102773,1,0,0:0:0:0:
320,196,102841,2,0,B|321:154|301:113,1,85
124,132,103114,2,0,B|165:135|206:114,1,85
324,84,103387,5,0,0:0:0:0:
388,184,103523,1,0,0:0:0:0:
316,276,103659,1,0,0:0:0:0:
200,300,103796,1,0,0:0:0:0:
119,211,103932,1,0,0:0:0:0:
119,211,104069,5,0,0:0:0:0:
55,294,104205,1,0,0:0:0:0:
120,212,104342,1,0,0:0:0:0:
208,160,104478,1,0,0:0:0:0:
227,154,104546,1,0,0:0:0:0:
248,153,104614,6,0,B|294:154|329:173,1,85
416,244,104887,1,0,0:0:0:0:
416,244,104955,1,0,0:0:0:0:
416,244,105023,1,0,0:0:0:0:
340,312,105160,1,0,0:0:0:0:
340,312,105228,1,0,0:0:0:0:
340,312,105296,2,0,B|299:332|258:329,1,85
340,180,105568,2,0,B|382:161|423:163,1,85
232,220,105841,6,0,B|210:178|212:137,1,85
216,104,106046,1,0,0:0:0:0:
224,72,106114,1,0,0:0:0:0:
72,48,106250,1,0,0:0:0:0:
128,147,106387,2,0,B|150:189|148:228,1,85
228,316,106660,2,0,B|240:296|252:240,3,56.6666666666667
318,199,107069,5,0,0:0:0:0:
318,199,107137,1,0,0:0:0:0:
318,199,107205,2,0,B|358:201|400:180,1,85
318,95,107478,1,0,0:0:0:0:
256,260,107750,2,0,B|232:300|193:318,1,85
52,128,108023,6,0,B|76:92|114:70,1,85
140,268,108296,2,0,P|168:224|168:184,1,85
236,76,108569,1,0,0:0:0:0:
264,72,108637,1,0,0:0:0:0:
292,64,108705,2,0,B|348:64|376:88,1,85
400,100,108910,1,0,0:0:0:0:
424,120,108978,1,0,0:0:0:0:
451,219,109114,1,0,0:0:0:0:
378,276,109250,5,0,0:0:0:0:
378,276,109319,1,0,0:0:0:0:
378,276,109387,2,0,B|357:310|316:333,2,85
225,312,109796,1,0,0:0:0:0:
225,312,109932,2,0,B|204:347|163:370,2,85
234,203,110340,5,0,0:0:0:0:
234,203,110410,1,0,0:0:0:0:
234,203,110478,2,0,B|255:168|296:145,1,85
268,53,110750,1,0,0:0:0:0:
413,47,110886,1,2,0:0:0:0:
346,175,111023,1,0,0:0:0:0:
216,108,111159,5,0,0:0:0:0:
339,7,111296,1,0,0:0:0:0:
447,126,111432,1,2,0:0:0:0:
458,147,111500,1,0,0:0:0:0:
470,168,111569,1,0,0:0:0:0:
346,175,111705,5,2,0:0:0:0:
268,53,111841,1,0,0:0:0:0:
413,47,111977,1,0,0:0:0:0:
346,175,112114,1,0,0:0:0:0:
216,108,112250,5,2,0:0:0:0:
140,232,112387,1,0,0:0:0:0:
124,252,112455,1,0,0:0:0:0:
112,272,112523,2,0,L|96:300,11,21.25
88,320,112932,6,0,P|172:336|200:328,1,85,0|0,0:0|0:0,0:0:0:0:
304,272,113205,2,0,P|264:256|212:256,1,85,0|0,0:0|0:0,0:0:0:0:
120,136,113478,2,0,P|180:152|296:124,1,170,0|0,0:0|0:0,0:0:0:0:
380,92,113887,1,0,0:0:0:0:
436,158,114023,2,0,B|458:199|456:240,1,85,0|0,0:0|0:0,0:0:0:0:
320,360,114296,2,0,B|361:338|382:303,1,85,0|0,0:0|0:0,0:0:0:0:
372,184,114569,1,0,0:0:0:0:
288,100,114705,1,0,0:0:0:0:
180,56,114841,2,0,P|120:44|60:56,1,85,0|0,0:0|0:0,0:0:0:0:
48,156,115114,6,0,P|60:204|160:304,1,170
252,328,115522,1,0,0:0:0:0:
372,332,115660,2,0,B|412:309|433:274,1,85
456,160,115932,1,0,0:0:0:0:
384,64,116069,1,0,0:0:0:0:
384,64,116205,1,0,0:0:0:0:
328,168,116341,1,0,0:0:0:0:
328,168,116410,1,0,0:0:0:0:
328,168,116478,2,0,B|307:203|266:226,1,85
136,200,116750,2,0,P|62:238|34:316,1,170
84,112,117296,6,0,P|132:60|172:48,1,85
276,64,117569,2,0,P|228:116|188:128,1,85
352,28,117841,1,0,0:0:0:0:
440,108,117978,1,0,0:0:0:0:
440,108,118114,6,0,B|478:149|478:225,1,85
368,240,118387,2,0,B|291:281|204:257,2,170
368,240,119205,1,0,0:0:0:0:
144,68,119478,2,0,B|103:145|108:232,2,170
227,342,120159,1,0,0:0:0:0:
227,342,120228,1,0,0:0:0:0:
227,342,120296,2,0,B|268:322|309:324,1,85
312,148,120569,5,0,0:0:0:0:
313,147,120705,1,0,0:0:0:0:
233,235,120841,1,0,0:0:0:0:
151,148,120978,1,0,0:0:0:0:
231,60,121114,1,0,0:0:0:0:
313,147,121251,5,0,0:0:0:0:
327,172,121319,1,0,0:0:0:0:
340,197,121387,1,0,0:0:0:0:
295,334,121522,1,0,0:0:0:0:
170,260,121660,1,0,0:0:0:0:
302,126,121796,2,0,B|259:45,1,85
161,115,122068,5,0,0:0:0:0:
154,137,122136,1,0,0:0:0:0:
144,164,122205,2,0,B|88:252,2,85
264,208,122614,1,0,0:0:0:0:
360,124,122750,2,0,B|400:103|441:105,1,85
370,31,123023,1,0,0:0:0:0:
288,88,123159,1,0,0:0:0:0:
188,108,123296,6,0,B|148:107|106:128,2,85
218,266,123841,2,0,B|197:301|156:324,2,85
276,152,124250,5,0,0:0:0:0:
276,152,124387,2,0,B|297:117|338:94,1,85
364,212,124659,5,0,0:0:0:0:
396,64,124795,1,0,0:0:0:0:
244,60,124932,1,0,0:0:0:0:
244,180,125068,1,0,0:0:0:0:
244,180,125136,1,0,0:0:0:0:
244,180,125205,1,0,0:0:0:0:
320,88,125341,1,0,0:0:0:0:
392,184,125478,2,0,B|359:265|247:301,1,170
152,264,125886,1,0,0:0:0:0:
244,180,126023,6,0,B|316:124|320:32,1,170
84,72,126569,1,0,0:0:0:0:
72,289,126841,2,0,B|94:331|129:352,1,85
220,260,127113,2,0,B|260:263|301:242,1,85
375,187,127386,1,0,0:0:0:0:
375,92,127523,1,0,0:0:0:0:
288,56,127659,1,0,0:0:0:0:
199,86,127796,5,0,0:0:0:0:
199,86,127932,2,0,B|121:127,1,85
145,300,128205,1,0,0:0:0:0:
145,300,128273,1,0,0:0:0:0:
145,300,128341,2,0,B|221:260,1,85
320,261,128614,1,0,0:0:0:0:
376,188,128750,5,0,0:0:0:0:
376,188,128818,1,0,0:0:0:0:
376,188,128886,2,0,B|318:105,1,85
199,86,129160,1,0,0:0:0:0:
271,192,129296,2,0,B|320:261,1,85
178,183,129569,1,0,0:0:0:0:
138,268,129705,1,0,0:0:0:0:
231,290,129840,1,0,0:0:0:0:
168,356,129978,1,0,0:0:0:0:
168,356,130046,1,0,0:0:0:0:
168,356,130113,1,0,0:0:0:0:
330,152,130386,5,0,0:0:0:0:
330,152,130523,2,0,B|267:150|240:219|183:231,1,170
84,216,130932,1,0,0:0:0:0:
28,132,131069,1,0,0:0:0:0:
88,52,131205,1,0,0:0:0:0:
240,343,131477,5,0,0:0:0:0:
301,276,131613,1,0,0:0:0:0:
389,263,131750,2,0,B|379:210|339:204|316:96,1,170
252,60,132160,1,0,0:0:0:0:
252,60,132296,2,0,B|188:44|148:95|148:95|85:106,1,170
96,199,133114,5,0,0:0:0:0:
115,284,133250,1,0,0:0:0:0:
126,306,133318,1,0,0:0:0:0:
137,327,133386,1,0,0:0:0:0:
244,272,133659,6,0,B|288:348,1,85
204,220,133932,2,0,B|238:156|356:156,2,170
78,131,134750,6,0,B|118:206,1,85
230,332,135023,2,0,B|178:233,1,85,8|0,0:0|0:0,0:0:0:0:
209,139,135296,1,0,0:0:0:0:
328,149,135432,1,0,0:0:0:0:
309,267,135569,1,8,0:0:0:0:
190,257,135705,6,0,B|165:295|129:315,1,85
328,149,135977,2,0,B|352:112|389:91,1,85,0|8,0:0|0:0,0:0:0:0:
309,267,136250,2,0,B|347:293|367:329,1,85
209,139,136523,2,0,B|172:115|151:78,1,85,0|8,0:0|0:0,0:0:0:0:
308,204,136796,5,0,0:0:0:0:
308,204,136864,1,0,0:0:0:0:
308,204,136932,2,0,B|353:204|390:187,1,85
316,100,137205,1,8,0:0:0:0:
209,139,137341,1,0,0:0:0:0:
209,139,137409,1,0,0:0:0:0:
209,139,137478,2,0,B|164:139|127:158,1,85
94,264,137750,1,8,0:0:0:0:
202,288,137887,6,0,B|240:313|260:350,1,85
268,200,138159,2,0,B|230:174|210:138,1,85,0|8,0:0|0:0,0:0:0:0:
237,38,138431,1,0,0:0:0:0:
316,100,138569,1,0,0:0:0:0:
362,8,138705,1,0,0:0:0:0:
434,83,138840,1,8,0:0:0:0:
388,176,138977,5,0,0:0:0:0:
388,176,139045,1,0,0:0:0:0:
388,176,139114,2,0,B|335:205|335:205|344:272|248:305,1,170,0|8,0:0|0:0,0:0:0:0:
220,208,139523,1,0,0:0:0:0:
116,216,139660,1,0,0:0:0:0:
156,124,139796,1,0,0:0:0:0:
220,208,139932,1,8,0:0:0:0:
172,290,140068,5,0,0:0:0:0:
172,290,140137,1,0,0:0:0:0:
172,290,140205,2,0,B|193:327|230:352,2,85,0|0|8,0:0|0:0|0:0,0:0:0:0:
277,248,140614,2,0,B|345:207|345:207|337:139|413:112,1,170
431,198,141022,1,8,0:0:0:0:
406,48,141159,5,0,0:0:0:0:
406,48,141227,1,0,0:0:0:0:
406,48,141295,2,0,B|361:48|323:67,1,85
214,46,141568,2,0,B|189:84|153:105,1,85,8|0,0:0|0:0,0:0:0:0:
248,148,141841,2,0,B|248:192|229:230,1,85
136,184,142114,2,0,B|127:139|155:103,1,85,8|0,0:0|0:0,0:0:0:0:
140,268,142386,5,0,0:0:0:0:
265,364,142523,1,0,0:0:0:0:
357,244,142659,1,8,0:0:0:0:
232,156,142796,1,0,0:0:0:0:
232,156,142932,1,0,0:0:0:0:
451,210,143069,5,0,0:0:0:0:
451,210,143137,1,0,0:0:0:0:
451,210,143205,2,0,B|430:175|393:149,1,85,0|0,0:0|0:0,0:0:0:0:
288,116,143478,2,0,B|288:71|269:34,1,85,4|0,0:0|0:0,0:0:0:0:
288,232,143887,2,0,B|263:270|226:291,1,85,4|0,0:0|0:0,0:0:0:0:
120,132,144295,5,4,0:0:0:0:
224,72,144432,2,0,B|259:51|285:14,1,85
185,229,144705,2,0,B|149:249|124:286,1,85,4|0,0:0|0:0,0:0:0:0:
127,273,145523,5,0,0:0:0:0:
127,273,145591,1,0,0:0:0:0:
127,273,145659,2,0,B|89:249|69:213,2,85,4|0|0,0:0|0:0|0:0,0:0:0:0:
173,181,146069,1,4,0:0:0:0:
210,87,146205,2,0,B|248:113|269:148,1,85
221,237,146478,1,4,0:0:0:0:
221,237,146614,2,0,B|232:300|284:328,1,85
356,348,146887,1,4,0:0:0:0:
424,164,147841,2,0,B|380:238|302:280,1,170
180,313,148250,5,0,0:0:0:0:
302,280,148387,1,0,0:0:0:0:
212,187,148523,1,0,0:0:0:0:
84,201,148659,1,0,0:0:0:0:
139,316,148796,1,0,0:0:0:0:
139,316,148932,2,0,B|226:321|303:279,1,170
423,243,149340,5,0,0:0:0:0:
328,157,149477,1,0,0:0:0:0:
447,117,149613,1,0,0:0:0:0:
423,243,149750,1,0,0:0:0:0:
302,280,149886,1,0,0:0:0:0:
302,280,150023,2,0,B|242:303|192:275|135:318,1,170
246,378,150432,5,0,0:0:0:0:
246,378,150568,2,0,B|211:321|232:274|209:214,2,170
284,156,151387,1,0,0:0:0:0:
450,156,151660,6,0,B|384:160|384:160|380:94|315:74,1,170
280,68,152001,1,0,0:0:0:0:
228,72,152069,1,0,0:0:0:0:
124,40,152205,5,0,0:0:0:0:
148,140,152341,1,0,0:0:0:0:
228,72,152477,1,8,0:0:0:0:
254,188,152613,1,0,0:0:0:0:
363,189,152749,1,0,0:0:0:0:
392,56,152886,1,0,0:0:0:0:
280,68,153023,2,0,P|256:80|196:88,1,85,8|0,0:0|0:0,0:0:0:0:
254,188,153296,5,0,0:0:0:0:
193,279,153432,1,0,0:0:0:0:
193,279,153568,1,8,0:0:0:0:
67,228,153705,1,0,0:0:0:0:
88,128,153840,1,0,0:0:0:0:
192,71,153977,5,0,0:0:0:0:
192,71,154113,1,8,0:0:0:0:
170,210,154249,1,0,0:0:0:0:
170,210,154386,2,0,B|133:230|108:269,1,85
27,222,154659,1,8,0:0:0:0:
52,132,154796,1,0,0:0:0:0:
131,85,154932,1,0,0:0:0:0:
221,111,155068,6,0,B|257:91|282:53,1,85,0|8,0:0|0:0,0:0:0:0:
429,65,155341,2,0,B|393:86|367:123,1,85
285,251,155613,2,0,B|322:232|367:232,1,85,0|8,0:0|0:0,0:0:0:0:
266,329,155886,1,0,0:0:0:0:
266,329,156022,1,0,0:0:0:0:
271,220,156159,5,0,0:0:0:0:
271,220,156227,1,0,0:0:0:0:
271,220,156295,2,0,B|250:183|212:158,1,85,8|0,0:0|0:0,0:0:0:0:
260,48,156568,1,0,0:0:0:0:
349,128,156704,1,0,0:0:0:0:
447,194,156841,1,8,0:0:0:0:
369,285,156977,1,0,0:0:0:0:
271,220,157114,1,0,0:0:0:0:
349,128,157250,6,0,B|385:108|410:69,1,85,0|8,0:0|0:0,0:0:0:0:
200,156,157523,2,0,B|165:177|139:214,1,85
172,40,157796,2,0,B|210:26|255:34,1,85,0|8,0:0|0:0,0:0:0:0:
270,134,158068,1,0,0:0:0:0:
270,134,158137,1,0,0:0:0:0:
270,134,158205,2,0,B|245:172|209:193,1,85
115,140,158478,5,8,0:0:0:0:
170,210,158614,1,0,0:0:0:0:
170,210,158750,2,0,B|133:230|108:269,1,85
27,222,159023,1,8,0:0:0:0:
221,111,159296,6,0,B|257:91|282:53,1,85
131,85,159569,1,8,0:0:0:0:
367,123,159704,2,0,B|393:86|429:65,1,85
300,220,159977,2,0,B|337:201|382:201,1,85,0|8,0:0|0:0,0:0:0:0:
266,329,160250,1,0,0:0:0:0:
266,329,160386,1,0,0:0:0:0:
299,221,160523,5,0,0:0:0:0:
299,221,160591,1,0,0:0:0:0:
299,221,160659,2,0,B|278:184|240:159,1,85,8|0,0:0|0:0,0:0:0:0:
257,50,160932,1,0,0:0:0:0:
344,100,161068,1,0,0:0:0:0:
344,100,161205,2,0,B|374:135|384:174,1,85,8|0,0:0|0:0,0:0:0:0:
314,301,161477,1,0,0:0:0:0:
314,301,161614,1,0,0:0:0:0:
261,202,161750,1,8,0:0:0:0:
261,202,161887,1,0,0:0:0:0:
201,293,162023,6,0,B|160:292|119:313,1,85
12,188,162296,2,0,B|11:229|32:269,1,85,8|0,0:0|0:0,0:0:0:0:
80,108,162568,2,0,B|120:88|162:90,1,85
212,237,162977,5,0,0:0:0:0:
216,340,163113,1,0,0:0:0:0:
314,301,163250,5,0,0:0:0:0:
450,251,163386,1,8,0:0:0:0:
429,108,163523,1,0,0:0:0:0:
287,89,163659,1,0,0:0:0:0:
260,80,163727,1,0,0:0:0:0:
231,78,163795,1,0,0:0:0:0:
201,80,163864,1,0,0:0:0:0:
172,86,163932,1,8,0:0:0:0:
84,156,164068,1,0,0:0:0:0:
34,286,164205,6,0,B|79:285|116:268,1,85
190,213,164477,1,8,0:0:0:0:
264,155,164614,1,0,0:0:0:0:
352,126,164750,2,0,B|384:160|392:201,1,85
325,287,165023,1,8,0:0:0:0:
217,307,165160,1,0,0:0:0:0:
217,307,165228,1,0,0:0:0:0:
217,307,165296,2,0,B|192:288|184:264,2,42.5
255,191,165568,1,8,0:0:0:0:
124,302,165704,2,0,B|125:262|105:221,1,85
118,129,165978,1,0,0:0:0:0:
188,64,166113,2,0,B|228:44|270:46,1,85,8|0,0:0|0:0,0:0:0:0:
217,307,166386,5,0,0:0:0:0:
124,302,166523,2,0,B|125:262|105:221,1,85,0|8,0:0|0:0,0:0:0:0:
118,129,166795,1,0,0:0:0:0:
188,64,166932,2,0,B|228:44|270:46,1,85
364,29,167205,1,8,0:0:0:0:
418,105,167341,6,0,B|416:147|437:188,1,85
324,209,167614,2,0,B|345:251|343:292,1,85,0|8,0:0|0:0,0:0:0:0:
187,174,167887,2,0,B|166:134|168:92,1,85
255,191,168160,1,0,0:0:0:0:
255,191,168296,1,8,0:0:0:0:
484,216,168431,1,0,0:0:0:0:
485,214,168568,6,0,B|446:228|446:228|436:218|436:218|440:234|440:234|430:228|430:228|390:233|344:247,1,170,0|8,0:0|0:0,0:0:0:0:
250,295,168977,1,0,0:0:0:0:
255,191,169114,2,0,B|301:119|378:77,1,170,0|8,0:0|0:0,0:0:0:0:
257,32,169523,6,0,B|217:55|195:90,1,85
89,241,169795,2,0,B|130:219|152:184,1,85,0|8,0:0|0:0,0:0:0:0:
255,191,170069,1,0,0:0:0:0:
345,139,170204,1,0,0:0:0:0:
448,144,170340,1,0,0:0:0:0:
452,246,170477,2,0,B|376:290|289:289,1,170,8|0,0:0|0:0,0:0:0:0:
197,345,170886,5,0,0:0:0:0:
160,242,171022,1,8,0:0:0:0:
255,191,171159,2,0,B|295:170|317:135,2,85
153,114,171568,1,8,0:0:0:0:
249,64,171704,1,0,0:0:0:0:
256,176,171841,1,0,0:0:0:0:
456,140,172114,5,4,0:0:0:0:
256,176,172386,1,0,0:0:0:0:
80,284,172659,1,4,0:0:0:0:
236,342,172932,6,0,B|276:322|318:324,1,85
393,177,173478,2,0,B|434:180|475:160,1,85
318,122,173750,1,0,0:0:0:0:
226,103,173886,6,0,B|185:101|144:122,1,85
284,282,174159,2,0,B|326:283|367:262,1,85
255,191,174432,2,0,B|214:190|173:211,1,85
82,189,174704,1,0,0:0:0:0:
82,189,174841,1,0,0:0:0:0:
104,288,174977,5,0,0:0:0:0:
104,288,175045,1,0,0:0:0:0:
104,288,175114,2,0,B|101:330|122:371,2,85
227,334,175522,1,0,0:0:0:0:
269,234,175660,1,0,0:0:0:0:
180,168,175795,1,0,0:0:0:0:
342,151,175932,6,0,B|383:153|424:132,1,85
488,52,176205,1,0,0:0:0:0:
96,112,191204,5,0,0:0:0:0:
100,128,191272,1,0,0:0:0:0:
112,140,191340,1,0,0:0:0:0:
124,152,191409,1,0,0:0:0:0:
140,160,191477,2,0,B|185:160|222:141,1,85
288,88,191750,1,0,0:0:0:0:
376,216,191887,2,0,B|351:254|314:275,1,85
220,328,192160,1,0,0:0:0:0:
72,296,192296,6,0,B|107:275|133:238,1,85
204,144,192569,1,0,0:0:0:0:
400,92,192705,2,0,B|364:112|339:149,1,85
127,273,193522,5,0,0:0:0:0:
127,273,193590,1,0,0:0:0:0:
127,273,193660,2,0,B|89:249|69:213,2,85
210,87,194069,2,0,B|248:113|269:148,2,85
221,237,194478,2,0,B|242:312|331:283|350:336,1,170
349,335,194887,1,0,0:0:0:0:
424,164,195841,2,0,B|380:238|302:280,1,170
180,313,196249,5,0,0:0:0:0:
302,280,196386,1,0,0:0:0:0:
212,187,196522,1,0,0:0:0:0:
84,201,196660,1,0,0:0:0:0:
139,316,196795,1,0,0:0:0:0:
256,100,196932,5,0,0:0:0:0:
256,116,197069,1,0,0:0:0:0:
256,132,197205,1,0,0:0:0:0:
256,148,197341,1,0,0:0:0:0:
256,164,197478,1,0,0:0:0:0:
256,180,197614,1,0,0:0:0:0:
256,196,197750,1,0,0:0:0:0:
256,212,197887,1,0,0:0:0:0:
256,228,198023,1,0,0:0:0:0:
256,244,198160,1,0,0:0:0:0:
256,260,198296,1,0,0:0:0:0:
256,276,198432,1,0,0:0:0:0:
246,378,198569,2,0,B|211:321|232:274|209:214,1,170
308,154,199113,1,0,0:0:0:0:
450,156,199387,1,0,0:0:0:0:
450,156,199660,6,0,B|384:160|384:160|380:94|315:74,1,170
207,100,200068,1,0,0:0:0:0:
200,130,200136,1,0,0:0:0:0:
203,161,200204,1,0,0:0:0:0:
160,256,200341,1,0,0:0:0:0:
159,351,200478,5,0,0:0:0:0:
254,188,200614,1,0,0:0:0:0:
160,256,200750,1,0,0:0:0:0:
363,189,200887,1,0,0:0:0:0:
368,60,201022,1,0,0:0:0:0:
252,56,201160,1,0,0:0:0:0:
254,188,201295,5,0,0:0:0:0:
193,279,201431,1,0,0:0:0:0:
193,279,201499,1,0,0:0:0:0:
193,279,201569,1,0,0:0:0:0:
67,228,201704,1,0,0:0:0:0:
88,128,201841,1,0,0:0:0:0:
192,71,201978,5,0,0:0:0:0:
192,71,202114,1,0,0:0:0:0:
170,210,202250,1,0,0:0:0:0:
170,210,202386,2,0,B|133:230|108:269,1,85
27,222,202659,1,0,0:0:0:0:
52,132,202795,1,0,0:0:0:0:
131,85,202931,1,0,0:0:0:0:
221,111,203069,6,0,B|257:91|282:53,1,85
429,65,203341,2,0,B|393:86|367:123,1,85
285,251,203613,2,0,B|322:232|367:232,1,85
266,329,203887,1,0,0:0:0:0:
266,329,204023,1,0,0:0:0:0:
271,220,204160,5,0,0:0:0:0:
271,220,204228,1,0,0:0:0:0:
271,220,204296,2,0,B|250:183|212:158,1,85
260,48,204569,1,0,0:0:0:0:
349,128,204705,1,0,0:0:0:0:
447,194,204841,1,0,0:0:0:0:
369,285,204978,1,0,0:0:0:0:
271,220,205114,1,0,0:0:0:0:
349,128,205250,6,0,B|385:108|410:69,1,85
200,156,205523,2,0,B|165:177|139:214,1,85
172,40,205795,2,0,B|210:26|255:34,1,85
270,134,206069,1,0,0:0:0:0:
270,134,206136,1,0,0:0:0:0:
270,134,206204,2,0,B|245:172|209:193,1,85
115,140,206477,5,0,0:0:0:0:
170,210,206613,1,0,0:0:0:0:
170,210,206750,2,0,B|133:230|108:269,1,85
27,222,207022,1,0,0:0:0:0:
131,85,207295,5,0,0:0:0:0:
221,111,207432,2,0,B|257:91|282:53,1,85
429,65,207705,2,0,B|393:86|367:123,1,85
285,251,207978,2,0,B|322:232|367:232,1,85
266,329,208249,1,0,0:0:0:0:
266,329,208387,1,0,0:0:0:0:
271,220,208522,5,0,0:0:0:0:
252,196,208591,1,0,0:0:0:0:
228,180,208660,1,0,0:0:0:0:
220,152,208728,1,0,0:0:0:0:
216,124,208796,1,0,0:0:0:0:
312,88,208932,2,0,B|347:58|386:48,1,85
396,148,209204,2,0,B|426:183|436:222,1,85
314,301,209478,1,0,0:0:0:0:
216,284,209613,1,0,0:0:0:0:
276,204,209749,1,0,0:0:0:0:
312,300,209886,1,0,0:0:0:0:
216,284,210023,6,0,B|175:283|134:304,1,85
64,257,210295,2,0,B|43:217|44:176,1,85
80,108,210569,1,0,0:0:0:0:
156,56,210705,1,0,0:0:0:0:
216,284,210978,2,0,P|276:292|336:272,1,85
314,301,211250,5,0,0:0:0:0:
450,251,211387,1,0,0:0:0:0:
429,108,211523,1,0,0:0:0:0:
287,89,211660,1,0,0:0:0:0:
144,92,211796,5,0,0:0:0:0:
32,144,211932,1,0,0:0:0:0:
152,224,212069,1,0,0:0:0:0:
16,272,212205,6,0,B|61:271|98:254,1,85
190,213,212478,1,0,0:0:0:0:
264,155,212614,1,0,0:0:0:0:
352,126,212750,2,0,B|384:160|392:201,1,85
325,287,213022,1,0,0:0:0:0:
217,307,213160,2,0,B|157:245|137:159,1,170
255,191,213569,1,0,0:0:0:0:
104,308,213705,2,0,B|105:268|85:227,1,85
112,108,213978,1,0,0:0:0:0:
216,52,214114,2,0,B|256:32|298:34,1,85
217,307,214387,5,0,0:0:0:0:
124,302,214523,2,0,B|125:262|105:221,1,85
118,129,214796,1,0,0:0:0:0:
188,64,214932,2,0,B|228:44|270:46,1,85
364,29,215204,1,0,0:0:0:0:
418,105,215341,6,0,B|416:147|437:188,1,85
324,209,215614,2,0,B|345:251|343:292,1,85
187,174,215887,2,0,B|166:134|168:92,1,85
255,191,216160,1,0,0:0:0:0:
255,191,216296,1,0,0:0:0:0:
484,216,216432,1,0,0:0:0:0:
485,214,216569,6,0,B|446:228|446:228|436:218|436:218|440:234|440:234|430:228|430:228|390:233|344:247,1,170
250,295,216978,1,0,0:0:0:0:
255,191,217114,2,0,B|301:119|324:112,2,85
257,32,217523,6,0,B|217:55|195:90,1,85
89,241,217796,2,0,B|130:219|152:184,1,85
255,191,218069,1,0,0:0:0:0:
345,139,218205,1,0,0:0:0:0:
448,144,218341,1,0,0:0:0:0:
452,246,218478,2,0,B|376:290|289:289,1,170
197,345,218887,5,0,0:0:0:0:
160,242,219023,1,0,0:0:0:0:
255,191,219160,2,0,B|295:170|317:135,2,85
152,116,219637,1,0,0:0:0:0:
249,64,219705,1,0,0:0:0:0:
256,192,219841,2,0,P|312:216|364:216,1,85
376,60,220114,1,0,0:0:0:0:
249,64,220250,1,0,0:0:0:0:
152,116,220387,2,0,P|104:100|72:52,1,85
36,168,220660,1,0,0:0:0:0:
112,236,220795,1,0,0:0:0:0:
122,254,220863,1,0,0:0:0:0:
131,271,220932,6,0,B|171:251|213:253,1,85
393,177,221205,2,0,B|434:180|475:160,1,85
330,247,221478,1,0,0:0:0:0:
255,191,221614,1,0,0:0:0:0:
318,122,221750,1,0,0:0:0:0:
226,103,221887,6,0,B|185:101|144:122,1,85
284,282,222160,2,0,B|326:283|367:262,1,85
255,191,222432,2,0,B|214:190|173:211,1,85
82,189,222705,1,0,0:0:0:0:
82,189,222841,1,0,0:0:0:0:
104,288,222978,5,0,0:0:0:0:
104,288,223046,1,0,0:0:0:0:
104,288,223114,2,0,B|101:330|122:371,2,85
304,268,223660,6,0,B|392:244|456:164,1,170
256,192,224477,5,0,0:0:0:0:
256,192,224750,5,0,0:0:0:0:
256,192,225022,5,0,0:0:0:0:
132,216,225296,2,0,P|161:185|197:164,1,85
216,120,225500,1,0,0:0:0:0:
264,140,225568,2,0,B|300:160|346:159,1,85
376,160,225773,1,0,0:0:0:0:
404,156,225841,1,0,0:0:0:0:
358,291,225978,1,0,0:0:0:0:
328,320,226046,1,0,0:0:0:0:
288,332,226113,1,0,0:0:0:0:
176,306,226250,5,0,0:0:0:0:
176,306,226318,1,0,0:0:0:0:
176,306,226386,2,0,B|157:270|119:245,1,85
132,198,226590,1,0,0:0:0:0:
154,155,226659,2,0,B|134:119|135:73,1,85
238,56,226931,1,0,0:0:0:0:
327,104,227068,1,0,0:0:0:0:
327,104,227136,1,0,0:0:0:0:
327,104,227204,2,0,B|365:129|384:166,1,85
363,266,227477,5,0,0:0:0:0:
203,238,227614,1,0,0:0:0:0:
184,256,227682,1,0,0:0:0:0:
180,280,227750,1,0,0:0:0:0:
152,360,227886,1,0,0:0:0:0:
132,200,228022,1,0,0:0:0:0:
236,144,228159,1,0,0:0:0:0:
236,144,228227,1,0,0:0:0:0:
236,144,228296,1,0,0:0:0:0:
184,260,228432,1,0,0:0:0:0:
314,301,228568,5,0,0:0:0:0:
203,238,228704,1,0,0:0:0:0:
218,112,228840,1,0,0:0:0:0:
412,176,229114,2,0,P|460:176|512:148,1,85
268,216,229387,2,0,P|224:240|168:240,1,85
120,160,229659,6,0,B|76:222|111:259|71:321,1,170
200,368,230068,1,0,0:0:0:0:
200,368,230137,1,0,0:0:0:0:
200,368,230205,2,0,B|237:348|283:350,2,85
287,252,230614,2,0,B|268:215|269:170,1,85
168,160,230887,2,0,B|148:123|110:100,1,85
92,264,231160,2,0,B|92:309|111:345,2,85
203,365,231568,1,0,0:0:0:0:
251,285,231704,5,0,0:0:0:0:
356,232,231841,2,0,B|392:214|446:212,2,85
348,236,232182,1,0,0:0:0:0:
340,240,232250,1,0,0:0:0:0:
180,224,232387,1,0,0:0:0:0:
144,112,232523,1,0,0:0:0:0:
144,112,232591,1,0,0:0:0:0:
144,112,232659,1,0,0:0:0:0:
286,248,232795,6,0,B|284:295|304:331,1,85
328,348,233000,1,0,0:0:0:0:
356,344,233069,2,0,B|392:325|438:326,1,85
476,232,233341,2,0,B|477:185|457:149,1,85
380,84,233614,2,0,B|344:103|298:101,1,85
200,72,233886,1,0,0:0:0:0:
200,72,233955,1,0,0:0:0:0:
200,72,234023,1,0,0:0:0:0:
376,273,234160,5,0,0:0:0:0:
286,248,234296,2,0,B|239:248|203:267,1,85
165,353,234568,1,0,0:0:0:0:
88,284,234704,1,0,0:0:0:0:
88,284,234773,1,0,0:0:0:0:
88,284,234840,1,0,0:0:0:0:
127,120,235113,6,0,B|163:100|192:56,1,85
309,113,235386,2,0,B|272:134|244:176,1,85
364,284,235659,2,0,B|400:264|424:212,1,85
287,247,235932,2,0,B|252:267|216:308,1,85
97,294,236205,2,0,B|148:276|184:228,2,85
256,144,236613,1,0,0:0:0:0:
410,132,236750,2,0,B|392:176|344:208,1,85
332,216,236955,1,0,0:0:0:0:
308,236,237023,1,0,0:0:0:0:
227,342,237159,1,0,0:0:0:0:
227,342,237295,1,0,0:0:0:0:
397,252,237431,5,0,0:0:0:0:
410,132,237568,1,0,0:0:0:0:
288,133,237704,1,0,0:0:0:0:
278,252,237840,1,0,0:0:0:0:
397,252,237977,1,0,0:0:0:0:
410,132,238113,1,0,0:0:0:0:
389,111,238181,1,0,0:0:0:0:
364,97,238250,1,0,0:0:0:0:
334,91,238318,1,0,0:0:0:0:
303,94,238386,6,0,B|266:112|220:112,1,85
170,210,238660,2,0,B|133:230|112:260,2,42.5
27,222,238931,1,0,0:0:0:0:
52,132,239068,1,0,0:0:0:0:
52,132,239137,1,0,0:0:0:0:
52,132,239204,1,0,0:0:0:0:
221,111,239341,6,0,B|257:91|282:53,1,85
429,65,239613,2,0,B|393:86|367:123,1,85
328,228,239886,2,0,B|365:209|410:209,1,85
266,329,240159,1,0,0:0:0:0:
266,329,240295,1,0,0:0:0:0:
271,220,240431,5,0,0:0:0:0:
271,220,240500,1,0,0:0:0:0:
271,220,240568,2,0,B|250:183|212:158,1,85
257,50,240840,1,0,0:0:0:0:
352,128,240977,1,0,0:0:0:0:
352,128,241046,1,0,0:0:0:0:
352,128,241113,1,0,0:0:0:0:
369,285,241250,1,0,0:0:0:0:
271,220,241386,1,0,0:0:0:0:
349,128,241523,1,0,0:0:0:0:
349,128,241591,1,0,0:0:0:0:
349,128,241660,6,0,B|385:108|410:69,1,85
216,212,241932,2,0,B|196:248|193:293,1,85
208,68,242205,2,0,B|185:34|139:10,1,85
104,172,242478,2,0,B|79:210|43:231,1,85
212,164,242750,1,0,0:0:0:0:
224,200,242819,1,0,0:0:0:0:
224,240,242887,1,0,0:0:0:0:
200,320,243023,1,0,0:0:0:0:
392,304,243160,1,0,0:0:0:0:
400,268,243228,1,0,0:0:0:0:
400,228,243296,1,0,0:0:0:0:
328,116,243432,1,0,0:0:0:0:
212,164,243569,1,0,0:0:0:0:
204,200,243637,1,0,0:0:0:0:
204,240,243705,1,0,0:0:0:0:
276,352,243841,1,0,0:0:0:0:
324,292,243978,1,0,0:0:0:0:
348,260,244046,1,0,0:0:0:0:
352,220,244113,1,0,0:0:0:0:
372,188,244181,1,0,0:0:0:0:
396,160,244250,2,0,L|396:138,8,21.25
