osu file format v12

[General]
AudioFilename: Hoshizora Monogatari (TV Size).mp3
AudioLeadIn: 0
PreviewTime: 61175
Countdown: 0
SampleSet: Soft
StackLeniency: 0.3
Mode: 0
LetterboxInBreaks: 0

[Editor]
DistanceSpacing: 1
BeatDivisor: 2
GridSize: 4

[Metadata]
Title:Hoshizora Monogatari (TV Size)
TitleUnicode:星空物語 (TV Size)
Artist:Nana Takahashi
ArtistUnicode:高橋 菜々
Creator:Andrea
Version:Normal
Source:kissxsis
Tags:Ending osuplayer111 ova
BeatmapID:227735
BeatmapSetID:81262

[Difficulty]
HPDrainRate:3
CircleSize:3
OverallDifficulty:3
ApproachRate:4
SliderMultiplier:1.2
SliderTickRate:1

[Events]
//Background and Video events
0,0,"BG.jpg",1,1
Video,0,"ED.avi"
//Break Periods
//Storyboard Layer 0 (Background)
//Storyboard Layer 1 (Fail)
//Storyboard Layer 2 (Pass)
//Storyboard Layer 3 (Foreground)
//Storyboard Sound Samples
//Background Colour Transformations
3,100,128,191,255

[TimingPoints]
3290,500,4,2,1,50,1,0
27290,-100,4,1,1,5,0,0
28790,-100,4,1,1,30,0,0
29290,-100,4,2,1,50,0,0
59290,-100,4,2,1,5,0,0
61290,-100,4,2,1,65,0,1
85290,-100,4,2,1,5,0,0

[Colours]
Combo1 : 255,128,128
Combo2 : 255,223,128

[HitObjects]
148,44,3290,1,2,0:0:0:0:
176,160,3790,2,8,P|256:234|336:159,1,240
364,44,5290,1,2,0:0:0:0:
256,100,5790,2,8,L|256:344,1,240
140,364,7290,5,2,0:0:0:0:
112,248,7790,2,8,B|36:156|36:156|36:32,1,240
156,32,9290,1,2,0:0:0:0:
256,96,9790,1,8,0:0:0:0:
356,32,10290,2,0,L|416:32,2,60,2|0|8,0:0|0:0|0:0,0:0:0:0:
392,148,11290,6,0,P|392:208|352:248,1,120,4|8,0:0|0:0,0:0:0:0:
256,324,12290,1,0,0:0:0:0:
160,248,12790,2,0,P|120:208|120:148,1,120,8|0,0:0|0:0,0:0:0:0:
184,48,13790,2,8,P|256:127|328:44,1,240
448,48,15290,5,0,1:0:0:0:
448,168,15790,2,0,B|448:232|448:232|412:276,1,120,8|0,0:0|0:0,0:0:0:0:
316,344,16790,1,8,0:0:0:0:
196,344,17290,1,2,0:0:0:0:
100,276,17790,2,0,B|64:232|64:232|64:168,2,120,10|0|8,0:0|0:0|0:0,0:0:0:0:
160,172,19290,5,0,1:0:0:0:
280,172,19790,2,8,P|400:172|496:244,1,240
464,356,21290,1,0,0:0:0:0:
348,332,21790,2,8,P|228:332|136:260,1,240
52,176,23290,6,0,P|52:116|88:72,1,120,0|8,1:0|0:0,0:0:0:0:
184,144,24290,1,0,0:0:0:0:
256,48,24790,1,8,0:0:0:0:
328,144,25290,1,2,0:0:0:0:
424,72,25790,2,0,P|460:116|460:176,2,120,10|0|8,0:0|0:0|0:0,0:0:0:0:
256,192,27290,12,0,28790,1:0:0:0:
256,24,29790,5,8,0:0:0:0:
480,108,30790,1,8,0:0:0:0:
396,192,31290,1,0,0:0:0:0:
472,288,31790,2,8,P|399:366|327:287,1,240
256,192,33290,5,0,0:0:0:0:
185,287,33790,2,8,P|113:366|40:288,1,240
116,192,35290,1,0,0:0:0:0:
32,108,35790,2,0,P|74:69|134:69,1,120,8|0,0:0|0:0,0:0:0:0:
256,64,36790,2,0,L|320:64,1,60,8|0,0:0|0:0,0:0:0:0:
376,64,37290,6,0,P|436:64|480:104,1,120,0|8,1:0|0:0,0:0:0:0:
420,208,38290,1,0,0:0:0:0:
344,304,38790,2,8,B|256:223|256:223|168:304,1,240
92,208,40290,1,0,0:0:0:0:
40,100,40790,6,8,B|160:100|160:100|264:36,1,240
352,116,42290,1,0,0:0:0:0:
472,104,42790,2,0,P|472:164|436:208,1,120,8|2,0:0|0:0,0:0:0:0:
340,280,43790,1,10,0:0:0:0:
256,368,44290,1,2,0:0:0:0:
172,280,44790,1,10,0:0:0:0:
76,208,45290,6,0,P|40:164|40:104,1,120,0|8,1:0|0:0,0:0:0:0:
160,124,46290,1,0,0:0:0:0:
256,52,46790,1,8,0:0:0:0:
352,124,47290,1,0,0:0:0:0:
472,104,47790,2,0,P|472:164|436:208,1,120,8|0,0:0|0:0,0:0:0:0:
332,272,48790,1,8,0:0:0:0:
256,180,49290,5,0,1:0:0:0:
180,272,49790,2,8,P|72:272|72:164,1,240
172,96,51290,1,0,0:0:0:0:
256,180,51790,1,8,0:0:0:0:
340,96,52290,6,0,P|400:96|440:136,1,120,0|8,1:0|0:0,0:0:0:0:
440,256,53290,1,0,0:0:0:0:
360,344,53790,2,8,P|256:292|152:344,1,240
72,256,55290,1,0,0:0:0:0:
80,136,55790,6,0,P|120:96|180:96,1,120,8|0,0:0|1:0,0:0:0:0:
256,192,56790,1,8,0:0:0:0:
332,288,57290,2,0,P|392:288|432:248,2,120,0|8|0,0:0|0:0|0:0,0:0:0:0:
256,192,58790,1,8,0:0:0:0:
256,192,59290,12,4,61290,0:0:0:0:
152,252,62290,5,0,0:0:0:0:
256,312,62790,1,8,0:0:0:0:
360,252,63290,1,0,0:0:0:0:
360,132,63790,2,0,L|360:68,2,60,8|0|0,0:0|0:0|0:0,0:0:0:0:
464,192,64790,1,8,0:0:0:0:
360,252,65290,6,0,L|360:312,2,60,0|0|8,0:0|0:0|0:0,0:0:0:0:
256,312,66290,1,0,0:0:0:0:
136,312,66790,2,0,P|76:308|28:276,1,120,8|2,0:0|0:0,0:0:0:0:
116,192,67790,1,10,0:0:0:0:
28,108,68290,2,0,P|76:76|136:72,1,120,2|10,0:0|0:0,0:0:0:0:
256,72,69290,6,0,L|320:72,2,60,0|0|8,1:0|0:0|0:0,0:0:0:0:
256,192,70290,1,0,0:0:0:0:
256,312,70790,2,0,L|136:312,2,120,8|0|8,0:0|0:0|0:0,0:0:0:0:
376,312,72290,1,0,0:0:0:0:
436,208,72790,6,0,P|376:208|336:168,1,120,8|0,0:0|0:0,0:0:0:0:
304,116,73540,1,0,0:0:0:0:
272,64,73790,2,0,P|212:64|164:100,1,120,8|0,0:0|0:0,0:0:0:0:
92,192,74790,1,8,0:0:0:0:
165,285,75290,6,0,P|212:320|272:320,1,120,2|10,0:0|0:0,0:0:0:0:
392,316,76290,1,2,0:0:0:0:
464,220,76790,1,10,0:0:0:0:
464,100,77290,2,0,L|412:60,1,60,0|0,1:0|0:0,0:0:0:0:
364,32,77790,6,0,B|304:32|304:32|264:76,1,120,8|0,0:0|0:0,0:0:0:0:
180,164,78790,2,0,P|120:164|81:122,2,120,8|0|8,0:0|0:0|0:0,0:0:0:0:
256,260,80290,1,0,0:0:0:0:
332,164,80790,2,0,P|392:164|430:122,2,120,8|0|8,0:0|0:0|0:0,0:0:0:0:
256,68,82290,5,0,0:0:0:0:
180,164,82790,1,8,0:0:0:0:
256,260,83290,1,2,0:0:0:0:
332,164,83790,1,10,0:0:0:0:
256,68,84290,2,0,L|256:128,2,60,2|0|10,0:0|0:0|0:0,0:0:0:0:
256,192,85290,12,0,87290,0:0:0:0:
