osu file format v12

[General]
AudioFilename: Hoshizora Monogatari (TV Size).mp3
AudioLeadIn: 0
PreviewTime: 61175
Countdown: 0
SampleSet: Normal
StackLeniency: 0.3
Mode: 0
LetterboxInBreaks: 0

[Editor]
DistanceSpacing: 1
BeatDivisor: 4
GridSize: 4

[Metadata]
Title:Hoshizora Monogatari (TV Size)
TitleUnicode:星空物語 (TV Size)
Artist:Nana Takahashi
ArtistUnicode:高橋 菜々
Creator:Andrea
Version:Hard
Source:kissxsis
Tags:Ending osuplayer111 ova
BeatmapID:225664
BeatmapSetID:81262

[Difficulty]
HPDrainRate:6
CircleSize:4
OverallDifficulty:6
ApproachRate:7
SliderMultiplier:1.6
SliderTickRate:1

[Events]
//Background and Video events
0,0,"BG.jpg",1,1
Video,0,"ED.avi"
//Break Periods
//Storyboard Layer 0 (Background)
//Storyboard Layer 1 (Fail)
//Storyboard Layer 2 (Pass)
//Storyboard Layer 3 (Foreground)
//Storyboard Sound Samples
//Background Colour Transformations
3,100,128,191,255

[TimingPoints]
3290,500,4,2,1,50,1,0
27290,-100,4,1,1,5,0,0
28790,-100,4,1,1,30,0,0
29290,-100,4,2,1,50,0,0
59290,-100,4,1,1,5,0,0
60790,-100,4,1,1,30,0,0
61290,-100,4,2,1,65,0,1
85290,-100,4,2,1,5,0,0

[Colours]
Combo1 : 255,128,128
Combo2 : 255,223,128

[HitObjects]
136,128,3290,2,0,P|176:128|200:100,1,80
256,40,3790,1,8,0:0:0:0:
312,100,4040,2,0,P|336:128|376:128,1,80
256,352,4790,6,0,L|256:192,1,160,8|0,0:0|0:0,0:0:0:0:
184,156,5540,1,0,0:0:0:0:
216,84,5790,1,8,0:0:0:0:
296,84,6040,1,0,0:0:0:0:
328,156,6290,1,0,0:0:0:0:
256,352,6790,1,8,0:0:0:0:
112,284,7290,6,0,B|72:284|72:284|40:256,1,80
92,192,7790,1,8,0:0:0:0:
41,126,8040,2,0,B|72:100|72:100|112:100,1,80
244,192,8790,6,0,L|404:192,1,160,8|2,0:0|0:0,0:0:0:0:
484,192,9540,1,2,0:0:0:0:
440,124,9790,2,0,P|404:192|440:260,1,160,10|2,0:0|0:0,0:0:0:0:
388,320,10540,1,0,0:0:0:0:
388,320,10665,1,0,1:0:0:0:
388,320,10790,2,0,P|348:320|324:348,1,80,10|0,1:2|1:0,0:0:0:0:
256,304,11290,5,4,0:0:0:0:
188,348,11540,2,0,P|164:320|124:320,1,80,0|8,0:0|0:0,0:0:0:0:
24,192,12290,1,0,0:0:0:0:
88,144,12540,1,0,0:0:0:0:
152,192,12790,2,0,P|232:192|276:132,2,160,8|0|8,0:0|0:0|0:0,0:0:0:0:
196,124,14040,1,0,0:0:0:0:
216,48,14290,1,0,0:0:0:0:
296,48,14540,1,0,0:0:0:0:
376,48,14790,6,0,B|456:48|456:48|516:104,2,160,8|0|8,0:0|0:0|0:0,0:0:0:0:
296,48,16040,1,0,0:0:0:0:
340,116,16290,2,0,P|340:192|400:248,2,160,0|8|2,0:0|0:0|0:0,0:0:0:0:
296,48,17540,1,0,0:0:0:0:
216,48,17790,2,0,P|176:48|148:76,1,80,10|0,0:0|0:0,0:0:0:0:
152,156,18290,1,0,0:0:0:0:
84,116,18540,1,2,0:0:0:0:
84,116,18665,1,0,1:0:0:0:
84,116,18790,2,0,P|44:116|16:144,1,80,8|0,1:2|1:0,0:0:0:0:
36,228,19290,6,0,B|112:228|112:288|180:288,1,160,0|8,1:0|0:0,0:0:0:0:
256,308,20040,1,0,0:0:0:0:
332,288,20290,2,0,B|400:288|400:228|476:228,2,160,0|8|0,0:0|0:0|0:0,0:0:0:0:
256,308,21540,2,0,L|256:224,1,80,0|8,0:0|0:0,0:0:0:0:
200,168,22040,2,0,P|256:120|312:168,1,160
256,228,22790,6,0,L|256:64,2,160,8|0|8,0:0|1:0|0:0,0:0:0:0:
216,296,24040,1,0,0:0:0:0:
296,296,24290,1,0,0:0:0:0:
464,192,24790,2,0,B|384:192|384:192|332:132,1,160,8|2,0:0|0:0,0:0:0:0:
296,60,25540,1,0,0:0:0:0:
216,60,25790,1,10,0:0:0:0:
180,132,26040,2,0,B|128:192|128:192|48:192,1,160,2|2,0:0|0:0,0:0:0:0:
47,192,26790,1,8,0:0:0:0:
256,192,27290,12,0,28790,1:0:0:0:
256,112,29290,5,0,1:0:0:0:
204,44,29540,2,0,L|152:108,1,80,0|8,0:0|0:0,0:0:0:0:
256,112,30040,2,0,L|256:192,1,80
308,44,30540,2,0,L|360:108,1,80,0|8,0:0|0:0,0:0:0:0:
452,236,31290,6,0,P|412:236|384:264,1,80
320,312,31790,1,8,0:0:0:0:
256,360,32040,1,0,0:0:0:0:
192,312,32290,1,0,0:0:0:0:
127,262,32540,2,0,P|100:236|60:236,1,80,0|8,0:0|0:0,0:0:0:0:
140,100,33290,6,0,B|140:60|140:60|164:24,1,80
216,84,33790,1,8,0:0:0:0:
296,84,34040,1,0,0:0:0:0:
349,26,34290,2,0,B|372:60|372:60|372:100,1,80
328,168,34790,2,0,B|256:204|256:204|184:168,2,160,8|0|8,0:0|0:0|0:0,0:0:0:0:
184,316,36290,2,0,B|256:280|256:280|328:316,1,160,0|8,0:0|0:0,0:0:0:0:
396,356,37040,2,8,L|420:372,4,20,8|8|8|8|0,0:0|0:0|0:0|0:0|1:0,0:0:0:0:
424,280,37540,6,0,P|464:280|488:252,1,80,0|8,0:0|0:0,0:0:0:0:
432,192,38040,1,0,0:0:0:0:
488,132,38290,2,0,P|464:104|424:104,1,80
344,120,38790,2,0,P|264:120|208:68,1,160,8|0,0:0|1:0,0:0:0:0:
128,56,39540,6,0,B|84:56|84:56|56:80,1,80,0|8,0:0|0:0,0:0:0:0:
112,140,40040,1,0,0:0:0:0:
52,192,40290,1,0,0:0:0:0:
112,244,40540,1,0,0:0:0:0:
56,304,40790,2,0,B|84:328|84:328|128:328,1,80,8|0,0:0|0:0,0:0:0:0:
208,328,41290,1,0,1:0:0:0:
360,304,41540,6,0,B|332:328|332:328|288:328,1,80,0|8,0:0|0:0,0:0:0:0:
292,244,42040,1,0,0:0:0:0:
360,192,42290,1,0,0:0:0:0:
292,140,42540,1,0,0:0:0:0:
360,80,42790,2,0,B|332:56|332:56|288:56,1,80,8|2,0:0|0:0,0:0:0:0:
416,136,43290,6,0,P|464:192|416:248,2,160,2|10|2,0:0|0:0|0:0,0:0:0:0:
360,192,44540,1,2,0:0:0:0:
360,192,44665,1,0,1:0:0:0:
360,192,44790,2,0,L|280:192,1,80,8|0,1:2|1:0,0:0:0:0:
200,192,45290,6,0,B|140:192|108:228|108:228|48:228,2,160,0|8|0,1:0|0:0|0:0,0:0:0:0:
256,248,46540,1,0,0:0:0:0:
312,192,46790,2,0,B|372:192|404:156|404:156|464:156,2,160,8|0|8,0:0|0:0|0:0,0:0:0:0:
196,80,48290,1,0,0:0:0:0:
256,28,48540,1,0,0:0:0:0:
316,80,48790,1,8,0:0:0:0:
301,254,49290,6,0,B|352:192|352:192|432:192,2,160,0|8|0,0:0|0:0|0:0,0:0:0:0:
256,320,50540,1,0,0:0:0:0:
210,254,50790,2,0,B|160:192|160:192|80:192,2,160,8|0|8,0:0|0:0|0:0,0:0:0:0:
256,100,52290,5,0,0:0:0:0:
216,32,52540,2,0,L|176:32,2,40,0|0|8,0:0|1:0|1:2,0:0:0:0:
296,32,53040,1,0,1:0:0:0:
256,100,53290,6,0,B|304:124|304:124|360:124|360:124|404:152,2,160,0|8|0,1:0|0:0|1:0,0:0:0:0:
296,32,54540,2,0,L|336:32,2,40,0|0|8,0:0|0:0|0:2,0:0:0:0:
216,32,55040,1,0,0:0:0:0:
256,100,55290,6,0,B|208:124|208:124|152:124|152:124|108:152,2,160,0|8|0,1:0|0:0|1:0,0:0:0:0:
216,32,56540,2,0,L|136:32,1,80,0|8,0:0|0:0,0:0:0:0:
296,32,57040,2,0,L|376:32,1,80,0|0,0:0|1:0,0:0:0:0:
312,296,57790,6,0,P|256:344|200:296,1,160,8|0,0:0|1:0,0:0:0:0:
216,216,58540,1,0,0:0:0:0:
296,216,58790,1,8,0:0:0:0:
256,192,59290,12,0,60790,0:0:0:0:
256,276,61290,5,4,0:0:0:0:
296,344,61540,2,0,P|336:344|368:312,1,80,0|8,0:0|0:0,0:0:0:0:
216,344,62040,2,0,P|176:344|144:312,1,80
256,40,62790,6,0,L|256:200,1,160,8|0,0:0|0:0,0:0:0:0:
176,200,63540,1,0,0:0:0:0:
216,268,63790,1,8,0:0:0:0:
296,268,64040,1,0,0:0:0:0:
336,200,64290,1,0,0:0:0:0:
256,40,64790,1,8,0:0:0:0:
296,268,65290,6,0,L|336:344,1,80
216,268,65790,2,0,L|176:344,1,80,8|0,0:0|0:0,0:0:0:0:
256,200,66290,2,0,L|256:40,2,160,0|8|2,0:0|0:0|0:0,0:0:0:0:
216,268,67540,1,2,0:0:0:0:
296,268,67790,1,10,0:0:0:0:
404,152,68290,5,2,0:0:0:0:
452,88,68540,2,0,L|480:48,2,40,0|0|8,0:0|1:0|1:2,0:0:0:0:
380,56,69040,1,0,1:0:0:0:
300,56,69290,6,0,B|300:96|300:96|328:136,1,80,0|0,1:0|0:0,0:0:0:0:
256,172,69790,1,8,0:0:0:0:
212,56,70040,2,0,B|212:96|212:96|184:136,1,80
256,332,70790,6,0,L|256:172,1,160,8|0,0:0|1:0,0:0:0:0:
189,128,71540,2,0,B|212:96|212:96|212:56,1,80,0|8,0:0|0:0,0:0:0:0:
322,128,72040,2,0,B|300:96|300:96|300:56,1,80
256,172,72790,1,8,0:0:0:0:
216,328,73290,6,0,P|176:328|144:300,1,80
296,328,73790,2,0,P|336:328|368:300,1,80,8|0,0:0|0:0,0:0:0:0:
304,252,74290,2,0,P|256:199|208:252,2,160,0|8|2,0:0|0:0|0:0,0:0:0:0:
256,316,75540,1,2,0:0:0:0:
256,316,75790,2,0,L|256:156,1,160,10|2,0:0|0:0,0:0:0:0:
176,156,76540,2,0,L|216:76,1,80,0|10,0:0|0:0,0:0:0:0:
256,20,77040,1,2,0:0:0:0:
300,84,77290,2,0,L|336:156,1,80,0|0,1:0|0:0,0:0:0:0:
256,156,77790,6,0,L|256:316,1,160,8|0,0:0|0:0,0:0:0:0:
256,316,78540,1,0,0:0:0:0:
176,316,78790,2,0,B|96:316|96:316|32:264,2,160,8|0|8,0:0|0:0|0:0,0:0:0:0:
256,316,80040,1,0,0:0:0:0:
336,316,80290,2,0,B|416:316|416:316|480:264,2,160,0|8|0,0:0|0:0|1:0,0:0:0:0:
304,92,81790,5,8,0:0:0:0:
256,28,82040,1,0,0:0:0:0:
208,92,82290,2,0,P|128:92|68:44,2,160,0|8|2,0:0|0:0|0:0,0:0:0:0:
256,156,83540,2,0,L|256:236,1,80,0|10,0:0|0:0,0:0:0:0:
308,296,84040,2,0,P|256:346|204:296,1,160,2|0,0:0|0:0,0:0:0:0:
204,295,84665,1,0,1:0:0:0:
204,295,84790,1,8,1:2:0:0:
256,236,85040,1,0,1:0:0:0:
256,192,85290,12,0,87290,0:0:0:0:
