osu file format v9

[General]
AudioFilename: ArrangeEarthquake_Super_Shock.mp3
AudioLeadIn: 0
PreviewTime: -1
Countdown: 0
SampleSet: Normal
StackLeniency: 0.7
Mode: 0
LetterboxInBreaks: 1

[Editor]
Bookmarks: 66125,117039,118754,119954,126468,169068,169154,169196,169325
DistanceSpacing: 1.2
BeatDivisor: 4
GridSize: 4

[Metadata]
Title:Earthquake Super Shock
Artist:Nana Takahashi
Creator:Iris
Version:Lunatic
Source:Touhou
Tags:Hinanawi Tenshi Wonderful Heaven Sound Holic

[Difficulty]
HPDrainRate:8
CircleSize:4
OverallDifficulty:7
ApproachRate:9
SliderMultiplier:1.6
SliderTickRate:1

[Events]
//Background and Video events
0,0,"BG3.jpg"
//Break Periods
2,82439,93639
2,137296,148839
2,154611,159811
//Storyboard Layer 0 (Background)
//Storyboard Layer 1 (Fail)
//Storyboard Layer 2 (Pass)
//Storyboard Layer 3 (Foreground)
//Storyboard Sound Samples
//Background Colour Transformations
3,100,163,162,255

[TimingPoints]
28754,342.857142857143,4,1,0,90,1,0
50696,-200,4,1,0,45,0,0
61068,-100,4,1,0,90,0,1
82154,-100,4,1,0,5,0,0
82325,-100,4,1,0,90,0,0
105554,-200,4,1,0,45,0,0
115925,-100,4,1,0,90,0,1
137011,-100,4,1,0,5,0,0
137182,-100,4,1,0,90,0,0
149439,-100,4,1,0,45,0,0
154582,-100,4,1,0,90,0,0
160068,-100,4,1,0,90,0,1
171382,-200,4,1,0,45,0,0
181751,-100,4,1,0,90,0,1
209354,-100,4,1,0,5,0,0
209525,-100,4,1,0,90,0,0

[Colours]
Combo1 : 115,87,77
Combo2 : 128,255,255
Combo3 : 255,128,192

[HitObjects]
104,112,28754,1,10
104,112,28839,1,0
192,72,29011,1,2
192,72,29096,1,0
280,112,29268,1,2
280,112,29354,1,0
368,72,29525,1,2
368,72,29611,1,0
456,112,29782,2,0,B|496:112,3,40,2|0|2|0
456,136,30125,2,0,B|456:176,1,40,10|0
400,256,30382,2,0,B|400:296,1,40,2|0
312,256,30639,2,0,B|268:256,1,40,2|0
180,288,30896,2,0,B|124:288,1,40,2|0
56,240,31154,2,0,B|56:184,3,40,2|0|2|0
56,200,31496,6,0,B|56:112,1,80,12|0
136,176,31839,1,0
208,240,32011,1,0
152,320,32182,2,0,B|264:320,1,80,12|0
288,240,32525,2,0,B|392:240,1,80
448,224,32868,5,10
448,200,32954,1,0
448,176,33039,1,2
448,152,33125,1,0
448,128,33211,1,2
448,104,33296,2,0,B|448:60,9,40,0|0|0|0|0|0|0|0|0|0
352,64,34239,5,10
340,84,34325,1,0
244,100,34496,1,2
228,120,34582,1,0
132,140,34754,1,2
116,160,34839,1,0
48,228,35011,1,2
48,252,35096,1,0
128,308,35268,2,0,B|128:268,3,40,2|0|2|0
176,272,35611,6,0,B|220:272,1,40,10|0
312,268,35868,2,0,B|312:224,1,40,2|0
404,196,36125,2,0,B|404:144,1,40,2|0
308,140,36382,2,0,B|308:96,1,40,2|0
248,24,36639,2,0,B|200:24,3,40,2|0|2|0
224,68,36982,5,12
104,120,37154,1,2
56,240,37325,1,2
168,176,37496,1,4
176,304,37668,1,10
256,204,37839,1,2
336,304,38011,1,4
344,176,38182,1,2
456,240,38354,2,0,B|416:156,2,80,4|0|4
408,72,39039,1,4
144,48,39382,5,0
64,104,39554,1,0
144,152,39725,2,0,B|72:232,1,80,8|0
80,304,40068,2,0,B|192:280,1,80
212,208,40411,2,8,B|268:272,1,80,8|0
360,304,40754,5,0
360,304,40839,1,0
360,304,40925,1,0
360,304,41011,1,0
360,304,41096,2,0,B|424:232,1,80,8|0
408,108,41439,2,0,B|344:180,1,80
360,304,41782,1,8
408,108,41954,1,0
312,108,42125,1,0
356,24,42296,1,0
260,24,42468,6,0,B|176:24,2,80,8|0|0
312,108,42982,1,0
216,108,43154,2,0,B|108:108,2,80,8|0|0
408,108,43668,1,0
416,300,44011,5,0
416,300,44182,1,0
416,300,44354,1,0
416,204,44525,1,8
392,204,44611,1,0
368,204,44696,1,0
344,204,44782,1,0
320,204,44868,1,0
256,276,45039,6,0,B|256:324|256:324|228:344,2,80,0|8|0
256,108,45554,2,0,B|256:60|256:60|284:40,2,80,0|0|8
164,136,46068,2,0,B|164:216,1,80
348,136,46411,1,0
400,56,46582,6,0,B|456:124|404:204,1,160,8|0
268,284,47096,2,0,B|212:216|264:136,1,160
264,136,47782,1,0
184,84,47954,5,8
328,300,48125,1,0
184,84,48296,2,0,B|232:152,1,80
284,228,48639,2,0,B|364:228,2,80,8|0|0
256,136,49154,5,4
428,52,49496,1,4
84,52,49839,1,4
300,144,50011,1,8
280,144,50096,1,0
260,144,50182,1,0
240,144,50268,1,0
220,144,50354,1,4
132,180,50696,5,10
68,252,51039,1,2
116,336,51382,1,10
212,316,51725,1,2
224,224,52068,1,10
392,316,52754,5,8
408,272,52925,1,0
392,228,53096,1,0
408,184,53268,1,0
392,140,53439,5,10
344,56,53782,1,2
300,140,54125,1,10
252,56,54468,1,2
208,144,54811,1,10
32,64,55496,5,8
48,112,55668,1,0
32,156,55839,1,0
48,200,56011,1,0
32,244,56182,6,0,B|104:288,1,80,8|0
168,212,56868,2,0,B|240:256,1,80,8|0
260,160,57554,2,0,B|260:72,1,80,8|0
344,128,58239,2,0,B|344:216,1,80,8|0
360,304,58925,1,4
152,304,59611,1,4
256,192,59954,12,4,60982
184,232,61154,6,0,B|120:156|192:76,1,160
328,152,61668,2,0,B|392:228|320:308,1,160,8|0
256,236,62182,6,0,B|256:320,2,80,0|8|0
164,208,62696,1,0
348,208,62868,1,0
384,120,63039,2,0,B|480:160|472:256,1,160,8|0
392,68,63725,6,0,B|312:68,1,80,8|0
216,68,64068,1,0
312,68,64239,1,0
264,152,64411,5,12
168,148,64582,1,0
120,64,64754,1,0
44,240,65096,5,12
136,212,65268,1,0
188,292,65439,1,0
376,340,65782,6,0,B|376:256,1,80,10|0
376,44,66125,2,0,B|376:128,1,80,2|0
292,76,66468,1,10
272,92,66554,1,0
252,108,66639,1,2
232,124,66725,1,0
212,140,66811,6,0,B|160:76,2,80,2|0|8
216,236,67325,1,0
216,332,67496,2,0,B|260:332|260:332|288:304,1,80
116,232,67839,2,0,B|116:188|116:188|144:160,1,80,8|0
56,120,68182,1,0
140,72,68354,1,0
372,72,68525,5,8
372,72,68611,1,0
372,72,68696,2,0,B|372:160,1,80
468,152,69039,1,0
468,248,69211,1,8
468,248,69296,1,0
468,248,69382,2,0,B|380:248,1,80
292,248,69725,1,0
192,248,69896,5,8
320,136,70068,1,0
192,248,70239,1,0
320,136,70411,1,0
228,160,70582,1,8
204,156,70668,1,0
180,148,70754,1,0
160,136,70839,1,0
144,120,70925,2,0,B|112:76|152:40,1,80
240,72,71268,5,8
360,192,71439,1,2
244,312,71611,1,0
128,192,71782,1,2
244,72,71954,5,10
268,164,72125,1,2
360,192,72296,1,2
384,284,72468,1,2
288,292,72639,6,0,B|128:304,2,160,12|0|8
124,192,73668,1,0
208,148,73839,1,0
288,96,74011,2,0,B|448:84,2,160,12|0|8
124,192,75039,1,0
288,292,75382,5,12
372,244,75554,1,0
372,148,75725,1,0
292,92,75896,1,0
100,92,76239,6,0,B|184:92,1,80,0|0
132,176,76582,1,0
132,176,76754,2,0,B|76:236|76:236|76:312,1,160,12|0
160,268,77268,1,0
352,268,77439,1,8
408,84,77782,5,2
408,84,77868,1,2
408,84,77954,1,0
408,84,78039,1,0
408,84,78125,2,0,B|312:60,1,80,10|0
316,192,78468,2,0,B|288:272,2,80,2|0|10
252,80,78982,1,0
188,192,79154,1,2
132,76,79325,1,0
64,184,79496,5,10
76,212,79582,1,0
88,240,79668,1,2
100,268,79754,1,0
116,296,79839,2,0,B|220:328,1,80,2|0
188,192,80182,6,0,B|224:116|324:120,1,160,8|0
308,248,80696,1,4
256,192,80868,12,4,82239
384,80,94239,6,0,B|288:64,1,80
208,88,94582,2,0,B|184:136|184:136|184:192,1,80,8|0
304,296,94925,2,0,B|328:248|328:248|328:192,1,80,0|0
208,88,95268,1,8
304,296,95439,1,0
208,292,95611,6,0,B|152:292|152:292|120:324,2,80,0|0|8
152,216,96125,2,0,B|56:196|40:104,2,160
208,136,96982,1,0
384,64,97325,6,0,B|384:148,1,80,8|0
384,320,97668,1,0
384,64,97839,1,0
288,60,98011,2,0,B|200:60,2,80,8|0|0
244,144,98525,1,0
80,48,98868,5,0
16,112,99039,1,0
112,136,99211,1,0
40,200,99382,5,8
40,224,99468,1,0
40,248,99554,1,0
40,272,99639,1,0
40,296,99725,1,0
136,304,99896,5,0
136,304,100068,1,8
232,304,100239,2,0,B|272:256|224:208,1,80
240,132,100582,1,0
328,92,100754,2,0,B|288:140|336:188,1,80,8|0
320,260,101096,1,0
408,296,101268,5,0
408,296,101354,1,0
408,296,101439,2,0,B|468:216|416:140,1,160,8|0
496,88,101954,2,0,B|416:28|340:80,1,160
347,75,102639,1,0
172,76,102811,6,0,B|256:76,1,80,8|0
124,160,103154,2,0,B|124:252,1,80
396,160,103496,1,8
220,160,103668,2,0,B|124:160,2,80,0|0|4
112,320,104354,5,4
400,320,104696,1,4
204,244,104868,1,8
228,244,104954,1,0
252,244,105039,1,0
276,244,105125,1,0
300,244,105211,1,4
344,160,105554,5,10
280,88,105896,1,2
216,160,106239,1,10
280,88,106582,1,2
344,160,106925,1,10
168,84,107611,6,0,B|136:128,1,40,8|0
96,128,107954,2,0,B|96:176,1,40
96,216,108296,5,10
96,312,108639,1,2
192,312,108982,1,10
192,216,109325,1,2
288,216,109668,1,10
420,76,110354,6,0,B|420:132,1,40,8|0
444,156,110696,2,0,B|444:208,1,40
428,240,111039,6,0,B|392:264|352:240,1,80,8|0
364,144,111725,2,0,B|328:120|288:144,1,80,8|0
212,88,112411,6,0,B|168:108|164:160,1,80,8|0
260,164,113096,2,0,B|304:184|308:236,1,80,8|0
256,304,113782,1,4
256,112,114468,1,4
256,192,114811,12,4,115840
396,112,116011,6,0,B|320:64|220:120,1,160
116,272,116525,2,0,B|192:320|292:264,1,160,8|0
364,296,117039,6,0,B|448:240,1,80,0|8
432,156,117382,1,0
336,156,117554,1,0
288,240,117725,1,0
204,196,117896,2,0,B|120:148|120:52,1,160,8|0
120,68,118582,5,0
76,152,118754,1,0
132,228,118925,1,0
176,144,119096,1,0
256,88,119268,6,0,B|344:64,2,80,12|0|0
256,296,119954,2,0,B|168:320,2,80,12|0|0
348,128,120639,6,0,B|348:76|348:76|388:56,1,80,10|0
460,104,120982,2,0,B|460:156|460:156|420:176,1,80,2|0
460,260,121325,1,10
436,268,121411,1,0
412,276,121496,1,2
388,268,121582,1,0
368,256,121668,1,2
352,236,121754,1,0
332,224,121839,1,2
268,296,122011,5,8
268,296,122182,2,0,B|312:296|312:296|336:324,2,80
244,88,122696,2,0,B|200:88|200:88|176:60,2,80,8|0|0
268,296,123211,1,0
360,136,123382,5,10
360,248,123554,1,2
268,88,123725,1,2
268,296,123896,1,2
188,144,124068,2,0,B|104:144,1,80,8|0
144,232,124411,2,2,B|144:272,2,40
64,288,124754,5,4
64,92,125096,1,4
64,92,125268,1,0
252,48,125611,1,4
252,48,125782,1,0
252,48,125954,1,0
348,48,126125,6,0,B|392:76|388:124,1,80,10|0
292,120,126468,2,0,B|248:148|252:196,1,80,2|0
208,272,126811,1,10
232,272,126896,1,0
252,272,126982,1,2
276,272,127068,1,0
300,272,127154,1,2
324,272,127239,1,0
348,272,127325,1,2
420,208,127496,6,0,B|420:128,1,80,8|0
364,52,127839,2,0,B|276:52,1,80
312,144,128182,1,8
312,144,128268,1,0
312,144,128354,1,0
312,144,128439,1,0
312,144,128525,2,0,B|228:172,1,80,0|0
200,80,128868,1,8
112,116,129039,1,2
148,204,129211,1,0
236,168,129382,1,2
200,80,129554,5,10
24,152,129725,1,2
100,316,129896,1,2
276,260,130068,1,2
200,80,130239,6,0,B|300:72,1,80,8|0
328,156,130582,1,2
424,144,130754,1,2
488,216,130925,6,0,B|452:296,1,80,8|0
372,240,131268,1,2
328,324,131439,1,2
232,324,131611,2,0,B|136:300|140:196,1,160,8|0
76,140,132125,1,0
76,140,132296,1,8
232,28,132639,5,2
216,48,132725,1,0
204,68,132811,1,2
196,92,132896,1,0
192,116,132982,2,0,B|176:164|200:212,1,80,10|0
320,268,133325,2,0,B|336:220|312:172,1,80,2|0
148,280,133668,2,0,B|196:296|244:272,1,80,10|0
364,104,134011,2,0,B|316:88|268:112,1,80,2|0
320,268,134354,5,8
192,116,134525,1,0
180,256,134696,1,0
332,128,134868,1,0
320,268,135039,6,0,B|404:276,2,80,12|0|4
256,192,135554,12,4,137096
104,100,149439,5,0
156,180,149611,1,0
200,96,149782,1,0
104,100,149954,2,0,B|16:56,2,80,0|0|0
408,284,150811,5,0
356,204,150982,1,0
312,288,151154,1,0
408,284,151325,2,0,B|496:328,2,80,0|0|0
120,248,152182,6,0,B|120:332,2,80,0|0|0
120,152,152696,1,0
256,96,152868,1,0
392,152,153039,1,0
392,136,153554,6,0,B|392:52,2,80,0|0|0
392,232,154068,1,0
256,288,154239,1,0
120,232,154411,1,0
392,72,160411,5,8
392,72,160582,1,0
440,152,160754,2,2,B|480:224,1,80
440,312,161096,2,0,B|336:312,1,80,8|0
364,216,161439,1,2
268,216,161611,1,2
196,152,161782,6,2,B|112:152,2,80,8|0|0
176,244,162296,2,2,B|176:328,2,80,0|8|0
108,176,162811,1,0
108,176,162982,1,2
256,56,163325,5,0
352,56,163496,1,0
352,152,163668,1,0
276,96,163839,5,10
372,96,164011,1,2
372,192,164182,2,2,B|372:272,1,80
276,284,164525,6,4,B|192:284,1,80,12|0
236,100,164868,2,4,B|320:100,1,80,4|0
196,284,165382,1,0
196,284,165554,1,0
196,284,165725,1,0
100,268,165896,5,8
88,248,165982,1,0
76,228,166068,1,0
76,204,166154,1,0
76,180,166239,1,0
76,156,166325,1,0
84,132,166411,1,0
92,108,166496,1,0
104,88,166582,6,0,B|152:56,3,40,8|0|0|0
160,56,166925,2,0,B|212:92,3,40
212,92,167268,5,8
232,104,167354,1,0
256,112,167439,1,0
280,112,167525,1,0
304,112,167611,1,0
324,100,167696,1,0
348,92,167782,1,0
372,100,167868,1,0
392,116,167954,5,8
400,140,168039,1,0
400,164,168125,1,0
388,184,168211,1,0
368,196,168296,1,0
352,216,168382,1,0
344,240,168468,1,0
340,264,168554,1,0
328,284,168639,2,0,B|280:280|228:240|228:164,1,160,4|0
36,168,169325,2,0,B|40:120|80:68|156:68,1,160,4|0
336,72,170011,2,0,B|384:76|436:116|436:192,1,160,4|0
256,244,170696,1,4
72,192,171382,5,10
168,192,171725,1,2
264,192,172068,1,10
360,192,172411,1,2
456,192,172754,1,10
320,56,173439,5,0
272,56,173611,1,0
232,84,173782,2,0,B|212:100|208:132,1,40
208,164,174125,5,10
176,256,174468,1,2
256,308,174811,1,10
336,256,175154,1,2
304,164,175496,1,10
172,24,176182,5,8
172,72,176354,1,0
172,120,176525,1,0
172,168,176696,1,0
172,216,176868,6,0,B|172:304,1,80,8|0
340,168,177554,2,0,B|340:80,1,80,8|0
280,276,178239,2,0,B|368:276,1,80,8|0
232,108,178925,2,0,B|144:108,1,80,8|0
108,192,179611,1,4
404,192,180296,1,4
256,192,180639,12,4,181667
96,88,181839,6,0,B|168:36|244:92,1,160
172,160,182354,2,0,B|244:212|320:156,1,160,8|0
408,120,182868,6,0,B|484:92,2,80,0|8|0
412,216,183382,1,0
360,296,183554,1,0
264,312,183725,2,0,B|172:312,1,80,8|0
104,156,184068,2,0,B|196:156,1,80
132,236,184411,5,8
184,156,184582,1,0
236,236,184754,2,0,B|236:276,2,40
332,236,185096,6,0,B|416:212|432:116,1,160,12|0
430,121,185611,1,0
388,36,185782,2,0,B|304:60|288:156,1,160,12|0
289,150,186296,1,0
352,224,186468,5,10
160,224,186639,1,2
352,224,186811,2,2,B|272:288,1,80
216,336,187154,5,10
192,336,187239,1,0
168,336,187325,1,2
144,328,187411,1,0
124,316,187496,1,2
108,300,187582,1,0
96,280,187668,1,2
96,256,187754,1,0
96,232,187839,2,0,B|96:152,1,80,12|0
416,148,188182,2,0,B|416:228,1,80,4|0
340,168,188525,5,8
340,168,188611,1,0
340,168,188696,1,0
172,216,188868,1,0
172,216,188954,1,0
172,216,189039,1,0
256,260,189211,5,12
256,260,189382,1,0
256,124,189554,1,4
256,124,189725,1,0
160,124,189896,6,0,B|84:84,1,80,8|0
352,260,190239,2,0,B|428:300,1,80
468,168,190582,6,4,B|388:212|388:212|308:212,1,160,12|0
44,216,191096,2,4,B|124:172|124:172|204:172,1,160,4|0
192,172,191611,1,0
192,172,191782,1,0
124,104,191954,5,8
268,172,192125,1,2
124,240,192296,1,0
268,312,192468,1,2
364,308,192639,5,10
376,288,192725,1,0
388,268,192811,1,2
400,248,192896,1,0
412,228,192982,1,2
424,208,193068,1,0
436,188,193154,1,2
368,120,193325,6,0,B|376:72|436:64,2,80,12|0|0
320,204,193839,2,0,B|312:156|252:148,2,80,4|8|0
240,256,194354,1,0
368,120,194525,1,0
288,68,194696,6,0,B|196:64|148:144,1,160,12|0
56,116,195211,2,0,B|52:208|132:256,1,160,4|0
288,68,195725,5,0
204,304,195896,1,0
204,304,196068,2,0,B|240:340|304:336,1,80,10|0
364,292,196411,2,0,B|328:256|264:260,1,80,2|0
480,308,196925,5,0
480,308,197096,1,0
480,308,197268,1,0
480,308,197439,2,0,B|480:224,1,80,10|0
480,76,197782,2,0,B|480:160,1,80,2|0
368,44,198125,5,10
364,68,198211,1,0
360,92,198296,1,2
356,116,198382,1,0
352,140,198468,1,2
348,164,198554,1,0
344,188,198639,1,2
340,212,198725,1,0
336,236,198811,2,0,B|316:324,1,80,12|0
224,312,199154,2,0,B|188:228,1,80,4|0
220,148,199496,1,8
260,60,199668,1,0
168,40,199839,2,0,B|124:116,1,80
212,152,200182,5,10
300,232,200354,1,2
172,252,200525,5,2
340,132,200696,1,2
112,100,200868,5,10
400,284,201039,1,2
400,284,201211,1,2
440,196,201382,2,0,B|452:116,1,80,0|8
384,48,201725,5,2
340,64,201811,1,0
296,80,201896,2,0,B|216:108,1,80,4|0
216,304,202239,2,0,B|296:276,1,80,8|0
144,152,202582,2,0,B|172:232,1,80,4|0
368,232,202925,2,0,B|340:152,1,80,8|0
168,228,203268,5,4
340,156,203439,1,0
144,152,203611,1,8
368,232,203782,1,0
304,304,203954,5,2
264,276,204039,1,0
216,264,204125,1,2
168,276,204211,1,0
124,296,204296,2,0,B|68:280|64:220,1,80,12|0
388,88,204639,2,0,B|444:104|448:164,1,80
168,188,204982,6,0,B|168:132|216:108,1,80,12|0
344,196,205325,2,0,B|344:252|296:276,1,80
408,264,205668,5,10
376,108,205839,1,2
248,216,206011,1,2
220,60,206182,1,2
92,160,206354,1,10
92,160,206439,1,0
92,160,206525,1,2
92,160,206611,1,0
92,160,206696,2,0,B|60:80,1,80,4|0
256,192,207039,12,4,209439
