osu file format v9

[General]
AudioFilename: 11 The World is All my loving.mp3
AudioLeadIn: 0
PreviewTime: 79212
Countdown: 0
SampleSet: Soft
StackLeniency: 0.7
Mode: 0
LetterboxInBreaks: 1

[Editor]
DistanceSpacing: 0.8
BeatDivisor: 4
GridSize: 8

[Metadata]
Title:The World is All my loving
Artist:Nana Takahashi & 709sec.
Creator:Tenshi-nyan
Version:Normal
Source:Touhou
Tags:reimu hakurei magicphoenix impossiblexu endless seeker maiden's cappricio dream battle imperishable night sound holic

[Difficulty]
HPDrainRate:3
CircleSize:4
OverallDifficulty:3
ApproachRate:4
SliderMultiplier:1.4
SliderTickRate:1

[Events]
//Background and Video events
0,0,"rei.jpg"
//Break Periods
2,62269,64178
2,106841,112392
2,120341,120749
2,147984,149892
2,190411,194464
//Storyboard Layer 0 (Background)
//Storyboard Layer 1 (Fail)
//Storyboard Layer 2 (Pass)
//Storyboard Layer 3 (Foreground)
//Storyboard Sound Samples
//Background Colour Transformations
3,100,163,162,255

[TimingPoints]
2070,428.571428571429,4,2,1,66,1,0
65461,-200,4,2,1,65,0,0
67962,-200,4,2,2,65,0,0
68498,-200,4,2,1,65,0,0
79212,-100,4,1,0,61,0,1
79427,-100,4,2,1,61,0,1
85962,-100,4,1,1,61,0,1
86177,-100,4,2,1,61,0,1
89461,-200,4,2,2,60,0,1
90533,-100,4,2,1,60,0,1
92820,-100,4,1,1,60,0,1
93034,-100,4,2,1,60,0,1
99570,-100,4,1,1,60,0,1
99891,-100,4,2,1,60,0,1
102961,-200,4,2,1,61,0,1
104675,-100,4,1,1,61,0,1
106641,-100,4,2,1,65,0,0
121801,-100,4,2,2,66,0,0
147747,-200,4,2,1,63,0,0
153677,-200,4,2,2,63,0,0
154212,-200,4,2,1,63,0,0
162248,-200,4,2,2,63,0,0
162784,-200,4,2,1,63,0,0
164927,-100,4,1,1,64,0,1
165141,-100,4,2,1,64,0,1
171677,-100,4,1,1,64,0,1
171891,-100,4,2,1,64,0,1
175068,-200,4,2,2,66,0,1
176140,-100,4,2,1,69,0,1
178534,-100,4,1,1,69,0,1
178748,-100,4,2,1,69,0,1
185391,-100,4,1,1,69,0,1
185605,-100,4,2,1,69,0,1
188568,-200,4,2,1,71,0,1
190212,-100,4,1,0,51,0,0

[Colours]
Combo1 : 200,38,38
Combo2 : 251,179,243
Combo3 : 45,88,228

[HitObjects]
408,184,20927,2,0,B|408:112,7,70,2|0|2|0|2|0|2|0
408,56,22641,5,4
296,56,23070,2,0,B|192:56|192:168,1,140,2|0
192,192,23712,1,0
192,304,24141,5,2
304,304,24570,2,0,B|400:304,2,70,0|2|0
304,248,25212,1,2
304,192,25427,1,0
304,80,25855,5,2
192,80,26284,2,0,B|104:80,4,70,2|0|2|0|2
152,184,27570,5,2
88,272,27998,2,0,B|160:312|240:272,1,140,2|0
280,280,28641,1,2
336,280,28855,2,0,B|416:280,2,70,0|0|4
304,176,29712,6,0,B|314:134|280:104,1,70,0|2
248,72,30141,2,0,B|217:48|176:56,1,70,0|2
128,56,30570,1,0
56,144,30998,5,2
128,232,31427,2,0,B|83:249|72:296,2,70,2|0|2
176,208,32070,1,0
224,232,32284,1,2
320,168,32712,5,4
320,168,33141,2,0,B|363:181|384:224,2,70,0|2|0
320,168,33784,1,2
320,168,33998,1,0
224,232,34427,5,4
224,232,34855,1,0
224,232,35070,1,2
224,232,35284,2,0,B|180:245|160:288,2,70,0|2|0
416,192,36355,6,0,B|416:96|416:96|352:48,1,140,4|2
328,64,36998,1,0
272,64,37212,2,0,B|120:64,1,140,0|2
72,64,37855,1,0
72,120,38070,6,0,B|72:208|72:208|120:256,1,140,0|2
168,248,38712,1,0
224,248,38927,1,0
320,200,39355,1,0
320,88,39784,2,0,B|264:32|104:32|40:104,2,280,2|0|2
256,320,43212,5,2
256,208,43641,1,0
256,152,43855,1,0
256,96,44069,1,2
256,96,44927,5,2
256,208,45355,1,0
256,264,45569,1,0
256,320,45784,1,2
440,192,46641,5,2
328,192,47069,1,0
272,208,47284,1,0
216,192,47498,2,0,B|120:192|120:96,1,140,2|0
128,56,48141,1,8
176,24,48355,5,4
288,56,48784,2,0,B|288:128,2,70,8|0|0
392,96,49641,1,8
392,152,49855,1,0
392,208,50069,1,0
392,320,50498,5,8
288,272,50927,1,0
184,320,51355,1,8
80,272,51784,2,0,B|48:232|72:208|46:180|96:136,2,140,0|8|0
176,208,53069,1,8
256,192,53498,12,4,55212
136,240,55641,5,8
136,240,55855,1,0
136,240,56069,1,0
136,128,56498,1,8
232,64,56927,6,0,B|304:40|384:72,1,140,4|8
416,96,57569,1,0
440,144,57784,1,0
440,256,58212,1,8
344,196,58641,5,4
232,188,59069,1,8
176,188,59284,1,0
120,188,59498,2,8,B|40:188,2,70,0|0|8
256,192,60141,12,4,62069
72,192,65498,5,4
240,192,66141,2,0,B|288:192,1,35,0|4
384,64,66998,1,0
440,64,67212,2,0,B|464:104|480:200|392:272,1,210,4|8
328,320,68927,6,0,B|272:344|224:320,1,105,4|0
168,304,69784,1,2
168,136,70427,1,2
168,80,70641,2,0,B|218:56|288:88,1,105,4|0
328,80,71498,2,0,B|328:32,4,35,8|0|8|0|4
208,280,73855,6,0,B|208:248,2,17.5,0|0|4
320,280,74498,1,2
376,280,74712,2,0,B|448:272|448:208|448:208,1,105,4|4
256,192,75784,12,8,78784
104,176,79212,5,4
176,96,79641,1,8
240,184,80069,1,8
240,240,80284,1,2
352,240,80712,2,2,B|416:176|336:96,1,140,2|2
304,88,81355,1,8
192,88,81784,2,8,B|118:45|32:104,2,140
304,88,83069,5,8
400,152,83498,2,0,B|448:160|488:144,2,70,8|2|8
368,192,84141,2,2,B|288:248|344:248|256:312,1,140,10|2
240,336,84784,1,8
128,328,85212,2,8,B|48:320|48:320|24:256,1,140
128,224,86069,6,0,B|80:152|144:80,1,140,4|8
240,96,86927,1,8
296,96,87141,1,2
376,176,87569,1,2
424,280,87998,1,2
376,312,88212,2,0,B|304:344|232:312,1,140,8|8
168,228,89070,5,8
136,180,89284,1,8
192,176,89498,2,8,B|288:168|232:208|336:200,1,140
440,200,90784,5,8
440,256,90998,1,2
440,312,91212,1,8
328,312,91641,2,8,B|232:312|192:232,2,140
392,224,92927,5,4
324,136,93355,1,8
264,48,93784,1,8
208,48,93998,1,2
96,48,94427,2,2,B|32:112|112:192,1,140,2|2
136,208,95069,1,8
248,208,95498,2,8,B|320:208|320:208|336:224|336:224|392:224,2,140
208,104,96784,5,8
112,160,97212,2,0,B|72:168|24:152,2,70,8|2|8
152,200,97855,2,2,B|216:256|160:256|248:320,1,140,8|2
280,344,98498,1,8
392,336,98927,2,0,B|472:328|472:328|496:264,1,140,8|8
472,160,99784,6,0,B|392:168|392:168|368:232,1,140,4|8
264,264,100641,1,8
208,264,100855,1,2
128,184,101284,1,2
208,104,101712,5,2
264,104,101927,2,0,B|344:104|408:152,1,140,8|8
400,256,102784,1,8
400,312,102998,2,0,B|360:368|296:368|296:368|280:352|280:352|176:352,1,245,2|8
184,240,104927,6,4,B|184:200,2,35,4|0|0
248,240,105355,1,0
376,240,105784,2,4,B|376:304,2,35,4|0|0
440,240,106212,1,0
312,240,106641,5,4
392,272,113712,6,0,B|472:272,2,70,0|8|0
336,272,114355,2,0,B|264:272|208:200,1,140,0|8
176,168,114998,1,4
120,272,115427,6,0,B|40:272,2,70,0|8|0
176,272,116070,2,0,B|248:272|304:200,1,140,0|8
328,168,116713,1,4
328,56,117141,6,0,B|248:56,1,70,0|8
200,56,117570,2,0,B|160:64|144:104,2,70,0|0|0
264,152,118427,1,4
264,264,118855,6,0,B|344:264,1,70,0|8
392,264,119284,2,0,B|432:256|448:216,2,70,0|0|0
368,152,120141,1,4
96,192,122069,6,0,B|96:288|96:288|160:336,1,140,4|8
184,320,122712,1,0
240,320,122927,2,0,B|392:320,1,140,0|8
440,320,123569,1,0
440,264,123784,6,0,B|440:176|440:176|392:128,1,140,0|8
344,128,124427,1,0
288,128,124641,1,0
192,184,125069,1,8
192,296,125498,2,0,B|336:296|304:352|464:352,2,280
136,200,127641,5,8
136,200,128498,1,8
192,104,128927,5,4
304,104,129355,1,8
352,136,129569,1,0
352,192,129784,1,0
264,264,130212,1,8
152,264,130641,5,4
72,184,131069,1,8
72,128,131284,1,0
120,96,131498,1,0
232,96,131927,1,8
120,96,132355,5,4
120,208,132784,1,8
120,264,132998,1,0
176,264,133212,2,0,B|272:264|272:168,1,140,0|8
272,128,133855,1,8
328,128,134069,5,4
440,128,134498,2,0,B|440:56,2,70,8|0|0
384,224,135355,1,8
344,264,135569,1,0
304,304,135784,1,0
192,312,136212,6,0,B|96:312|160:352|40:352,2,140,8|0|8
192,200,137498,1,0
80,200,137927,2,0,B|24:272,2,70,8|0|0
136,104,138784,1,8
256,192,139212,12,4,140927
376,144,141355,5,8
376,144,141569,1,0
376,144,141784,1,0
376,256,142212,1,8
280,320,142641,6,0,B|208:344|128:304,1,140,4|8
104,272,143284,1,0
104,216,143498,1,0
104,104,143927,1,8
200,160,144355,5,4
312,168,144784,1,8
368,168,144998,1,0
424,168,145212,2,8,B|504:168,2,70,0|0|8
256,192,145855,12,4,147784
440,192,151212,5,4
272,192,151855,2,0,B|224:192,1,35,0|4
128,64,152712,1,0
72,64,152927,2,0,B|32:120|32:200|88:272,1,210,4|8
176,320,154641,6,0,B|288:320,1,105,4|0
336,320,155498,1,2
424,176,156141,1,2
368,176,156355,2,0,B|264:176,1,105,4|0
208,176,157212,2,0,B|208:128,4,35,8|0|8|0|4
64,328,159570,6,0,B|64:304,2,17.5,0|0|4
176,336,160212,1,2
232,336,160427,2,0,B|304:336|304:264|304:264,1,105,4|4
296,160,161498,2,0,B|192:160|192:232|88:232,1,210,4|8
256,192,163212,12,8,164498
408,176,164927,5,4
328,96,165355,1,8
256,176,165784,1,8
256,232,165998,1,2
152,272,166427,2,0,B|88:208|168:128,1,140,2|2
184,104,167070,1,8
296,104,167498,2,8,B|384:104|336:144|440:144,2,140
192,64,168784,5,8
96,128,169212,2,0,B|48:136|8:112,2,70,8|2|8
136,168,169855,2,0,B|200:224|144:224|232:288,1,140,8|2
264,312,170498,1,8
376,328,170927,2,8,B|416:264|416:264|424:280|424:280|448:240,1,140
480,128,171784,6,0,B|440:72|352:72,1,140,4|8
248,104,172641,1,8
192,104,172855,1,2
120,192,173284,1,2
200,272,173712,1,2
256,272,173927,2,8,B|336:272|376:200,1,140
352,96,174784,5,8
320,48,174998,1,8
264,40,175212,2,0,B|184:16|112:40,1,140,8|8
152,144,176498,5,8
152,200,176712,1,2
152,256,176927,1,8
264,256,177355,2,8,B|360:256|400:176,2,140
152,256,178641,5,4
88,160,179070,1,8
152,72,179498,1,8
208,72,179712,1,2
320,72,180141,2,0,B|384:136|304:216,1,140,2|2
296,248,180784,1,8
184,248,181212,2,8,B|104:224|128:264|40:248,2,140
240,152,182498,5,8
352,152,182927,2,0,B|400:160|440:144,2,70,8|2|8
312,192,183570,2,2,B|248:248|304:248|216:312,1,140,8|2
184,336,184212,1,8
80,296,184641,2,8,B|16:248|16:248|24:176,1,140
40,80,185498,6,8,B|99:73|99:73|147:137,1,140,4|8
148,248,186355,1,8
204,248,186570,1,2
316,248,186998,1,2
260,148,187427,1,2
316,148,187641,2,8,B|383:125|456:152,1,140
456,264,188498,1,8
456,320,188712,2,0,B|436:328|340:368|212:324,1,245,2|4
152,296,195784,5,4
264,280,196212,1,2
312,256,196427,1,0
352,216,196641,1,2
416,120,197070,1,2
416,120,197284,1,2
304,112,197712,5,2
208,56,198141,1,2
144,144,198570,2,2,B|144:224|144:224|200:288|200:288|200:288,1,140
240,272,199212,2,0,B|328:272|328:272,2,70,2|0|2
264,160,200070,1,0
280,48,200498,5,0
280,48,200712,2,2,B|208:40|136:64,1,140
104,104,201355,1,2
104,160,201570,1,0
152,192,201784,2,0,B|200:216|240:208,3,70,2|0|2|0
288,296,202855,6,0,B|344:288|344:248,1,70,2|0
344,204,203284,1,2
348,148,203498,1,2
400,48,203927,1,2
400,48,204141,1,2
288,52,204570,2,0,B|216:52|216:52|176:108,2,140,2|2|2
288,108,205641,1,4
160,224,206284,6,0,B|216:280,1,70,0|2
264,280,206712,2,0,B|336:280,1,70,0|2
392,280,207141,1,0
352,176,207570,6,0,B|286:88|200:79,1,140,2|2
192,96,208212,1,2
136,112,208427,1,2
104,160,208641,2,2,B|192:268|350:300,1,280,2|4
392,272,209712,6,0,B|416:240|408:200,3,70,0|2|0|2
352,112,210784,1,2
352,112,210998,1,2
264,184,211427,1,2
176,116,211855,1,2
96,192,212284,2,0,B|96:264,2,70,2|2|2
256,192,212927,12,0,214212
256,192,214641,6,0,B|256:232|256:240,2,35,4|0|0
256,136,215070,1,0
368,136,215498,2,0,B|368:200|368:184,2,35,4|0|0
368,80,215927,1,0
256,136,216355,5,4
