osu file format v9

[General]
AudioFilename: 11 The World is All my loving.mp3
AudioLeadIn: 0
PreviewTime: 79212
Countdown: 0
SampleSet: Soft
StackLeniency: 0.7
Mode: 0
LetterboxInBreaks: 1

[Editor]
Bookmarks: 4962
DistanceSpacing: 1.1
BeatDivisor: 4
GridSize: 4

[Metadata]
Title:The World is All my loving
Artist:Nana Takahashi & 709sec.
Creator:Tenshi-nyan
Version:Hard
Source:Touhou
Tags:reimu hakurei magicphoenix impossiblexu endless seeker maiden's cappricio dream battle imperishable night sound holic

[Difficulty]
HPDrainRate:6
CircleSize:4
OverallDifficulty:6
ApproachRate:7
SliderMultiplier:1.6
SliderTickRate:1

[Events]
//Background and Video events
0,0,"rei.jpg"
//Break Periods
2,62269,64598
2,106841,112812
2,120341,121169
2,147984,150312
2,190626,194884
2,216555,222312
2,228555,229170
//Storyboard Layer 0 (Background)
//Storyboard Layer 1 (Fail)
//Storyboard Layer 2 (Pass)
//Storyboard Layer 3 (Foreground)
//Storyboard Sound Samples
//Background Colour Transformations
3,100,163,162,255

[TimingPoints]
2070,428.571428571429,4,2,1,67,1,0
29177,-100,4,2,1,57,0,0
29605,-100,4,2,1,67,0,0
43961,-200,4,2,1,67,0,0
44818,-100,4,2,1,67,0,0
45676,-200,4,2,1,67,0,0
46533,-100,4,2,1,67,0,0
65461,-200,4,2,1,67,0,0
67962,-200,4,2,2,67,0,0
68498,-200,4,2,1,67,0,0
79212,-100,4,1,1,61,0,1
79534,-100,4,2,1,61,0,1
85962,-100,4,1,1,62,0,1
86177,-100,4,2,1,61,0,1
89461,-200,4,2,2,62,0,1
90533,-100,4,2,1,62,0,1
92820,-100,4,1,1,61,0,1
93034,-100,4,2,1,61,0,1
96247,-200,4,2,2,61,0,1
97426,-100,4,2,1,60,0,1
99677,-100,4,1,1,59,0,1
99891,-100,4,2,1,59,0,1
102961,-200,4,2,1,59,0,1
104675,-100,4,1,1,59,0,1
106641,-100,4,2,1,67,0,0
125281,-100,4,2,2,67,0,0
127426,-100,4,2,1,67,0,0
129676,-200,4,2,1,67,0,0
130211,-100,4,2,1,67,0,0
131390,-200,4,2,1,67,0,0
132033,-100,4,2,1,67,0,0
141676,-200,4,2,1,67,0,0
142319,-100,4,2,1,67,0,0
143390,-200,4,2,1,67,0,0
144033,-100,4,2,1,67,0,0
147747,-200,4,2,1,69,0,0
153677,-200,4,2,2,69,0,0
154212,-200,4,2,1,69,0,0
162248,-200,4,2,2,69,0,0
162784,-200,4,2,1,69,0,0
164927,-100,4,1,0,61,0,1
165034,-100,4,2,1,61,0,1
166319,-200,4,2,2,59,0,1
166961,-100,4,2,1,59,0,1
168033,-200,4,2,1,59,0,1
169319,-100,4,2,1,59,0,1
171677,-100,4,1,1,59,0,1
171891,-100,4,2,1,59,0,1
175068,-200,4,2,2,59,0,1
176140,-100,4,2,1,59,0,1
178534,-100,4,1,1,59,0,1
178748,-100,4,2,1,59,0,1
181854,-200,4,2,1,59,0,1
183354,-100,4,2,1,59,0,1
185391,-100,4,1,1,59,0,1
185605,-100,4,2,1,59,0,1
188712,-200,4,2,1,59,0,1
190427,-100,4,2,1,67,0,0
195676,-100,4,1,1,51,0,0
223105,-133.333333333333,4,2,1,67,0,0
226320,-200,4,2,1,67,0,0
228141,-133.333333333333,4,2,1,67,0,0
235104,-100,4,2,1,67,0,0
237783,-100,4,1,1,67,0,0
238641,-100,4,1,1,59,0,1
238953,-100,4,2,1,59,0,1
245391,-100,4,1,1,59,0,1
245605,-100,4,2,1,59,0,1
248820,-200,4,2,2,59,0,1
249874,-100,4,2,1,59,0,1
252248,-100,4,1,1,59,0,1
252732,-100,4,2,1,59,0,1
255570,-200,4,2,1,59,0,1
257283,-100,4,2,1,59,0,1
259105,-100,4,1,1,59,0,1
259320,-100,4,2,1,59,0,1
264354,421.052631578947,4,1,1,67,1,0
265932,-100,4,2,1,67,0,0

[Colours]
Combo1 : 200,38,38
Combo2 : 251,179,243
Combo3 : 45,88,228

[HitObjects]
56,80,20927,2,0,B|144:80,1,80,0|2
80,152,21355,2,0,B|160:152,1,80,0|2
112,224,21784,2,0,B|208:224,1,80,0|2
144,296,22212,2,0,B|248:296,1,80,0|2
312,296,22641,1,4
392,152,23070,6,0,B|496:152|496:280,1,160,0|0
408,232,23712,1,2
256,288,24141,5,2
104,240,24570,2,0,B|24:296,2,80,2|0|2
176,264,25212,1,0
168,184,25427,1,2
320,64,25855,5,2
160,64,26284,2,0,B|72:64,2,80,0|2|0
240,64,26927,1,2
320,64,27141,1,0
424,184,27570,5,2
320,304,27998,2,0,B|224:304,1,80,0|2
256,224,28427,2,0,B|144:224,1,80,0|2
208,144,28855,2,0,B|96:144,1,80,0|2
48,168,29284,2,8,B|48:208,2,40,8|8|4
80,88,29712,5,0
144,40,29927,1,2
208,88,30141,1,0
272,40,30355,1,2
336,88,30570,1,0
424,216,30998,5,2
264,216,31427,2,0,B|176:264,2,80,2|0|2
336,256,32070,1,0
336,176,32284,1,2
256,40,32712,5,4
396,124,33141,2,0,B|316:196,1,80,0|2
372,244,33570,2,0,B|300:308,1,80,0|2
256,180,33998,1,2
256,40,34427,5,4
120,120,34855,2,0,B|200:192,1,80,0|2
144,240,35284,2,0,B|216:304,1,80,0|2
296,344,35712,5,2
296,344,35820,1,0
296,344,35927,1,2
296,344,36034,1,0
296,344,36141,1,2
296,344,36248,1,0
296,344,36355,2,0,B|384:344|384:344|424:280,1,160,4|0
456,200,36998,5,2
456,200,37212,2,0,B|456:112|456:112|400:56,1,160
320,24,37855,1,2
248,80,38070,2,0,B|160:80|160:80|120:144,1,160
160,224,38712,5,2
208,152,38927,1,0
344,256,39355,1,0
344,80,39784,2,0,B|272:8|112:8|24:112,2,320,2|0|2
192,168,41927,5,0
344,80,42355,1,0
424,240,42784,1,0
264,328,43212,5,2
128,216,43641,1,0
168,136,43855,1,0
240,80,44069,2,0,B|296:56|360:80,1,120,2|0
357,79,44927,5,2
472,216,45355,1,0
424,288,45569,1,0
340,320,45784,2,0,B|281:341|220:320,1,120,2|0
224,324,46641,1,2
352,128,47069,5,0
282,73,47284,1,0
194,69,47498,2,0,B|154:141,1,80,2|8
120,264,48034,1,8
153,292,48141,2,0,B|226:341,1,80,8|4
376,248,48784,5,8
288,248,48998,1,0
200,248,49212,1,0
48,160,49641,1,8
136,160,49855,1,0
224,160,50069,1,0
360,272,50498,5,8
424,336,50712,2,0,B|464:240|392:168,1,160
320,208,51355,1,8
344,120,51569,5,0
264,152,51784,2,0,B|176:160|120:264,1,160,0|8
256,192,52641,12,4,55212
136,336,55641,5,8
213,296,55855,1,0
283,239,56069,2,0,B|235:191|211:215|186:191|139:239,1,160,0|8
64,80,56927,6,0,B|112:48|168:128|240:48,1,160,4|8
304,80,57569,1,0
392,104,57784,2,0,B|424:152|344:208|424:280,1,160,0|8
248,336,58641,6,0,B|168:296|168:296|168:216,1,160,4|8
168,224,59284,1,0
96,168,59498,2,0,B|40:184,2,40,2|0|0
176,128,59927,1,8
256,192,60141,12,4,62069
32,56,65498,5,4
32,296,66141,2,0,B|80:296,1,40,0|2
128,56,66998,1,2
208,56,67212,2,0,B|208:136|208:136|256:176|256:176|256:272,1,240,4|8
352,288,68927,6,0,B|391:273|435:297|472:288,1,120,4|0
472,208,69784,1,2
192,208,70427,1,2
192,128,70641,2,0,B|227:92|245:110|263:92|298:128,1,120,4|2
368,184,71498,5,8
440,248,71712,1,0
504,184,71927,1,8
440,248,72141,1,0
360,312,72355,2,0,B|280:344|192:312,1,160,4|8
144,80,73855,5,0
144,80,73962,1,0
144,80,74069,2,0,B|200:80|208:80,1,60,4|0
240,80,74498,1,2
320,80,74712,2,0,B|384:80|384:136|384:136,1,80,4|4
384,200,75355,1,4
256,192,75784,12,8,76641
256,192,77070,5,8
256,192,77498,12,8,78784
96,264,79212,5,4
224,144,79641,1,8
400,144,80069,2,0,B|400:240,1,80,8|2
400,224,80391,1,0
400,224,80498,1,8
320,264,80712,6,0,B|256:200|328:120,1,160,2|2
416,104,81355,1,8
456,184,81569,1,2
464,264,81784,2,0,B|392:328|320:264,2,160,8|8|8
400,200,82855,6,0,B|312:136,1,80,2|8
256,104,83284,2,0,B|256:32,2,40,2|0|8
168,112,83712,2,0,B|168:168,2,40,2|0|8
80,120,84141,1,2
80,120,84355,1,8
80,208,84569,2,0,B|80:296,1,80,2|8
160,256,84998,2,0,B|160:312,2,40,2|0|8
248,256,85427,1,2
248,256,85641,2,0,B|352:256,1,80,8|8
416,256,86069,6,0,B|480:184|432:96,1,160,4|8
368,56,86712,1,2
280,64,86927,2,0,B|280:24,2,40,8|0|2
208,112,87355,1,8
112,112,87569,5,2
160,184,87784,1,8
112,256,87998,1,2
200,256,88212,2,0,B|280:256|344:176,1,160,8|8
336,184,88855,1,2
400,240,89069,1,8
456,176,89284,5,2
456,176,89391,1,0
456,176,89498,2,0,B|456:120|408:88|336:96,1,160,8|8
128,184,90784,5,8
240,128,90998,1,2
240,256,91212,1,8
448,192,91641,2,0,B|448:104|448:104|384:56,2,160,8|8|8
296,288,92927,6,4,B|192:288|192:288|152:248,1,160,4|8
152,160,93569,1,2
208,88,93784,1,8
248,72,93891,1,0
288,72,93998,1,2
376,72,94212,5,8
424,152,94427,2,0,B|488:232,2,80,2|8|2
336,152,95069,1,8
208,24,95498,5,8
80,120,95927,1,8
88,208,96141,1,2
96,304,96355,2,0,B|149:303|192:332|256:336,1,160,8|8
368,216,97427,6,0,B|400:144|384:128,1,80,2|8
328,72,97855,2,0,B|344:32,2,40,2|8|8
248,112,98284,2,0,B|280:160,2,40,2|0|8
160,128,98712,1,2
88,176,98927,2,0,B|61:256|80:272,1,80,8|2
144,304,99355,1,8
144,304,99569,1,8
224,264,99784,6,0,B|283:242|336:288|392:264,1,160,4|8
432,192,100427,1,2
376,120,100641,2,0,B|416:88,2,40,8|0|2
304,72,101069,1,8
216,88,101284,6,2,B|96:88|96:184,1,160
112,256,101927,2,0,B|224:256|232:168,1,160,8|8
344,244,102677,1,2
344,244,102784,1,8
396,180,102998,2,0,B|396:109|351:55|274:55|232:112|232:192,1,280,2|0
232,304,104927,6,0,B|232:344,2,40,4|0|0
320,304,105355,1,0
408,280,105569,1,0
416,136,105784,6,0,B|416:88,2,40,4|0|0
328,136,106212,1,0
248,176,106427,1,0
320,304,106641,5,4
88,320,113712,6,0,B|64:224,1,80,0|8
16,168,114141,1,0
64,96,114355,2,0,B|83:18,2,80,0|0|8
16,168,114998,1,4
256,104,115427,6,0,B|160:56,2,80,0|8|0
256,192,116069,1,0
256,280,116284,2,0,B|352:320,2,80,0|8|4
496,168,117141,5,0
443,242,117355,2,0,B|424:320,2,80,8|0|0
496,168,117998,1,0
448,96,118212,2,0,B|428:18,1,80,8|4
232,160,118855,6,0,B|280:80,2,80,0|8|0
184,232,119498,2,0,B|136:312,2,80,0|0|8
136,160,120141,1,4
0,176,122069,6,0,B|0:280|120:280,1,160,4|8
184,280,122712,1,0
184,280,122819,1,0
184,280,122927,2,0,B|352:280,1,160,0|8
424,320,123569,6,0,B|448:272|424:224,1,80,0|0
424,152,123998,2,0,B|411:99|352:96,1,80,0|8
288,72,124427,1,0
200,80,124641,2,0,B|144:64|112:128,1,80
96,184,125069,1,8
360,336,125498,6,0,B|432:272|432:112|360:16,2,320,0|0|0
40,192,127641,5,8
256,192,128070,1,0
472,192,128498,1,8
328,312,128927,6,0,B|256:352|160:312,1,160,4|8
104,256,129569,1,0
104,256,129784,2,0,B|144:217|60:219|104:176,1,80,0|8
256,64,130641,6,0,B|336:56|416:104,1,160,4|8
424,184,131284,1,0
424,184,131498,2,0,B|464:223|380:221|424:264,1,80,0|8
232,320,132355,6,0,B|144:320|64:232,1,160,4|8
88,257,132998,1,0
56,176,133212,2,0,B|48:128|104:88,1,80,0|8
200,40,133748,1,8
244,32,133855,2,0,B|300:24|340:64,1,80,8|4
456,208,134498,5,8
384,256,134712,2,0,B|331:324|331:324|242:330,1,160
256,328,135248,1,0
256,328,135355,1,8
272,240,135569,1,0
184,224,135784,2,0,B|237:156|237:156|326:150,1,160,0|8
384,104,136427,5,0
384,192,136641,1,0
456,144,136855,1,0
456,232,137069,1,8
384,280,137284,1,0
304,319,137498,2,0,B|224:352|144:320,1,160,0|8
84,256,138141,1,0
56,180,138355,1,0
256,192,138569,12,8,140498
120,184,140927,6,0,B|120:104|224:64,1,160,4|8
304,80,141569,1,0
304,80,141784,2,0,B|344:119|260:117|304:160,1,80,0|8
424,264,142641,6,0,B|376:312|264:312,1,160,4|8
184,312,143284,1,0
184,312,143498,2,0,B|224:272|140:275|184:232,1,80,0|8
104,80,144355,6,0,B|152:32|176:56|201:32|248:80,1,160,4|8
176,144,144998,2,0,B|176:224,2,80
176,144,145641,1,8
256,192,145855,12,4,147784
400,48,151212,5,4
384,288,151855,2,0,B|336:288,1,40,0|2
400,48,152712,1,0
320,48,152927,2,0,B|224:48|224:48|144:144|224:176,1,240,4|8
320,288,154641,6,0,B|256:320|200:288,1,120,4|0
128,288,155498,1,2
320,144,156141,1,2
320,64,156355,2,0,B|256:32|192:72,1,120,4|0
144,120,157212,5,8
72,184,157427,1,0
0,120,157641,1,8
72,184,157855,1,0
152,248,158070,2,0,B|232:248|232:248|241:255|241:255|312:256,1,160,4|8
256,64,159570,5,0
256,64,159677,1,0
256,64,159784,2,0,B|200:64|192:64,1,60,4|0
160,64,160212,1,2
80,64,160427,2,0,B|24:64|24:120|24:120,1,80,4|4
24,192,161070,1,4
136,304,161498,2,0,B|200:352|304:352|368:304,1,240,4|8
256,192,163212,12,8,164498
56,104,164927,5,4
72,192,165141,1,2
128,264,165355,2,0,B|128:304,2,40,8|0|2
184,192,165784,2,0,B|272:192,1,80,8|2
344,232,166212,5,8
376,152,166427,2,0,B|384:104|360:64,1,80,2|2
288,24,167070,1,8
96,136,167498,5,8
96,224,167712,1,2
176,272,167927,1,8
264,272,168141,2,0,B|357:263|342:127|258:135,1,200,2|8
144,176,169427,6,0,B|144:224,2,40,2|0|8
72,240,169855,2,0,B|72:192,2,40,2|8|8
136,304,170284,1,2
224,304,170498,1,8
280,232,170712,2,0,B|368:232,1,80,2|8
360,144,171141,2,0,B|264:144,1,80,2|8
200,184,171570,1,2
104,88,171784,5,4
248,32,172212,2,0,B|336:32|352:56,1,80,8|2
376,112,172641,2,0,B|424:136,2,40,8|0|2
304,160,173070,1,8
224,192,173284,2,0,B|160:208|128:192,1,80,2|8
64,112,173712,5,2
144,80,173927,1,8
304,160,174355,1,8
248,328,174784,1,8
248,328,174998,1,8
248,328,175212,2,0,B|136:336|80:304,1,160,8|8
56,232,176284,1,2
64,144,176498,1,8
304,32,176927,5,8
480,200,177355,1,8
304,368,177784,1,8
144,192,178212,1,8
304,88,178641,6,0,B|360:128|360:128|360:224,1,160,4|8
336,312,179284,1,2
248,312,179498,2,0,B|224:344,2,40,8|0|2
248,224,179927,1,8
160,256,180141,2,2,B|112:176|184:104,1,160
264,64,180784,6,0,B|264:16,2,40,8|0|2
328,120,181212,1,8
416,120,181427,1,2
368,192,181641,1,8
368,280,181855,2,0,B|314:351|171:351|109:280,1,280,2|8
64,216,183570,5,2
128,152,183784,1,8
216,152,183998,2,0,B|216:200,2,40,2|0|8
304,144,184427,2,0,B|304:96,2,40,2|0|8
384,176,184855,2,0,B|384:256,1,80,2|8
320,312,185284,1,2
256,176,185498,5,4
176,208,185712,1,2
128,280,185927,1,8
80,208,186141,1,2
80,208,186355,2,0,B|80:104|192:96,1,160,8|8
264,96,186998,6,0,B|384:96|384:192,1,160,2|2
368,264,187641,2,0,B|256:264|256:176,1,160,8|8
180,72,188391,1,2
180,72,188498,1,8
128,140,188712,2,0,B|120:212|128:260|160:308|200:332|264:356|320:360,1,320,2|4
192,184,195784,5,4
360,144,196212,1,2
408,216,196427,1,0
352,280,196641,2,0,B|288:224|248:312|176:240,1,160,2|0
120,224,197284,1,2
256,64,197712,5,2
456,192,198141,1,2
256,320,198570,1,2
48,192,198998,5,2
48,192,199105,1,0
48,192,199212,2,0,B|48:104|168:88|168:88,1,160,2|0
272,80,199855,1,0
272,80,200070,1,0
200,288,200712,6,0,B|248:288|264:304|280:288,1,80,0|0
368,288,201141,2,0,B|408:312,2,40
392,176,201570,5,0
304,88,201784,1,2
240,200,201998,1,0
168,96,202212,1,2
104,200,202427,1,0
192,320,202855,6,0,B|280:320|280:288,1,80,2|0
336,248,203284,1,2
376,168,203498,2,0,B|312:128|400:80|320:24,1,160,2|0
280,104,204141,2,2,B|339:150|354:51|434:107,1,160
426,103,204998,1,2
280,104,205427,2,2,B|208:48|112:160|24:80,1,240,2|4
56,184,206284,6,0,B|72:264|104:272|96:272,1,80,0|2
168,280,206712,2,0,B|248:304|264:288,1,80,0|2
336,296,207141,1,0
384,128,207570,1,2
384,128,207677,1,0
384,128,207784,2,0,B|312:72|280:80,1,80,2|0
224,88,208212,2,0,B|128:80|120:112,2,80,2|2|2
272,168,208855,2,2,B|312:328|128:352,1,240,2|4
88,296,209712,5,0
32,224,209927,1,2
40,136,210141,1,0
112,80,210355,2,2,B|192:32|272:80|272:80,1,160,2|0
264,76,210998,5,2
472,192,211427,1,2
264,280,211855,2,2,B|168:280|112:200,1,160,2|0
120,128,212498,1,2
168,56,212712,1,2
256,192,212927,12,0,214212
136,152,214641,6,0,B|136:112,2,40,4|0|0
224,152,215070,1,0
312,176,215284,1,0
288,320,215498,6,0,B|288:368,2,40,4|0|0
200,320,215927,1,0
120,280,216141,1,0
224,152,216355,5,4
128,288,223212,6,0,B|48:256|48:176,1,119.999996423721,4|0
48,80,224070,2,0,B|72:48|120:48,2,59.9999982118607,2|0|2
48,144,224712,1,8
144,208,225141,1,0
192,248,225355,2,0,B|240:280|320:280,2,119.999996423721,2|0|2
144,208,226427,2,0,B|61:126|201:3|291:85,1,280
280,76,228355,1,4
440,328,230070,5,4
440,208,230498,1,0
352,124,230927,2,0,B|328:92|280:92,2,59.9999982118607,2|0|2
352,184,231570,1,8
232,184,231998,1,0
172,184,232212,2,2,B|92:184|44:224,2,119.999996423721,2|2|2
256,192,233284,12,2,234784
256,192,235212,5,4
344,192,235427,2,0,B|424:192,1,80,2|0
424,192,235855,1,2
464,272,236070,2,0,B|368:272,1,80,0|2
296,272,236498,1,0
296,272,236712,1,2
216,272,236927,5,4
216,192,237141,2,0,B|216:112,2,80,2|0|2
296,192,237784,6,0,B|296:144,8,40,0|0|0|0|0|0|0|0|4
392,320,239070,2,0,B|312:360|224:320,1,160,8|8
160,288,239712,1,2
160,200,239927,1,8
240,240,240141,6,0,B|264:248|312:248|344:232,1,80,2|8
376,168,240570,1,2
369,124,240677,1,0
339,91,240784,1,8
272,144,240998,1,2
200,92,241212,2,0,B|88:68|40:164,1,160,8|8
96,216,241855,2,2,B|220:216|220:360|302:360|374:298,1,320,2|2
368,216,242927,5,8
288,192,243141,1,2
256,160,243248,1,0
216,160,243355,1,8
192,248,243570,1,2
232,272,243677,1,8
272,272,243784,1,8
360,272,243998,6,0,B|432:320,1,80,2|8
352,360,244427,2,0,B|256:360|256:360,1,80,2|8
184,360,244855,1,2
104,320,245070,1,8
104,232,245284,1,2
104,144,245498,5,4
248,48,245927,2,0,B|336:48|352:72,1,80,8|2
368,136,246355,1,8
344,176,246462,1,0
312,208,246570,2,0,B|216:232,1,80,2|8
152,248,246998,6,0,B|64:272,1,80,2|8
0,232,247427,1,2
40,152,247641,1,8
216,152,248070,1,8
368,240,248498,5,8
324,316,248712,1,2
236,336,248927,2,0,B|124:344|68:312,1,160,8|8
40,240,249998,1,2
56,152,250212,1,8
256,32,250641,5,8
432,192,251070,1,8
256,368,251498,1,8
88,192,251927,1,8
304,88,252355,6,8,B|360:128|360:128|360:224,1,160,4|8
344,304,252998,1,2
256,304,253212,1,8
216,296,253320,1,0
176,280,253427,1,2
120,208,253641,1,8
128,120,253855,6,2,B|192:88|296:96,1,160
376,88,254498,2,0,B|416:56,2,40,8|0|2
392,176,254927,1,8
384,264,255141,1,2
312,320,255355,1,8
312,320,255570,2,0,B|200:320|128:264|128:144,1,280,2|8
48,112,257284,5,2
128,72,257498,1,8
208,112,257712,2,0,B|208:72,2,40,2|0|8
208,200,258141,2,0,B|208:240,2,40,2|0|8
288,160,258570,1,2
288,160,258784,1,8
40,80,259212,5,4
104,136,259427,1,2
176,80,259641,1,8
264,80,259855,1,2
352,80,260070,2,0,B|448:80|448:208,1,160,8|8
432,272,260712,5,2
368,328,260927,2,0,B|338:364|280:360,1,80,8|2
208,336,261355,1,8
56,120,261784,5,8
136,80,261998,2,0,B|172:60|224:64,1,80,2|8
256,192,262427,12,8,263927
112,192,264354,6,0,B|112:232,2,40,4|0|0
192,152,264775,2,0,B|256:96|320:112,1,120,0|4
344,112,265196,2,0,B|368:144,2,40
304,232,265617,2,0,B|232:288|144:256,1,160,0|4
