osu file format v5

[General]
AudioFilename: WILD EYES.mp3
AudioLeadIn: 0
PreviewTime: -1
Countdown: 1
SampleSet: Normal
StackLeniency: 0.7
Mode: 0
LetterboxInBreaks: 1
EditorBookmarks: 3443,86300

[Metadata]
Title:WILD EYES
Artist:Nana Mizuki
Creator:kioukiou
Version:Normal
Source:
Tags:

[Difficulty]
HPDrainRate:5
CircleSize:5
OverallDifficulty:5
SliderMultiplier:1.4
SliderTickRate:0.5

[Events]
//Background and Video events
0,0,"NanaMizuki.jpg"
//Break Periods
2,78286,85100
//Storyboard Layer 0 (Background)
//Storyboard Layer 1 (Failing)
//Storyboard Layer 2 (Passing)
//Storyboard Layer 3 (Foreground)
//Storyboard Sound Samples
//Background Colour Transformations
3,100,0,0,0

[TimingPoints]
3264,357.142857142857,4,1,0,100,1

[HitObjects]
152,184,3442,1,0
152,184,3621,1,0
280,184,3978,2,2,B|352:120|264:48,2,140,2|2|2
152,184,5049,2,2,B|88:264|152:328,2,140,2|2|2
152,56,6121,1,0
280,56,6478,1,0
280,184,6835,1,0
152,184,7192,1,0
280,184,7549,2,2,B|208:248|280:312,2,140,2|2|2
280,56,8621,5,0
408,56,8978,1,0
408,184,9335,1,0
344,184,9514,1,8
280,184,9692,1,8
152,184,10049,2,0,L|152:256|208:304,2,140,0|0|0
280,184,11121,2,2,B|400:184|400:80|304:56,1,210
192,56,12013,1,0
64,56,12371,2,0,B|64:200,2,140
192,56,13442,1,0
192,184,13799,2,0,B|264:248|328:168,2,140
64,184,14871,5,0
64,184,15049,2,0,B|64:112,2,70,0|0|4
192,184,15763,1,0
192,56,16121,1,0
256,56,16299,1,8
320,56,16478,1,8
320,184,16835,5,0
384,184,17013,2,2,B|432:256|384:320,2,140
256,184,18085,2,0,B|112:184,1,140
120,312,18799,2,2,B|272:312,3,140
376,88,20585,5,0
376,88,20763,1,0
376,88,20942,1,0
248,88,21299,1,8
248,216,21656,1,8
120,216,22013,2,2,B|56:152|128:88,2,140,2|2|2
184,320,23085,1,0
288,248,23442,1,0
384,160,23799,2,0,B|280:56,1,140,2|2
192,152,24513,2,0,B|72:272,1,140,2|2
216,264,25228,1,0
216,264,25406,1,8
216,264,25585,1,8
400,96,26299,5,0
400,96,26478,2,0,L|400:200,2,70,0|0|4
272,96,27192,1,0
272,224,27549,2,2,B|240:256|200:216,2,70,2|2|2
144,224,28263,1,0
144,96,28621,5,0
272,96,28978,1,0
352,192,29335,1,0
352,192,29513,2,2,B|328:288|224:288,2,140
224,192,30585,1,0
96,192,30942,2,0,B|48:128,3,70,0|0|0|0
224,56,32013,6,0,B|296:32|360:112,1,140
224,128,32728,1,0
224,256,33085,1,0
224,256,33263,1,0
352,256,33621,1,0
352,128,33978,1,0
352,128,34156,5,0
352,128,34335,2,0,B|352:48,2,70,0|0|0
256,208,35049,1,8
256,208,35228,1,8
160,288,35585,1,0
64,208,35942,2,2,B|64:104|168:104,1,140
264,112,36656,2,2,B|352:112|352:232,1,140,2|2
160,208,37549,5,0
160,208,37906,1,0
160,208,38264,2,0,B|160:304|264:304,1,140,2|2
304,304,38799,2,0,B|416:304|416:152,2,210,2|2|2
240,304,40049,6,0,B|240:200,2,70,0|0|0
240,176,40764,1,0
112,176,41121,1,0
104,304,41478,2,0,B|176:304,1,70,8|8
176,176,42014,2,0,B|264:176,2,70,0|8|8
464,304,43264,5,0
376,216,43621,1,0
264,152,43978,2,2,B|192:144|152:200|184:264|288:248,2,210,6|2|2
392,152,45406,1,0
296,72,45764,1,0
168,72,46121,1,0
168,200,46478,1,0
168,200,46656,2,0,B|104:264|168:344,4,140
456,72,48978,5,0
456,72,49156,2,0,B|312:72,1,140
192,72,49871,2,0,B|136:144|200:224,2,140
320,72,50942,1,0
320,200,51299,1,0
320,200,51478,1,0
256,192,51656,12,4,52549
208,136,52906,6,0,B|312:256,1,140,0|4
384,144,53621,1,0
384,272,53978,2,0,B|312:344|232:344|200:264,1,210
208,152,54871,1,0
208,152,55049,2,0,B|128:152,2,70,0|0|0
336,152,55764,1,0
464,160,56121,2,0,B|432:224|344:224,1,140,0|0
288,224,56656,1,0
288,224,57014,2,2,B|168:224|168:136,2,140
376,56,58264,6,0,B|328:136|248:48,1,140,4|0
136,64,58978,1,0
136,64,59335,2,2,B|136:224,2,140,2|2|2
232,144,60406,1,0
328,224,60764,1,0
328,224,60942,1,0
200,224,61299,2,0,B|272:288|176:368,3,140
88,280,62728,2,0,B|40:200|128:144,2,140
280,288,63978,5,4
376,208,64335,1,0
280,128,64692,1,0
184,208,65049,1,0
56,208,65406,2,2,B|56:80|192:80,1,210,2|2
184,208,66299,1,0
184,336,66656,6,2,B|320:336|320:192,1,210,2|2
320,80,67549,1,0
416,160,67906,1,0
416,160,68085,1,0
288,160,68442,2,0,B|216:160|216:288,2,140
352,160,69335,1,0
352,160,69514,2,2,B|352:304,3,140,2|2|2|2
224,304,70942,2,2,B|136:304|136:192,3,140,2|2|2|2
136,88,72371,5,4
264,88,72728,1,0
264,216,73085,1,0
136,216,73442,2,0,B|136:280|264:280,1,140,0|4
368,280,74156,1,0
368,280,74514,2,0,B|424:208|368:136,1,140
312,152,75049,1,0
312,152,75228,2,0,B|216:152|216:40,1,140
256,192,75764,12,4,78085
408,80,86299,5,0
408,80,86478,2,0,B|408:168,2,70,0|0|0
304,144,87192,1,0
304,144,87371,1,0
304,272,87728,1,0
304,272,87906,1,0
192,208,88263,5,0
88,128,88621,2,2,B|32:200|88:272,2,140,2|2|2
152,128,89513,2,2,B|192:208|128:264,2,140
280,120,90585,1,0
280,248,90942,2,0,B|368:248|368:152,2,140
152,248,92013,5,0
152,248,92192,1,0
152,248,92371,1,0
152,120,92728,2,0,B|184:152|224:112,1,70,8|8
320,48,93263,2,0,B|352:96|312:120,3,70,0|0|0|0
320,240,94156,1,0
192,240,94513,1,0
96,160,94871,2,0,B|32:232|104:312,2,140
224,160,95942,1,0
304,64,96299,1,0
376,160,96656,2,2,B|424:240|376:296,2,140
248,160,97728,5,0
248,160,97906,2,0,B|184:216,2,70,0|0|4
120,160,98621,1,0
120,288,98978,1,0
120,288,99156,1,0
120,288,99335,1,0
248,288,99692,2,2,B|312:336|368:248,2,140,2|2|2
248,160,100763,1,0
248,160,100942,2,0,B|288:72|384:72,2,140
120,160,102013,2,0,B|96:72|24:72,3,140
24,200,103442,6,0,B|24:280|128:280,1,140,0|0
120,152,104156,1,0
120,24,104513,2,2,B|248:24|248:176,1,210,2|10
248,280,105406,1,0
376,280,105763,1,0
376,152,106121,2,2,B|376:64,2,70,2|2|2
376,216,106656,2,0,B|216:216,3,140
120,272,108085,2,2,B|56:208|136:136,2,140,2|2|2
184,272,108978,5,0
184,272,109335,1,0
248,160,109692,2,0,B|344:144|344:72|288:24|208:64,3,210,4|0|0|0
237,53,111478,1,8
152,144,111835,1,8
248,224,112192,1,8
248,224,112371,1,0
248,224,112549,2,0,B|320:272|376:168,2,140,0|0|0
184,224,113442,2,2,B|184:312,2,70,2|2|2
184,32,114335,1,0
304,64,114692,6,2,B|360:144|256:176,2,140,2|2|2
112,64,115942,1,0
112,256,116478,1,0
296,264,117013,6,0,B|392:232|352:136,1,140
296,160,117549,1,0
296,160,117728,2,0,B|152:160,3,140
184,288,119156,2,2,B|136:288|128:240,1,70,2|2
248,288,119692,2,2,B|312:288|312:344,1,70
352,136,120406,5,0
352,136,120585,1,0
224,136,120942,2,0,B|112:136|112:240,1,140,4|0
48,96,121656,2,0,B|152:96|152:24,2,140
48,224,122728,1,0
48,224,122906,2,2,B|48:320|152:320,2,140,2|2|2
176,224,123978,5,4
176,96,124335,2,0,B|248:136|248:224,1,140,0|0
248,336,125049,1,0
248,208,125406,2,0,B|248:120|320:88,1,140,0|0
311,91,125942,1,0
312,216,126299,1,0
312,216,126478,2,0,B|312:128,2,70,0|0|0
440,216,127192,1,0
376,320,127549,2,2,B|224:320,1,140,2|2
168,320,128085,1,0
168,320,128442,2,2,B|168:224|280:224,2,140
280,168,129692,5,4
280,168,130049,1,0
152,176,130406,2,2,B|208:128|208:128|136:72,2,140,2|2|2
344,176,131656,6,0,B|280:248|392:272,2,140
216,168,132728,1,0
280,56,133085,1,0
152,56,133442,2,2,B|88:112|144:192,4,140
328,128,135406,5,4
328,128,135763,1,0
328,128,136121,2,0,B|328:240|248:240,1,140,2|2
136,248,136835,2,0,B|56:168|104:96|192:80,1,210,2|2
216,200,137728,1,0
216,200,137906,1,0
216,200,138085,1,0
216,200,138263,2,0,B|216:288|336:288,2,140,4|0|0
304,112,139335,1,0
304,112,139513,2,0,B|216:112|216:16,2,140
184,144,140585,1,0
184,144,140763,1,0
184,144,140942,2,0,B|80:248,3,140,0|0|0|0
144,352,142371,2,0,B|248:240,3,140,0|0|0|0
336,168,143799,5,4
208,168,144156,1,0
272,280,144513,2,0,B|272:128,1,140,0|0
144,168,145228,1,4
144,40,145585,1,0
32,104,145942,2,0,B|184:104,2,140,0|0|0
256,192,146835,12,4,148263
