osu file format v5

[General]
AudioFilename: WILD EYES.mp3
AudioLeadIn: 0
PreviewTime: -1
Countdown: 1
SampleSet: Soft
StackLeniency: 0.7
Mode: 0
LetterboxInBreaks: 1
EditorBookmarks: 3443,86300,169157

[Metadata]
Title:WILD EYES
Artist:Nana Mizuki
Creator:kioukiou
Version:Hard
Source:
Tags:

[Difficulty]
HPDrainRate:7
CircleSize:5
OverallDifficulty:6
SliderMultiplier:1.4
SliderTickRate:0.5

[Events]
//Background and Video events
0,0,"NanaMizuki.jpg"
//Break Periods
2,77390,85097
2,148461,167954
//Storyboard Layer 0 (Background)
//Storyboard Layer 1 (Failing)
//Storyboard Layer 2 (Passing)
//Storyboard Layer 3 (Foreground)
//Storyboard Sound Samples
//Background Colour Transformations
3,100,0,0,0

[TimingPoints]
3265,357.142857142857,4,2,1,80,1
169157,-100,4,2,0,80,0
186300,-100,4,1,0,80,0
186657,-100,4,2,1,80,0
186836,-100,4,1,1,80,0
187193,-100,4,2,1,80,0
187550,-100,4,1,0,80,0
187907,-100,4,2,1,80,0
188979,-100,4,2,0,80,0
189157,-100,4,2,1,80,0
218265,-100,4,2,1,80,0
218622,-100,4,2,1,80,0
232372,-100,4,1,1,80,0

[HitObjects]
256,192,3443,1,2
256,192,3622,1,8
160,104,3979,2,0,B|96:152|152:232,2,140,2|8|2
288,112,5050,1,8
352,224,5407,2,0,B|440:192|392:96,2,140,2|8|2
288,224,6300,1,2
224,224,6479,2,0,B|168:288|232:352,2,140,8|2|8
224,160,7372,1,2
224,96,7550,1,2
160,96,7729,1,2
160,96,7907,1,8
160,160,8086,6,0,B|56:160|112:320|216:232,1,210,2|8
264,248,8800,1,2
392,248,9157,1,8
392,120,9515,1,8
392,120,9693,1,12
264,112,10050,6,0,B|144:24,2,140,8|2|8
264,176,10943,1,2
200,176,11122,1,2
72,176,11479,1,8
72,304,11836,1,2
200,304,12193,1,8
264,304,12372,1,2
264,240,12550,1,2
256,112,12907,1,8
192,112,13086,1,2
128,112,13264,1,2
128,240,13622,6,8,B|128:320,2,70,8|2|2
176,200,14157,1,2
224,160,14336,1,8
272,120,14514,1,0
272,120,14604,1,0
272,120,14693,1,0
328,88,14872,6,2,B|328:176|416:176,1,140
408,240,15407,1,4
408,304,15586,1,2
344,304,15764,1,8
280,304,15943,1,2
152,304,16300,1,2
152,176,16657,1,2
152,48,17014,5,0
216,48,17193,1,8
216,112,17372,1,0
280,112,17550,2,0,B|336:152|280:192,2,70,0|0|8
216,112,18086,2,2,B|48:112,3,140
72,176,19336,1,8
72,240,19514,1,2
136,240,19693,2,0,B|136:320,2,70,0|0|8
200,240,20229,1,0
200,240,20318,1,2
200,240,20407,1,0
264,240,20586,5,2
264,176,20764,1,8
264,112,20943,2,0,B|336:72|408:120,1,140
400,176,21479,1,8
400,240,21657,1,2
400,304,21836,1,0
336,304,22014,1,0
272,304,22193,2,0,B|240:336|200:296,2,70,8|2|2
272,240,22729,6,2,B|272:88,1,140,0|2
208,104,23264,1,2
160,64,23443,1,2
120,112,23622,1,8
80,64,23800,2,2,B|80:224,1,140,2|0
80,328,24514,1,2
208,328,24872,1,2
208,200,25229,1,2
272,200,25407,1,2
272,200,25586,1,2
336,200,25764,1,8
400,200,25943,2,0,B|400:256,2,35
400,136,26300,6,0,B|464:72,2,70,0|8|0
336,136,26836,1,4
208,136,27193,1,8
144,136,27372,1,2
104,184,27550,1,2
144,232,27729,1,2
208,232,27907,2,0,B|360:232,1,140,8|2
408,232,28443,5,2
408,168,28622,1,8
344,168,28800,1,2
344,168,28979,2,0,L|344:56|296:56,1,140,2|8
256,56,29514,1,2
128,56,29872,2,2,B|64:120|144:192,3,140,0|2|0|2
194,178,31122,1,2
256,176,31300,1,2
256,240,31479,2,0,B|328:240,2,70,8|2|2
192,240,32014,5,2
136,272,32193,1,10
80,312,32372,1,2
80,312,32550,2,0,B|80:160,1,140,2|8
80,104,33086,1,2
112,48,33264,1,0
144,104,33443,1,2
208,104,33622,2,0,L|320:104|320:144,1,140,8|2
320,192,34157,5,0
384,192,34336,1,8
427,237,34514,1,2
384,280,34693,1,0
320,280,34872,1,2
256,280,35050,1,8
192,280,35229,2,0,B|128:224|200:160,1,140,2|0
264,160,35764,1,8
264,160,35943,2,2,B|336:96|256:32,2,140,2|0|2
200,160,36836,1,2
136,160,37015,1,8
72,160,37193,2,0,B|72:112,2,35,8|0|0
72,224,37550,6,0,B|112:304|192:280,1,140,2|8
184,216,38086,1,2
184,152,38265,2,0,B|248:96|336:136,1,140,4|8
312,192,38800,1,2
312,256,38979,2,0,B|376:296|456:248,1,140,0|8
448,192,39515,1,0
448,128,39693,1,2
392,160,39872,5,0
344,112,40050,1,8
280,112,40229,1,0
216,112,40407,2,0,B|216:40,2,70,2|2|8
216,176,40943,1,2
216,240,41122,2,0,B|272:304|216:376,1,140,2|8
160,368,41657,2,2,B|104:304|160:232,1,140
160,176,42193,1,8
160,112,42372,1,0
288,112,42729,1,2
416,112,43086,5,0
352,112,43265,1,2
352,240,43622,1,8
224,240,43979,2,0,B|144:240|104:168|152:96|224:112,3,210,4|0|8|0
256,112,45765,5,8
256,176,45943,1,0
320,176,46122,2,0,B|320:264,2,70,2|2|8
320,112,46657,2,2,B|472:112,2,140
256,112,47550,2,2,B|256:192,1,70,2|2
192,184,47907,2,0,B|192:272,1,70,8|2
128,256,48265,2,0,B|128:352,1,70,2|0
64,328,48622,2,0,B|8:328,2,35,8|0|0
64,264,48979,5,0
64,200,49157,1,2
64,72,49515,1,2
192,72,49872,2,2,B|256:136|184:208,2,140
320,72,50943,1,0
320,200,51300,1,8
320,136,51479,1,8
256,136,51657,1,2
256,200,51836,2,0,B|256:256,6,35,8|0|8|0|8|0|0
192,200,52550,6,0,B|32:200,2,140,4|8|2
192,264,53443,1,0
192,328,53622,1,8
320,328,53979,2,2,B|392:304|392:240|352:176|288:208,1,210
288,80,54872,1,2
224,80,55050,1,8
224,144,55229,1,2
160,144,55407,2,0,B|88:216|168:288,1,140,2|8
272,272,56122,2,0,B|343:188|276:134,1,140,2|8
224,144,56657,1,0
96,144,57015,1,0
160,144,57193,1,8
160,208,57372,1,2
224,208,57550,1,2
288,208,57729,2,0,B|328:256,2,35,0|0|8
288,80,58265,6,0,B|368:40|400:144|320:144,2,140,2|8|2
160,80,59336,1,8
160,208,59693,1,2
288,208,60050,1,8
288,208,60229,1,2
288,144,60407,6,0,L|352:112,2,70,2|2|8
224,144,60943,2,2,L|120:144|72:192,1,140,2|0
96,296,61657,1,0
224,296,62015,1,0
288,296,62193,1,8
352,296,62372,1,2
352,232,62550,2,0,L|352:80,1,140,2|8
224,96,63265,1,0
160,96,63443,1,2
160,160,63622,1,8
160,288,63979,6,0,B|240:320|296:272,2,140,4|8|0
160,160,65050,1,8
160,160,65407,2,0,B|64:160|64:72,2,140,0|8|0
160,96,66300,5,2
224,96,66479,1,8
224,160,66657,1,0
288,160,66836,2,0,B|344:192|344:264|304:288,1,140,4|8
248,280,67372,1,0
248,344,67550,2,0,B|160:392|104:328,1,140,2|8
120,280,68086,1,0
120,280,68443,1,0
120,280,68800,2,2,B|32:216|128:144,1,140,0|2
160,128,69336,1,8
224,128,69515,2,2,B|280:72|352:136,3,140
408,136,70765,1,8
408,264,71122,1,2
408,200,71300,1,2
408,264,71479,1,8
280,264,71836,5,2
152,264,72193,1,8
152,200,72372,2,2,B|152:56,1,140,4|2
216,56,72907,1,8
216,120,73086,2,2,B|216:264,2,140,2|2|4
344,120,74157,1,2
216,120,74515,1,2
88,120,74872,2,2,B|160:120,2,70
256,192,75407,12,4,77193
408,80,86300,5,8
344,80,86479,1,8
344,144,86657,1,2
280,144,86836,1,4
280,208,87015,2,0,B|280:280,2,70,2|8|2
152,208,87729,1,2
152,144,87907,1,8
24,144,88264,1,2
24,208,88443,6,0,B|24:296,2,70,0|8|2
88,208,88979,1,2
88,272,89157,1,2
88,336,89336,2,0,B|160:336,1,70,8|2
280,336,89872,1,0
280,208,90229,1,2
280,80,90586,1,2
216,80,90764,1,8
216,144,90943,1,2
152,144,91122,1,2
152,208,91300,2,8,B|80:264,1,70,2|8
280,208,92014,6,0,B|376:208,2,70,2|8|2
216,208,92550,1,2
88,208,92907,1,8
88,144,93086,1,2
88,80,93264,1,0
216,80,93622,1,8
280,80,93800,1,2
408,80,94157,6,0,B|456:152,2,70,0|8|2
344,80,94693,1,0
344,144,94872,1,2
280,144,95050,1,8
224,184,95229,2,2,B|72:272,2,140
152,80,96300,1,2
152,208,96657,1,2
152,144,96836,1,2
280,144,97193,1,8
408,144,97550,1,2
344,144,97729,5,2
344,208,97907,1,8
344,272,98086,1,2
344,272,98264,1,4
216,272,98622,1,8
216,208,98800,1,2
216,144,98979,2,0,B|152:88|80:152,1,140,2|8
88,208,99514,1,2
88,272,99693,1,2
152,272,99872,6,0,B|152:352,2,70,2|8|2
152,208,100407,2,0,B|152:48,1,140,2|8
216,72,100943,1,2
344,72,101300,1,0
216,72,101657,1,2
216,200,102014,1,2
344,200,102372,1,2
344,136,102550,1,2
408,136,102729,1,2
408,72,102907,1,8
344,72,103086,2,0,B|344:24,2,35
280,72,103443,6,0,B|192:72,2,70,2|8|2
280,136,103979,1,2
152,136,104336,1,8
152,200,104514,1,2
280,200,104872,1,2
280,264,105050,1,8
152,264,105407,1,2
88,264,105586,6,2,L|24:264|48:184,1,140,0|2
104,192,106122,1,2
168,192,106300,1,2
232,192,106479,1,8
296,192,106657,2,2,L|400:304,2,140
296,128,107550,1,2
248,80,107729,1,2
208,128,107907,1,8
160,80,108086,2,4,L|16:80,2,140,2|8|2
160,144,108979,5,8
160,208,109157,1,2
160,272,109336,1,2
224,272,109514,1,8
288,272,109693,2,0,B|376:272|376:176,1,140,12|8
312,184,110229,1,2
248,184,110407,2,8,B|248:80|344:88,1,140,2|8
384,88,110943,1,2
448,88,111122,2,0,B|448:192|376:192,1,140,2|8
384,256,111657,5,2
320,256,111836,2,0,B|224:256,2,70,2|2|8
320,256,112372,1,2
320,192,112550,2,0,B|320:40,1,140,2|8
256,48,113086,1,2
128,48,113443,1,2
128,112,113622,1,8
64,112,113800,2,0,B|24:184,3,70,0|2|2|8
32,296,114693,5,2
160,296,115050,1,8
160,168,115407,2,0,B|160:88|256:88,1,140,4|8
256,152,115943,1,2
256,216,116122,2,0,B|344:216|344:128,1,140,2|8
344,64,116657,1,2
344,64,116836,1,2
408,64,117014,6,0,B|408:136,2,70,0|8|2
472,64,117550,1,2
472,128,117729,1,2
472,192,117907,1,8
408,192,118086,2,2,B|344:248|264:184,3,140
216,192,119336,1,8
88,192,119693,1,2
88,64,120050,1,8
152,64,120229,1,8
216,64,120407,6,0,B|288:128,2,70,0|2|8
216,128,120943,2,0,B|216:280,3,140,4|2|2|2
344,264,122372,1,2
344,200,122550,1,2
344,136,122729,1,8
280,136,122907,1,8
280,72,123086,1,2
216,72,123264,2,0,B|216:32,6,35,8|0|8|0|8|0|0
216,136,123979,6,0,B|128:136|128:232,1,140,4|8
192,232,124514,1,2
256,224,124693,2,0,B|256:312|144:312,1,140,2|8
104,312,125229,1,2
104,248,125407,2,0,B|104:80,1,140,2|8
168,104,125943,1,0
168,104,126122,1,2
232,104,126300,1,2
232,104,126479,1,8
296,104,126657,1,2
296,104,126836,2,0,B|376:104|376:184|304:200,3,140,2|8|2|8
264,192,128086,2,0,B|264:272,3,70,2|2|2|8
200,264,128800,1,2
136,264,128979,2,0,B|136:208,2,35
72,264,129336,1,8
72,136,129693,6,0,B|72:48|184:48,2,140,4|8|2
72,200,130586,1,0
72,264,130764,2,0,B|72:368|184:368,2,140,8|2|8
136,264,131657,5,2
136,136,132014,1,2
200,136,132193,1,8
200,200,132372,2,2,B|264:248|336:192,3,140,4|2|0|2
328,136,133622,1,8
328,72,133800,1,2
392,72,133979,2,2,B|472:72,1,70
456,136,134336,2,0,B|384:136,1,70,8|2
384,200,134693,2,0,B|456:200,2,70,2|2|8
256,200,135407,5,4
128,200,135764,1,8
128,72,136122,1,2
128,72,136300,1,2
128,72,136479,2,0,B|200:16|264:88,2,140,8|2|8
128,136,137372,6,2,B|128:288,1,140,0|2
192,272,137907,1,8
192,272,138086,1,2
256,272,138264,2,0,B|336:272|336:160,1,140,4|8
272,176,138800,1,2
208,176,138979,2,0,B|208:80|304:80,1,140,2|8
352,80,139514,1,2
416,80,139693,2,0,B|416:176|312:176,1,140,2|8
336,240,140229,5,2
208,240,140586,1,2
144,240,140764,1,8
80,240,140943,2,2,B|16:168|104:96,3,140,4|2|2|2
144,120,142193,1,8
272,120,142550,1,2
400,120,142907,1,8
400,184,143086,1,2
400,248,143264,2,0,B|448:280,2,35
336,248,143622,1,8
272,248,143800,6,4,B|216:304|136:240,1,140,4|2
144,120,144514,1,0
272,120,144872,2,0,B|200:120,2,70,2|8|2
272,248,145586,1,2
400,248,145943,1,0
400,120,146300,2,0,B|320:120,2,70,2|8|2
256,192,146836,12,4,148264
240,56,169157,6,0,B|240:136,2,70
176,56,169693,1,2
176,184,170050,1,0
240,184,170229,1,2
232,312,170586,1,0
296,312,170764,1,2
304,184,171122,1,0
368,184,171300,5,0
360,248,171479,2,0,B|392:280|432:240,2,70
296,248,172014,2,0,B|256:280|216:232,2,70
296,120,172729,1,0
168,120,173086,2,0,B|96:184|168:248,2,140
232,120,173979,1,0
296,120,174157,1,2
296,248,174514,1,0
232,248,174693,1,2
168,248,174872,6,0,B|168:328,2,70
168,184,175407,1,2
296,184,175764,1,0
296,120,175943,1,2
168,120,176300,1,0
168,56,176479,1,2
296,56,176836,1,0
296,120,177014,6,0,B|216:184,1,70
288,208,177372,2,0,B|352:160,1,70
384,216,177729,2,0,B|312:272,1,70
368,312,178086,2,0,B|488:216,4,140
240,312,179872,1,2
240,184,180229,1,2
240,184,180407,1,2
176,184,180586,6,0,B|176:88,2,70
176,248,181122,1,4
304,248,181479,1,0
304,184,181657,1,2
432,184,182014,1,0
432,120,182193,1,2
304,120,182550,1,0
240,120,182729,6,0,B|136:120,2,70
240,184,183264,1,0
176,184,183443,1,0
112,184,183622,1,0
112,248,183800,2,0,B|176:320|240:240,1,140
240,184,184336,1,0
240,120,184514,2,0,B|312:56|368:136,2,140
112,120,185586,1,2
112,248,185943,1,2
112,184,186122,1,2
176,184,186300,6,0,B|176:272,2,70,0|0|0
176,120,186836,1,4
304,120,187193,1,2
304,120,187372,1,2
304,184,187550,1,4
432,184,187907,1,2
432,248,188086,1,2
304,248,188443,6,2,B|208:248,2,70
368,248,188979,1,4
368,184,189157,1,2
304,184,189336,1,2
240,184,189514,2,8,B|176:120|248:48,2,140,10|8|10
240,248,190407,2,0,B|240:328,1,70,4|8
184,280,190764,2,0,B|184:192,1,70,8|2
128,248,191122,2,0,B|128:336,1,70,8|2
72,280,191479,2,0,B|72:192,1,70,8|2
72,144,191836,5,12
200,144,192193,1,6
328,144,192550,2,0,B|400:200|352:296|256:272|248:200,3,210,2|2|8|0
240,168,194336,2,0,B|164:217|228:291,2,140,8|2|8
240,104,195229,1,2
304,104,195407,1,2
432,104,195764,1,8
432,168,195943,1,2
304,168,196300,1,2
304,232,196479,1,8
304,296,196657,1,0
176,296,197014,1,2
176,168,197372,1,2
112,168,197550,6,0,B|112:328,2,140,2|8|6
112,40,198622,1,8
176,40,198800,1,2
240,40,198979,1,2
240,168,199336,2,0,B|384:168,1,140,8|2
376,232,199872,6,0,B|464:232,2,70,0|8|2
312,232,200407,1,2
248,232,200586,1,2
248,296,200764,1,8
184,296,200943,1,2
184,168,201300,1,2
56,168,201657,1,2
56,40,202014,1,2
120,40,202193,1,8
120,168,202550,1,2
184,168,202729,1,2
248,168,202907,2,0,L|248:128,2,35,8|0|0
248,232,203264,5,2
248,232,203443,2,2,L|248:312|328:312,2,140,2|4|2
376,232,204514,1,2
376,104,204872,1,2
248,104,205229,1,4
120,104,205586,1,8
120,168,205764,2,0,L|120:240,1,70,8|2
184,224,206122,2,0,L|184:304,1,70,8|10
248,280,206479,2,0,L|248:360,1,70,8|2
312,336,206836,6,0,L|312:168,1,140,4|8
312,72,207550,1,2
312,72,207729,1,2
312,72,207907,1,8
184,72,208264,2,0,B|104:128|176:200,1,140,2|8
232,192,208800,1,0
296,192,208979,2,0,B|368:256|280:328,1,140,2|8
232,312,209514,1,2
168,312,209693,2,0,B|104:248|176:184,2,140,4|8|2
296,312,210764,1,8
296,248,210943,1,2
296,120,211300,1,2
296,120,211479,1,8
296,120,211657,1,2
232,120,211836,2,0,B|232:80,2,35
168,120,212193,1,8
168,248,212550,6,0,B|256:248|256:152,1,140,4|8
128,160,213264,2,0,B|128:56|240:56,1,140,2|8
328,64,213979,2,0,B|328:160|232:160,1,140,2|8
184,160,214514,1,2
184,224,214693,2,0,B|184:304,2,70,2|2|8
248,224,215229,2,2,B|248:72,1,140
312,88,215764,1,8
312,152,215943,2,2,B|312:328,1,140
312,292,216479,1,8
256,192,216657,12,8,217907
104,64,218264,5,4
104,192,218622,2,0,B|112:296|168:120,1,140,8|2
232,40,219336,2,0,B|232:192,1,140,8|2
232,240,219872,1,2
232,304,220050,1,8
296,304,220229,2,2,B|384:304|384:192,1,140
320,216,220764,1,8
320,152,220943,1,2
320,88,221122,2,0,B|176:88,2,140,6|8|2
448,88,222193,1,8
448,152,222372,1,2
320,152,222729,1,2
320,216,222907,1,8
256,216,223086,6,2,B|112:216,1,140
112,152,223622,1,8
176,152,223800,2,2,B|328:152,3,140,6|2|2|2
376,152,225050,1,8
376,216,225229,2,2,B|328:280,1,70
280,240,225586,2,0,B|216:312,1,70,2|8
176,264,225943,2,0,B|144:296,2,35
176,200,226300,1,2
176,200,226479,1,8
112,200,226657,6,2,B|48:144|120:64,2,140,4|2|2
240,200,227729,1,2
240,72,228086,2,2,B|304:0|368:80,2,140,4|2|2
112,72,229157,2,0,B|40:72,2,70,2|8|2
256,192,229693,12,4,232372
