osu file format v5

[General]
AudioFilename: WILD EYES.mp3
AudioLeadIn: 0
PreviewTime: -1
Countdown: 1
SampleSet: Normal
StackLeniency: 0.7
Mode: 0
LetterboxInBreaks: 1
EditorBookmarks: 3443,86300

[Metadata]
Title:WILD EYES
Artist:Nana Mizuki
Creator:kioukiou
Version:Easy
Source:
Tags:

[Difficulty]
HPDrainRate:4
CircleSize:4
OverallDifficulty:4
SliderMultiplier:1
SliderTickRate:0.5

[Events]
//Background and Video events
0,0,"NanaMizuki.jpg"
//Break Periods
2,78286,84980
//Storyboard Layer 0 (Background)
//Storyboard Layer 1 (Failing)
//Storyboard Layer 2 (Passing)
//Storyboard Layer 3 (Foreground)
//Storyboard Sound Samples
//Background Colour Transformations
3,100,0,0,0

[TimingPoints]
3265,357.142857142857,4,1,0,100,1

[HitObjects]
88,112,3443,1,0
88,112,3622,1,0
88,200,3979,2,0,B|104:280|216:280|248:224,1,200
248,136,5050,1,0
336,136,5407,1,0
336,224,5765,2,2,B|336:344,2,100
248,224,6836,2,2,B|128:224,2,100
248,136,7907,5,0
248,136,8086,1,0
160,136,8443,2,0,B|104:136|104:48,2,100
160,224,9515,2,2,B|232:224|232:304|288:304,1,150
296,216,10407,1,0
296,216,10765,2,2,B|296:144|168:144|168:72,2,200
384,216,12550,1,0
384,128,12907,1,0
296,128,13264,2,0,B|296:56,2,50
296,216,13979,2,0,B|296:288,2,50
160,216,14872,5,0
160,216,15229,2,0,B|56:216|56:104|112:64,1,200
192,80,16300,2,0,B|312:80,1,100
384,80,17014,2,2,B|448:120|448:200|384:248,2,200
296,80,18800,1,0
296,168,19157,1,0
208,168,19514,2,0,B|88:168,2,100
208,256,20586,5,0
296,256,20943,2,0,B|384:256|384:96,1,200
296,104,22014,1,8
208,104,22372,1,8
120,104,22729,2,0,B|48:176|112:304,2,200
208,104,24514,1,0
208,192,24872,2,0,L|208:304|264:304,2,150
296,200,26300,6,0,B|384:200|392:96,1,150
296,104,27193,1,8
208,104,27550,1,8
120,104,27907,2,0,B|24:184|128:296,2,200
120,104,29514,1,0
208,104,29872,1,0
208,192,30229,2,0,B|208:312|352:312,2,200
296,192,32014,6,0,B|392:192|392:80,1,150
304,104,32907,1,0
216,104,33264,2,0,B|120:104|120:216,1,150
120,288,34157,1,0
208,288,34514,1,0
296,288,34872,2,2,B|408:288,2,100
296,200,35943,2,2,B|296:96,3,100
168,48,37550,6,0,B|56:48|64:192,2,200
168,136,39336,1,0
168,224,39693,2,0,B|168:320|288:296,2,150
256,224,41122,1,0
256,136,41479,2,0,B|256:80,1,50
344,88,42015,2,0,B|344:160,2,50
144,192,43265,5,0
144,192,43622,1,0
144,280,43979,2,2,B|248:280|264:192,2,150
144,192,45407,2,0,B|144:88,2,100
232,192,46479,1,0
232,192,46657,1,0
232,104,47015,2,0,B|344:104,3,100
120,192,48979,6,0,B|40:192|40:80,1,150
128,88,49872,2,2,B|232:88,3,100
256,192,51300,12,0,52550
312,176,52907,5,0
312,88,53265,2,0,B|312:32|224:32,2,100
312,176,54336,2,0,B|312:240|400:240,2,100
224,176,55407,1,0
136,176,55765,1,0
136,264,56122,2,0,B|136:336|264:336,1,150
256,192,57015,12,0,57907
248,248,58265,5,0
336,248,58622,2,8,B|336:144,1,100
248,152,59336,1,8
248,152,59693,2,0,B|248:264|152:264,1,150
80,264,60586,1,0
80,176,60943,1,0
168,176,61300,1,0
176,88,61657,1,0
264,88,62015,2,0,B|376:88,4,100
256,224,63979,5,0
256,224,64336,1,0
256,224,64693,2,0,B|256:344,2,100
256,88,65943,1,0
168,88,66300,2,0,B|96:88,3,50
120,176,67193,1,0
120,264,67550,1,0
208,264,67907,2,0,B|208:360|328:360,1,150
304,264,68800,1,0
304,176,69157,2,0,B|304:120,2,50
256,192,69693,12,0,71479
368,104,72372,5,4
280,104,72729,2,0,B|280:176|216:176,1,100
136,176,73443,1,0
48,176,73800,2,0,B|48:256|120:256,1,100,4|0
184,256,74515,1,0
272,256,74872,2,0,B|336:256,2,50
256,192,75407,12,4,78086
128,72,86300,6,0,B|40:120|112:208,1,150,0|4
104,288,87193,2,0,B|224:288,1,100
208,200,87907,1,0
208,200,88264,1,0
296,200,88622,1,0
296,200,88979,1,0
384,200,89336,2,0,B|464:200|464:88,1,150
376,96,90229,1,0
288,96,90586,2,0,B|176:96,3,100
104,200,92014,6,0,B|104:288|224:288,1,150
208,200,92907,1,8
296,200,93264,1,8
384,200,93622,2,2,B|384:104|272:104,3,150
200,104,95586,1,0
112,104,95943,2,0,B|56:136|56:200,1,100
64,272,96657,2,2,B|176:272,3,100
256,272,98086,6,0,B|336:272|336:144,1,150
248,168,98979,1,8
160,168,99336,2,0,B|48:168|48:64,2,150,8|0|0
160,80,100764,2,0,B|272:80|272:160,1,150
272,240,101657,1,8
272,328,102014,1,8
360,328,102372,2,0,B|424:240|344:136,1,200
256,144,103443,6,0,B|144:144,2,100
344,144,104514,1,0
344,232,104872,1,0
256,232,105229,1,0
168,232,105586,2,0,B|168:320|40:320,2,150
168,144,107014,1,0
168,56,107372,1,0
256,56,107729,1,0
256,144,108086,1,0
256,144,108443,2,0,B|376:144|376:232,1,150
280,224,109336,6,0,B|160:224,1,100
40,224,110229,1,0
40,88,110764,1,0
176,88,111300,1,0
176,176,111657,1,0
176,264,112014,2,2,B|232:264|232:176|304:176,2,150
88,264,113443,2,0,B|88:336,2,50
88,40,114693,5,0
176,40,115050,1,0
264,40,115407,2,2,B|328:40|328:128|400:128,2,150
264,176,117014,2,0,B|168:176|168:288,2,150
352,176,118443,1,0
352,88,118800,1,0
264,88,119157,2,0,B|144:88,2,100
264,224,120407,5,8
264,224,120586,1,8
176,224,120943,2,0,B|104:224|104:160,1,100
176,112,121657,2,0,B|264:112|264:160,2,100
88,104,122729,1,8
88,104,122907,1,8
256,192,123086,12,0,123979
448,104,124336,5,0
360,104,124693,1,0
360,192,125050,1,0
272,192,125407,2,2,B|272:312|176:312,1,150
112,304,126300,1,0
112,216,126657,1,0
112,216,126836,1,0
112,128,127193,2,0,B|0:128,2,100
112,128,128086,2,0,B|184:56|256:144,1,150
248,216,128979,1,0
248,216,129336,1,0
336,216,129693,6,0,B|432:216|432:56,1,200
344,72,130764,1,8
256,72,131122,1,8
120,72,131657,6,0,B|40:152|104:248|160:216,2,200
208,72,133443,1,0
208,72,133622,1,0
208,72,133800,2,0,B|208:176|312:176,1,150
384,176,134693,1,0
384,264,135050,1,0
296,264,135407,6,0,B|184:264,2,100
296,176,136479,1,0
296,176,136836,2,0,B|368:120|296:40,2,150
208,176,138264,1,0
120,176,138622,1,0
120,264,138979,2,0,B|192:312|264:256,1,150
352,264,139872,1,0
352,176,140229,6,0,B|352:80|448:80,1,150
440,168,141122,1,0
440,256,141479,1,2
352,256,141836,1,0
264,256,142193,2,2,B|192:256|192:176,3,100
192,64,143800,6,2,B|304:64,2,100
104,64,144872,1,0
104,152,145229,2,2,B|104:272,2,100
192,152,146300,1,0
192,152,146479,1,8
192,152,146657,1,8
256,192,146836,12,4,148264
