osu file format v14

[General]
AudioFilename: Mizuki Nana - Vitalization.mp3
AudioLeadIn: 2000
PreviewTime: 70605
Countdown: 0
SampleSet: Soft
StackLeniency: 0.7
Mode: 3
LetterboxInBreaks: 0
SpecialStyle: 0
WidescreenStoryboard: 1

[Editor]
DistanceSpacing: 1.11
BeatDivisor: 12
GridSize: 8
TimelineZoom: 2.499999

[Metadata]
Title:Vitalization
TitleUnicode:Vitalization
Artist:Nana Mizuki
ArtistUnicode:水樹奈々
Creator:Ichigaki
Version:4K NM
Source:戦姫絶唱シンフォギアG
Tags:Senki Zesshou Symphogear G -_[_S_o_r_a_]_- Kiviman [Shana Lesus] ichia7x Opening TV Size
BeatmapID:487352
BeatmapSetID:163215

[Difficulty]
HPDrainRate:7
CircleSize:4
OverallDifficulty:7
ApproachRate:9
SliderMultiplier:1.7
SliderTickRate:1

[Events]
//Background and Video events
Video,0,"feichang op.flv"
0,0,"bg1234.jpg",0,0
//Break Periods
//Storyboard Layer 0 (Background)
//Storyboard Layer 1 (Fail)
//Storyboard Layer 2 (Pass)
//Storyboard Layer 3 (Foreground)
//Storyboard Sound Samples

[TimingPoints]
27,315.789473684211,4,2,1,10,1,0
974,-100,4,2,1,30,0,0
1290,-100,4,2,1,40,0,0
70763,-100,4,2,1,40,0,1
80711,-100,4,2,1,40,0,0
80869,-100,4,2,1,40,0,1

[Colours]
Combo1 : 196,142,255
Combo2 : 0,104,244
Combo3 : 0,191,72
Combo4 : 255,138,32

[HitObjects]
448,192,184,128,0,1290:0:0:0:0:
64,192,1290,1,0,0:0:0:0:
192,192,1290,1,0,0:0:0:0:
448,192,1605,1,0,0:0:0:0:
320,192,1605,1,0,0:0:0:0:
192,192,1921,128,0,2237:0:0:0:0:
448,192,2237,128,0,2553:0:0:0:0:
64,192,2553,1,0,0:0:0:0:
192,192,2553,1,0,0:0:0:0:
192,192,2790,1,0,0:0:0:0:
320,192,2790,1,0,0:0:0:0:
320,192,3027,1,0,0:0:0:0:
448,192,3027,1,0,0:0:0:0:
64,192,3184,1,0,0:0:0:0:
320,192,3342,1,0,0:0:0:0:
64,192,3500,128,0,3816:0:0:0:0:
192,192,3816,128,0,5079:0:0:0:0:
448,192,3816,1,0,0:0:0:0:
64,192,5079,128,0,6342:0:0:0:0:
448,192,6342,128,0,7605:0:0:0:0:
192,192,7605,128,0,8237:0:0:0:0:
320,192,8237,128,0,8869:0:0:0:0:
448,192,8869,1,0,0:0:0:0:
64,192,8869,128,0,9500:0:0:0:0:
448,192,9500,128,0,9816:0:0:0:0:
192,192,9816,128,0,10132:0:0:0:0:
320,192,10132,128,0,11079:0:0:0:0:
64,192,11079,1,0,0:0:0:0:
448,192,11079,1,0,0:0:0:0:
320,192,11395,128,0,11711:0:0:0:0:
64,192,11395,1,0,0:0:0:0:
192,192,11711,128,0,12027:0:0:0:0:
64,192,12027,128,0,12658:0:0:0:0:
448,192,12658,128,0,12974:0:0:0:0:
192,192,12658,1,0,0:0:0:0:
320,192,12974,128,0,13290:0:0:0:0:
192,192,13290,128,0,13605:0:0:0:0:
64,192,13605,128,0,13921:0:0:0:0:
448,192,13605,1,0,0:0:0:0:
320,192,13921,1,0,0:0:0:0:
448,192,13921,1,0,0:0:0:0:
192,192,14079,1,0,0:0:0:0:
64,192,14395,1,0,0:0:0:0:
192,192,14553,1,0,0:0:0:0:
320,192,14869,1,0,0:0:0:0:
192,192,15027,1,0,0:0:0:0:
448,192,15342,1,0,0:0:0:0:
320,192,15500,1,0,0:0:0:0:
64,192,15816,1,0,0:0:0:0:
192,192,15816,1,0,0:0:0:0:
320,192,16132,1,0,0:0:0:0:
448,192,16132,1,0,0:0:0:0:
192,192,16448,1,0,0:0:0:0:
320,192,16605,1,0,0:0:0:0:
64,192,16921,1,0,0:0:0:0:
192,192,17079,1,0,0:0:0:0:
320,192,17395,1,0,0:0:0:0:
192,192,17553,1,0,0:0:0:0:
448,192,17869,1,0,0:0:0:0:
320,192,18027,1,0,0:0:0:0:
448,192,18342,1,0,0:0:0:0:
192,192,18342,1,0,0:0:0:0:
320,192,18658,1,0,0:0:0:0:
64,192,18658,1,0,0:0:0:0:
448,192,18974,128,0,19290:0:0:0:0:
64,192,18974,1,0,0:0:0:0:
192,192,19290,128,0,19605:0:0:0:0:
64,192,19605,128,0,19921:0:0:0:0:
320,192,19921,128,0,20237:0:0:0:0:
64,192,20237,128,0,20869:0:0:0:0:
448,192,20237,1,0,0:0:0:0:
448,192,20869,128,0,21500:0:0:0:0:
192,192,21500,1,0,0:0:0:0:
64,192,21500,1,0,0:0:0:0:
64,192,21816,1,0,0:0:0:0:
192,192,21974,1,0,0:0:0:0:
448,192,22132,1,0,0:0:0:0:
320,192,22290,1,0,0:0:0:0:
192,192,22448,1,0,0:0:0:0:
320,192,22605,1,0,0:0:0:0:
64,192,22921,1,0,0:0:0:0:
192,192,23079,1,0,0:0:0:0:
320,192,23237,1,0,0:0:0:0:
448,192,23395,1,0,0:0:0:0:
192,192,23553,1,0,0:0:0:0:
320,192,23711,1,0,0:0:0:0:
192,192,23869,1,0,0:0:0:0:
64,192,24027,1,0,0:0:0:0:
448,192,24027,1,0,0:0:0:0:
320,192,24342,1,0,0:0:0:0:
448,192,24500,1,0,0:0:0:0:
64,192,24658,1,0,0:0:0:0:
192,192,24816,1,0,0:0:0:0:
320,192,24974,1,0,0:0:0:0:
192,192,25132,1,0,0:0:0:0:
64,192,25448,1,0,0:0:0:0:
192,192,25605,1,0,0:0:0:0:
448,192,25763,1,0,0:0:0:0:
320,192,25921,1,0,0:0:0:0:
64,192,26079,1,0,0:0:0:0:
192,192,26237,1,0,0:0:0:0:
448,192,26395,1,0,0:0:0:0:
320,192,26553,1,0,0:0:0:0:
64,192,26553,1,0,0:0:0:0:
192,192,26869,1,0,0:0:0:0:
320,192,27027,1,0,0:0:0:0:
448,192,27184,1,0,0:0:0:0:
320,192,27342,1,0,0:0:0:0:
192,192,27500,1,0,0:0:0:0:
320,192,27658,1,0,0:0:0:0:
64,192,27974,1,0,0:0:0:0:
320,192,28132,1,0,0:0:0:0:
448,192,28290,1,0,0:0:0:0:
192,192,28448,1,0,0:0:0:0:
64,192,28605,1,0,0:0:0:0:
192,192,28763,1,0,0:0:0:0:
320,192,28921,1,0,0:0:0:0:
448,192,29079,1,0,0:0:0:0:
192,192,29395,1,0,0:0:0:0:
320,192,29395,1,0,0:0:0:0:
64,192,29711,1,0,0:0:0:0:
192,192,30027,1,0,0:0:0:0:
320,192,30027,1,0,0:0:0:0:
448,192,30342,1,0,0:0:0:0:
64,192,30342,1,0,0:0:0:0:
192,192,30500,1,0,0:0:0:0:
320,192,30658,1,0,0:0:0:0:
448,192,30816,1,0,0:0:0:0:
192,192,30974,1,0,0:0:0:0:
64,192,31290,1,0,0:0:0:0:
320,192,31448,1,0,0:0:0:0:
448,192,31921,1,0,0:0:0:0:
320,192,32237,1,0,0:0:0:0:
192,192,32553,1,0,0:0:0:0:
320,192,32869,1,0,0:0:0:0:
192,192,33184,1,0,0:0:0:0:
64,192,33500,1,0,0:0:0:0:
192,192,33816,1,0,0:0:0:0:
320,192,34132,1,0,0:0:0:0:
448,192,34132,1,0,0:0:0:0:
192,192,34448,1,0,0:0:0:0:
320,192,34763,1,0,0:0:0:0:
448,192,35079,1,0,0:0:0:0:
320,192,35395,1,0,0:0:0:0:
192,192,35711,1,0,0:0:0:0:
64,192,36027,1,0,0:0:0:0:
192,192,36342,1,0,0:0:0:0:
448,192,36658,1,0,0:0:0:0:
64,192,36658,1,0,0:0:0:0:
192,192,36974,1,0,0:0:0:0:
64,192,37290,1,0,0:0:0:0:
448,192,37605,1,0,0:0:0:0:
320,192,37921,1,0,0:0:0:0:
64,192,38237,1,0,0:0:0:0:
192,192,38553,1,0,0:0:0:0:
448,192,38869,1,0,0:0:0:0:
320,192,39184,1,0,0:0:0:0:
64,192,39500,1,0,0:0:0:0:
64,192,39816,1,0,0:0:0:0:
320,192,40132,1,0,0:0:0:0:
320,192,40448,1,0,0:0:0:0:
192,192,40763,1,0,0:0:0:0:
192,192,41079,1,0,0:0:0:0:
448,192,41395,1,0,0:0:0:0:
448,192,41711,1,0,0:0:0:0:
64,192,42027,1,0,0:0:0:0:
448,192,42342,1,0,0:0:0:0:
64,192,42658,1,0,0:0:0:0:
448,192,42974,1,0,0:0:0:0:
192,192,43132,1,0,0:0:0:0:
64,192,43290,1,0,0:0:0:0:
320,192,43448,1,0,0:0:0:0:
448,192,43605,1,0,0:0:0:0:
320,192,43763,1,0,0:0:0:0:
192,192,43921,1,0,0:0:0:0:
192,192,44237,1,0,0:0:0:0:
64,192,44237,1,0,0:0:0:0:
320,192,44395,1,0,0:0:0:0:
448,192,44711,1,0,0:0:0:0:
320,192,44711,1,0,0:0:0:0:
192,192,44869,1,0,0:0:0:0:
64,192,45184,1,0,0:0:0:0:
448,192,45184,1,0,0:0:0:0:
192,192,45342,1,0,0:0:0:0:
448,192,45658,1,0,0:0:0:0:
64,192,45658,1,0,0:0:0:0:
320,192,45816,1,0,0:0:0:0:
192,192,46132,1,0,0:0:0:0:
192,192,46369,1,0,0:0:0:0:
320,192,46605,1,0,0:0:0:0:
448,192,46921,1,0,0:0:0:0:
192,192,47079,128,0,47395:0:0:0:0:
448,192,47395,1,0,0:0:0:0:
64,192,47395,1,0,0:0:0:0:
320,192,47711,1,0,0:0:0:0:
64,192,48027,1,0,0:0:0:0:
320,192,48342,1,0,0:0:0:0:
192,192,48658,1,0,0:0:0:0:
448,192,48974,1,0,0:0:0:0:
64,192,49290,1,0,0:0:0:0:
192,192,49290,1,0,0:0:0:0:
320,192,49605,1,0,0:0:0:0:
64,192,49921,1,0,0:0:0:0:
192,192,50237,1,0,0:0:0:0:
448,192,50553,1,0,0:0:0:0:
64,192,50869,1,0,0:0:0:0:
192,192,51184,1,0,0:0:0:0:
320,192,51500,1,0,0:0:0:0:
448,192,51658,128,0,52132:0:0:0:0:
64,192,51658,1,0,0:0:0:0:
320,192,52132,128,0,52448:0:0:0:0:
64,192,52448,1,0,0:0:0:0:
320,192,52763,1,0,0:0:0:0:
448,192,52921,1,0,0:0:0:0:
64,192,52921,128,0,53237:0:0:0:0:
192,192,53237,1,0,0:0:0:0:
320,192,53395,128,0,53711:0:0:0:0:
64,192,53711,1,0,0:0:0:0:
448,192,54027,1,0,0:0:0:0:
192,192,54184,1,0,0:0:0:0:
64,192,54500,1,0,0:0:0:0:
448,192,54658,1,0,0:0:0:0:
64,192,54974,1,0,0:0:0:0:
320,192,55132,1,0,0:0:0:0:
448,192,55448,1,0,0:0:0:0:
64,192,55605,1,0,0:0:0:0:
448,192,55816,1,0,0:0:0:0:
64,192,56027,1,0,0:0:0:0:
192,192,56237,1,0,0:0:0:0:
192,192,56448,1,0,0:0:0:0:
320,192,56658,1,0,0:0:0:0:
448,192,56869,1,0,0:0:0:0:
64,192,56869,128,0,57448:0:0:0:0:
320,192,57448,128,0,58448:0:0:0:0:
64,192,58448,1,0,0:0:0:0:
320,192,58763,1,0,0:0:0:0:
448,192,58763,1,0,0:0:0:0:
64,192,59395,1,0,0:0:0:0:
192,192,59711,128,0,60027:0:0:0:0:
448,192,60027,128,0,60658:0:0:0:0:
320,192,60658,1,0,0:0:0:0:
64,192,60895,1,0,0:0:0:0:
448,192,61132,1,0,0:0:0:0:
192,192,61290,128,0,61921:0:0:0:0:
448,192,61921,128,0,62553:0:0:0:0:
64,192,62553,1,0,0:0:0:0:
64,192,63500,1,0,0:0:0:0:
448,192,63816,1,0,0:0:0:0:
192,192,64448,1,0,0:0:0:0:
192,192,64921,1,0,0:0:0:0:
448,192,65079,128,0,65711:0:0:0:0:
64,192,65711,1,0,0:0:0:0:
192,192,65711,1,0,0:0:0:0:
320,192,65948,1,0,0:0:0:0:
192,192,66184,1,0,0:0:0:0:
320,192,66342,128,0,66658:0:0:0:0:
448,192,66342,1,0,0:0:0:0:
64,192,66658,1,0,0:0:0:0:
192,192,66816,1,0,0:0:0:0:
320,192,66974,1,0,0:0:0:0:
192,192,67290,1,0,0:0:0:0:
448,192,67605,1,0,0:0:0:0:
64,192,67605,1,0,0:0:0:0:
192,192,67921,1,0,0:0:0:0:
448,192,68079,1,0,0:0:0:0:
320,192,68079,1,0,0:0:0:0:
192,192,68395,1,0,0:0:0:0:
448,192,68553,1,0,0:0:0:0:
320,192,68711,1,0,0:0:0:0:
64,192,68869,1,0,0:0:0:0:
192,192,69027,1,0,0:0:0:0:
320,192,69184,1,0,0:0:0:0:
448,192,69342,128,0,69658:0:0:0:0:
64,192,69658,1,0,0:0:0:0:
192,192,69816,128,0,70132:0:0:0:0:
320,192,70132,1,0,0:0:0:0:
448,192,70290,128,0,70763:0:0:0:0:
64,192,70763,1,0,0:0:0:0:
192,192,70763,1,0,0:0:0:0:
320,192,71079,1,0,0:0:0:0:
448,192,71079,1,0,0:0:0:0:
64,192,71395,1,0,0:0:0:0:
192,192,71711,1,0,0:0:0:0:
320,192,71711,1,0,0:0:0:0:
448,192,72027,1,0,0:0:0:0:
64,192,72342,1,0,0:0:0:0:
320,192,72342,1,0,0:0:0:0:
448,192,72500,1,0,0:0:0:0:
192,192,72658,1,0,0:0:0:0:
64,192,72974,1,0,0:0:0:0:
448,192,72974,1,0,0:0:0:0:
320,192,73290,1,0,0:0:0:0:
64,192,73605,1,0,0:0:0:0:
192,192,73605,1,0,0:0:0:0:
448,192,73921,1,0,0:0:0:0:
320,192,74237,1,0,0:0:0:0:
192,192,74237,1,0,0:0:0:0:
448,192,74553,1,0,0:0:0:0:
64,192,74869,1,0,0:0:0:0:
192,192,74869,1,0,0:0:0:0:
320,192,75184,1,0,0:0:0:0:
192,192,75500,1,0,0:0:0:0:
448,192,75500,1,0,0:0:0:0:
320,192,75658,1,0,0:0:0:0:
64,192,75816,1,0,0:0:0:0:
192,192,76132,1,0,0:0:0:0:
448,192,76132,1,0,0:0:0:0:
64,192,76290,1,0,0:0:0:0:
320,192,76448,1,0,0:0:0:0:
64,192,76763,1,0,0:0:0:0:
192,192,76763,1,0,0:0:0:0:
448,192,77079,1,0,0:0:0:0:
192,192,77395,1,0,0:0:0:0:
320,192,77395,1,0,0:0:0:0:
320,192,77711,1,0,0:0:0:0:
192,192,77869,1,0,0:0:0:0:
64,192,78027,1,0,0:0:0:0:
448,192,78027,128,0,78342:0:0:0:0:
192,192,78342,1,0,0:0:0:0:
320,192,78658,1,0,0:0:0:0:
64,192,78974,1,0,0:0:0:0:
192,192,79211,1,0,0:0:0:0:
320,192,79448,1,0,0:0:0:0:
448,192,79605,1,0,0:0:0:0:
64,192,79605,1,0,0:0:0:0:
320,192,79763,1,0,0:0:0:0:
192,192,79921,1,0,0:0:0:0:
448,192,79921,1,0,0:0:0:0:
64,192,80079,1,0,0:0:0:0:
320,192,80237,1,0,0:0:0:0:
192,192,80395,1,0,0:0:0:0:
448,192,80553,1,0,0:0:0:0:
320,192,80711,1,0,0:0:0:0:
64,192,80869,1,0,0:0:0:0:
448,192,80869,1,0,0:0:0:0:
192,192,81184,1,0,0:0:0:0:
64,192,81184,1,0,0:0:0:0:
320,192,81500,1,0,0:0:0:0:
448,192,81816,1,0,0:0:0:0:
192,192,81816,1,0,0:0:0:0:
64,192,82132,1,0,0:0:0:0:
448,192,82448,1,0,0:0:0:0:
320,192,82448,1,0,0:0:0:0:
448,192,82763,1,0,0:0:0:0:
64,192,83079,1,0,0:0:0:0:
320,192,83079,1,0,0:0:0:0:
320,192,83395,1,0,0:0:0:0:
448,192,83711,1,0,0:0:0:0:
64,192,83711,1,0,0:0:0:0:
192,192,84027,1,0,0:0:0:0:
64,192,84342,1,0,0:0:0:0:
448,192,84342,1,0,0:0:0:0:
320,192,84658,1,0,0:0:0:0:
192,192,84974,1,0,0:0:0:0:
448,192,84974,1,0,0:0:0:0:
64,192,85290,1,0,0:0:0:0:
192,192,85605,1,0,0:0:0:0:
448,192,85605,1,0,0:0:0:0:
320,192,85921,1,0,0:0:0:0:
64,192,86237,1,0,0:0:0:0:
320,192,86237,1,0,0:0:0:0:
448,192,86553,1,0,0:0:0:0:
320,192,86869,1,0,0:0:0:0:
192,192,86869,1,0,0:0:0:0:
64,192,87184,1,0,0:0:0:0:
192,192,87342,1,0,0:0:0:0:
448,192,87500,1,0,0:0:0:0:
320,192,87658,1,0,0:0:0:0:
64,192,87816,128,0,88448:0:0:0:0:
448,192,88448,1,0,0:0:0:0:
64,192,88763,1,0,0:0:0:0:
448,192,88921,1,0,0:0:0:0:
320,192,89237,1,0,0:0:0:0:
64,192,89711,1,0,0:0:0:0:
192,192,89869,1,0,0:0:0:0:
320,192,90027,1,0,0:0:0:0:
448,192,90184,1,0,0:0:0:0:
192,192,90342,1,0,0:0:0:0:
448,192,90500,1,0,0:0:0:0:
192,192,90658,1,0,0:0:0:0:
64,192,90816,1,0,0:0:0:0:
320,192,90974,1,0,0:0:0:0:
448,192,90974,128,0,92237:0:0:0:0:
192,192,92237,1,0,0:0:0:0:
64,192,92237,128,0,92869:0:0:0:0:
448,192,92869,1,0,0:0:0:0:
192,192,93184,1,0,0:0:0:0:
64,192,93500,1,0,0:0:0:0:
448,192,93658,1,0,0:0:0:0:
192,192,93974,1,0,0:0:0:0:
320,192,94132,1,0,0:0:0:0:
448,192,94448,1,0,0:0:0:0:
64,192,94605,1,0,0:0:0:0:
320,192,94921,1,0,0:0:0:0:
192,192,95079,1,0,0:0:0:0:
64,192,95395,1,0,0:0:0:0:
320,192,95553,1,0,0:0:0:0:
64,192,95711,1,0,0:0:0:0:
320,192,95869,1,0,0:0:0:0:
