osu file format v14

[General]
AudioFilename: Mizuki Nana - Vitalization.mp3
AudioLeadIn: 2000
PreviewTime: 70605
Countdown: 0
SampleSet: Soft
StackLeniency: 0.7
Mode: 3
LetterboxInBreaks: 0
SpecialStyle: 0
WidescreenStoryboard: 1

[Editor]
DistanceSpacing: 1.11
BeatDivisor: 4
GridSize: 8
TimelineZoom: 2.7

[Metadata]
Title:Vitalization
TitleUnicode:Vitalization
Artist:Nana Mizuki
ArtistUnicode:水樹奈々
Creator:Ichigaki
Version:4K MX
Source:戦姫絶唱シンフォギアG
Tags:Senki Zesshou Symphogear G -_[_S_o_r_a_]_- Kiviman [Shana Lesus] ichia7x Opening TV Size
BeatmapID:397744
BeatmapSetID:163215

[Difficulty]
HPDrainRate:8
CircleSize:4
OverallDifficulty:8
ApproachRate:9
SliderMultiplier:1.7
SliderTickRate:1

[Events]
//Background and Video events
0,0,"bg1234.jpg",0,0
Video,0,"feichang op.flv"
//Break Periods
//Storyboard Layer 0 (Background)
//Storyboard Layer 1 (Fail)
//Storyboard Layer 2 (Pass)
//Storyboard Layer 3 (Foreground)
//Storyboard Sound Samples

[TimingPoints]
23,315.789473684211,4,2,1,10,1,0
974,-100,4,2,1,30,0,0
1290,-100,4,2,1,40,0,0
70763,-100,4,2,1,40,0,1
80711,-100,4,2,1,40,0,0
80869,-100,4,2,1,40,0,1

[Colours]
Combo1 : 196,142,255
Combo2 : 0,104,244
Combo3 : 0,191,72
Combo4 : 255,138,32

[HitObjects]
448,192,141,128,0,970:0:0:0:0:
64,192,141,128,0,970:0:0:0:0:
320,192,970,1,4,0:0:0:0:
192,192,1049,1,4,0:0:0:0:
320,192,1128,1,4,0:0:0:0:
192,192,1207,1,4,0:0:0:0:
320,192,1286,1,4,0:0:0:0:
64,192,1286,1,0,0:0:0:0:
448,192,1286,1,0,0:0:0:0:
192,192,1444,1,0,0:0:0:0:
448,192,1444,1,0,0:0:0:0:
64,192,1601,1,0,0:0:0:0:
320,192,1601,1,0,0:0:0:0:
192,192,1759,1,0,0:0:0:0:
448,192,1759,1,4,0:0:0:0:
64,192,1917,128,0,2233:0:0:0:0:
192,192,1917,128,0,2233:0:0:0:0:
320,192,2075,1,0,0:0:0:0:
448,192,2075,1,0,0:0:0:0:
320,192,2233,1,4,0:0:0:0:
448,192,2233,1,0,0:0:0:0:
192,192,2312,1,4,0:0:0:0:
64,192,2312,1,0,0:0:0:0:
320,192,2391,1,4,0:0:0:0:
448,192,2391,1,0,0:0:0:0:
192,192,2470,1,4,0:0:0:0:
64,192,2470,1,0,0:0:0:0:
448,192,2549,128,0,3180:0:0:0:0:
320,192,2549,1,4,0:0:0:0:
64,192,2786,1,4,0:0:0:0:
192,192,2786,1,0,0:0:0:0:
320,192,2865,1,0,0:0:0:0:
64,192,3023,1,4,0:0:0:0:
192,192,3023,1,0,0:0:0:0:
320,192,3101,1,0,0:0:0:0:
64,192,3180,1,0,0:0:0:0:
320,192,3259,1,0,0:0:0:0:
64,192,3338,1,0,0:0:0:0:
320,192,3417,1,0,0:0:0:0:
448,192,3496,128,0,3812:0:0:0:0:
64,192,3496,1,0,0:0:0:0:
192,192,3812,128,0,4444:0:0:0:0:
320,192,3812,128,0,5075:0:0:0:0:
64,192,3812,1,4,0:0:0:0:
448,192,4444,128,0,5075:0:0:0:0:
192,192,5075,128,0,5707:0:0:0:0:
64,192,5075,128,0,6338:0:0:0:0:
320,192,5707,128,0,6338:0:0:0:0:
192,192,6338,128,0,6970:0:0:0:0:
448,192,6338,128,0,7601:0:0:0:0:
64,192,6970,128,0,7601:0:0:0:0:
192,192,7601,128,0,8233:0:0:0:0:
320,192,7601,128,0,8865:0:0:0:0:
64,192,8233,128,0,8865:0:0:0:0:
192,192,8865,128,0,10128:0:0:0:0:
448,192,8865,128,0,9496:0:0:0:0:
64,192,9496,128,0,9812:0:0:0:0:
320,192,9812,128,0,10128:0:0:0:0:
448,192,10128,128,0,11075:0:0:0:0:
64,192,10128,128,0,11075:0:0:0:0:
320,192,11075,128,0,12023:0:0:0:0:
192,192,11075,128,0,11391:0:0:0:0:
448,192,11391,128,0,11707:0:0:0:0:
64,192,11707,128,0,12023:0:0:0:0:
448,192,12023,128,0,12654:0:0:0:0:
192,192,12654,128,0,13286:0:0:0:0:
64,192,12654,1,0,0:0:0:0:
320,192,12970,128,0,13601:0:0:0:0:
448,192,13286,128,0,13917:0:0:0:0:
192,192,13601,1,0,0:0:0:0:
64,192,13601,1,0,0:0:0:0:
192,192,13917,128,0,14865:0:0:0:0:
320,192,13917,1,4,0:0:0:0:
64,192,13917,1,0,0:0:0:0:
320,192,14075,1,4,0:0:0:0:
64,192,14075,1,0,0:0:0:0:
448,192,14391,1,0,0:0:0:0:
320,192,14391,1,4,0:0:0:0:
320,192,14549,1,4,0:0:0:0:
448,192,14549,1,0,0:0:0:0:
448,192,14865,128,0,16444:0:0:0:0:
64,192,14865,1,0,0:0:0:0:
320,192,14865,1,4,0:0:0:0:
64,192,15023,1,0,0:0:0:0:
320,192,15023,1,4,0:0:0:0:
192,192,15338,1,0,0:0:0:0:
320,192,15338,1,4,0:0:0:0:
192,192,15496,1,0,0:0:0:0:
320,192,15496,1,4,0:0:0:0:
64,192,15812,1,4,0:0:0:0:
320,192,15812,1,0,0:0:0:0:
320,192,16128,1,0,0:0:0:0:
64,192,16128,1,4,0:0:0:0:
192,192,16444,128,0,17391:0:0:0:0:
320,192,16444,1,0,0:0:0:0:
64,192,16444,1,4,0:0:0:0:
320,192,16601,1,0,0:0:0:0:
64,192,16601,1,4,0:0:0:0:
448,192,16917,1,0,0:0:0:0:
64,192,16917,1,4,0:0:0:0:
448,192,17075,1,0,0:0:0:0:
64,192,17075,1,4,0:0:0:0:
448,192,17391,1,0,0:0:0:0:
64,192,17391,128,0,18338:0:0:0:0:
320,192,17391,1,4,0:0:0:0:
448,192,17549,1,0,0:0:0:0:
320,192,17549,1,4,0:0:0:0:
448,192,17865,1,0,0:0:0:0:
192,192,17865,1,4,0:0:0:0:
448,192,18023,1,0,0:0:0:0:
192,192,18023,1,4,0:0:0:0:
448,192,18338,128,0,18654:0:0:0:0:
192,192,18338,1,0,0:0:0:0:
320,192,18338,1,4,0:0:0:0:
64,192,18654,128,0,18970:0:0:0:0:
320,192,18654,1,4,0:0:0:0:
192,192,18654,1,0,0:0:0:0:
192,192,18970,1,4,0:0:0:0:
320,192,18970,1,0,0:0:0:0:
448,192,18970,1,0,0:0:0:0:
320,192,19128,1,4,0:0:0:0:
64,192,19128,1,0,0:0:0:0:
448,192,19286,1,0,0:0:0:0:
192,192,19286,1,4,0:0:0:0:
448,192,19444,1,4,0:0:0:0:
64,192,19444,1,0,0:0:0:0:
192,192,19601,1,0,0:0:0:0:
320,192,19601,1,4,0:0:0:0:
64,192,19759,1,0,0:0:0:0:
320,192,19759,1,4,0:0:0:0:
192,192,19917,1,0,0:0:0:0:
448,192,19917,1,4,0:0:0:0:
320,192,20075,1,4,0:0:0:0:
64,192,20075,1,0,0:0:0:0:
64,192,20233,1,4,0:0:0:0:
448,192,20233,128,0,20391:0:0:0:0:
192,192,20312,1,0,0:0:0:0:
320,192,20391,1,0,0:0:0:0:
448,192,20470,1,0,0:0:0:0:
64,192,20549,1,0,0:0:0:0:
192,192,20628,1,0,0:0:0:0:
320,192,20707,1,0,0:0:0:0:
448,192,20786,1,0,0:0:0:0:
64,192,20865,128,4,21023:0:0:0:0:
320,192,20865,1,0,0:0:0:0:
192,192,20944,1,0,0:0:0:0:
448,192,21023,1,0,0:0:0:0:
320,192,21101,1,0,0:0:0:0:
192,192,21180,1,0,0:0:0:0:
320,192,21259,1,0,0:0:0:0:
64,192,21338,1,0,0:0:0:0:
192,192,21417,1,0,0:0:0:0:
448,192,21496,128,0,21812:0:0:0:0:
64,192,21496,1,0,0:0:0:0:
320,192,21496,1,4,0:0:0:0:
192,192,21812,128,0,21970:0:0:0:0:
64,192,21812,1,4,0:0:0:0:
64,192,21970,128,0,22128:0:0:0:0:
320,192,21970,1,4,0:0:0:0:
192,192,22128,128,0,22286:0:0:0:0:
448,192,22128,1,4,0:0:0:0:
320,192,22286,128,0,22444:0:0:0:0:
64,192,22286,1,4,0:0:0:0:
448,192,22444,128,0,22601:0:0:0:0:
192,192,22444,1,4,0:0:0:0:
64,192,22601,1,4,0:0:0:0:
320,192,22601,1,0,0:0:0:0:
448,192,22917,128,0,23075:0:0:0:0:
64,192,22917,1,4,0:0:0:0:
192,192,22996,1,4,0:0:0:0:
320,192,23075,128,0,23233:0:0:0:0:
64,192,23075,1,4,0:0:0:0:
192,192,23233,128,0,23391:0:0:0:0:
448,192,23233,1,4,0:0:0:0:
320,192,23391,128,0,23549:0:0:0:0:
64,192,23391,1,4,0:0:0:0:
448,192,23549,128,0,23707:0:0:0:0:
192,192,23549,1,4,0:0:0:0:
320,192,23707,128,0,23865:0:0:0:0:
64,192,23707,1,4,0:0:0:0:
192,192,23865,128,0,24023:0:0:0:0:
448,192,23865,1,4,0:0:0:0:
64,192,24023,1,0,0:0:0:0:
320,192,24023,128,0,24338:0:0:0:0:
448,192,24023,1,4,0:0:0:0:
192,192,24338,128,0,24496:0:0:0:0:
448,192,24338,1,4,0:0:0:0:
64,192,24338,1,0,0:0:0:0:
64,192,24496,128,0,24654:0:0:0:0:
320,192,24496,1,4,0:0:0:0:
192,192,24654,128,0,24812:0:0:0:0:
448,192,24654,1,4,0:0:0:0:
320,192,24812,128,0,24970:0:0:0:0:
64,192,24812,1,4,0:0:0:0:
448,192,24970,128,0,25128:0:0:0:0:
192,192,24970,1,4,0:0:0:0:
64,192,25128,1,4,0:0:0:0:
320,192,25128,1,0,0:0:0:0:
192,192,25444,128,0,25601:0:0:0:0:
448,192,25444,1,4,0:0:0:0:
320,192,25523,1,4,0:0:0:0:
64,192,25601,128,0,25759:0:0:0:0:
448,192,25601,1,4,0:0:0:0:
192,192,25759,128,0,25917:0:0:0:0:
448,192,25759,1,4,0:0:0:0:
320,192,25917,128,0,26075:0:0:0:0:
64,192,25917,1,4,0:0:0:0:
448,192,26075,128,0,26233:0:0:0:0:
192,192,26075,1,4,0:0:0:0:
320,192,26233,128,0,26391:0:0:0:0:
64,192,26233,1,4,0:0:0:0:
192,192,26391,128,0,26549:0:0:0:0:
448,192,26391,1,4,0:0:0:0:
64,192,26549,128,0,26865:0:0:0:0:
320,192,26549,1,0,0:0:0:0:
448,192,26549,1,4,0:0:0:0:
192,192,26865,128,0,27023:0:0:0:0:
320,192,26865,1,4,0:0:0:0:
448,192,26865,1,0,0:0:0:0:
320,192,27023,128,0,27180:0:0:0:0:
64,192,27023,1,4,0:0:0:0:
448,192,27180,128,0,27338:0:0:0:0:
192,192,27180,1,4,0:0:0:0:
320,192,27338,128,0,27496:0:0:0:0:
64,192,27338,1,4,0:0:0:0:
192,192,27496,128,0,27654:0:0:0:0:
448,192,27496,1,4,0:0:0:0:
320,192,27654,1,4,0:0:0:0:
64,192,27654,1,0,0:0:0:0:
192,192,27970,128,0,28128:0:0:0:0:
448,192,27970,1,4,0:0:0:0:
320,192,28049,1,4,0:0:0:0:
448,192,28128,1,4,0:0:0:0:
64,192,28128,128,0,28286:0:0:0:0:
192,192,28286,128,0,28444:0:0:0:0:
448,192,28286,1,4,0:0:0:0:
64,192,28444,1,4,0:0:0:0:
320,192,28444,128,0,28601:0:0:0:0:
448,192,28601,128,0,28759:0:0:0:0:
192,192,28601,1,4,0:0:0:0:
320,192,28759,128,0,28917:0:0:0:0:
64,192,28759,1,4,0:0:0:0:
192,192,28917,128,0,29075:0:0:0:0:
448,192,28917,1,4,0:0:0:0:
320,192,29075,128,0,29391:0:0:0:0:
64,192,29075,1,0,0:0:0:0:
448,192,29075,1,4,0:0:0:0:
64,192,29391,1,0,0:0:0:0:
448,192,29391,1,4,0:0:0:0:
192,192,29391,1,0,0:0:0:0:
320,192,29628,1,0,0:0:0:0:
448,192,29707,1,4,0:0:0:0:
192,192,29707,128,0,30023:0:0:0:0:
64,192,29707,1,0,0:0:0:0:
448,192,30023,1,4,0:0:0:0:
64,192,30023,1,0,0:0:0:0:
320,192,30023,1,0,0:0:0:0:
448,192,30338,128,0,30970:0:0:0:0:
64,192,30338,1,4,0:0:0:0:
320,192,30338,1,0,0:0:0:0:
320,192,30496,1,0,0:0:0:0:
192,192,30496,1,4,0:0:0:0:
64,192,30654,1,0,0:0:0:0:
192,192,30654,1,4,0:0:0:0:
64,192,30812,1,0,0:0:0:0:
320,192,30812,1,4,0:0:0:0:
64,192,30970,128,0,31286:0:0:0:0:
320,192,30970,1,4,0:0:0:0:
192,192,31128,1,4,0:0:0:0:
448,192,31286,1,0,0:0:0:0:
320,192,31286,1,4,0:0:0:0:
320,192,31444,128,0,31917:0:0:0:0:
448,192,31444,1,4,0:0:0:0:
64,192,31444,128,0,31601:0:0:0:0:
64,192,31917,128,4,32075:0:0:0:0:
448,192,31917,1,0,0:0:0:0:
192,192,32075,128,4,32233:0:0:0:0:
320,192,32233,128,4,32391:0:0:0:0:
448,192,32233,1,0,0:0:0:0:
192,192,32391,128,4,32549:0:0:0:0:
320,192,32549,128,4,32707:0:0:0:0:
64,192,32549,1,0,0:0:0:0:
448,192,32707,128,4,32865:0:0:0:0:
192,192,32865,128,4,33023:0:0:0:0:
64,192,32865,1,0,0:0:0:0:
320,192,33023,128,4,33180:0:0:0:0:
64,192,33180,1,0,0:0:0:0:
448,192,33180,128,4,33338:0:0:0:0:
192,192,33338,128,4,33496:0:0:0:0:
320,192,33496,1,0,0:0:0:0:
64,192,33496,128,4,33654:0:0:0:0:
192,192,33654,128,4,33812:0:0:0:0:
448,192,33812,1,0,0:0:0:0:
320,192,33812,128,4,33970:0:0:0:0:
192,192,33970,128,4,34128:0:0:0:0:
448,192,34128,128,4,34286:0:0:0:0:
64,192,34128,1,0,0:0:0:0:
320,192,34128,1,0,0:0:0:0:
320,192,34286,128,4,34444:0:0:0:0:
448,192,34444,1,0,0:0:0:0:
64,192,34444,128,4,34601:0:0:0:0:
192,192,34601,128,4,34759:0:0:0:0:
448,192,34759,1,0,0:0:0:0:
320,192,34759,128,4,34917:0:0:0:0:
192,192,34917,128,4,35075:0:0:0:0:
64,192,35075,128,4,35233:0:0:0:0:
448,192,35075,1,0,0:0:0:0:
320,192,35075,1,0,0:0:0:0:
192,192,35233,128,4,35391:0:0:0:0:
64,192,35391,1,0,0:0:0:0:
448,192,35391,128,4,35549:0:0:0:0:
192,192,35549,128,4,35707:0:0:0:0:
320,192,35707,1,0,0:0:0:0:
64,192,35707,128,4,35865:0:0:0:0:
192,192,35865,128,4,36023:0:0:0:0:
448,192,36023,1,0,0:0:0:0:
64,192,36023,128,4,36180:0:0:0:0:
320,192,36180,128,4,36338:0:0:0:0:
448,192,36338,1,0,0:0:0:0:
64,192,36338,128,4,36496:0:0:0:0:
192,192,36496,128,4,36654:0:0:0:0:
64,192,36654,1,0,0:0:0:0:
320,192,36654,1,0,0:0:0:0:
448,192,36654,1,8,0:0:0:0:
448,192,36970,1,0,0:0:0:0:
64,192,36970,1,0,0:0:0:0:
192,192,37128,1,0,0:0:0:0:
448,192,37286,1,0,0:0:0:0:
64,192,37286,1,0,0:0:0:0:
320,192,37444,1,0,0:0:0:0:
448,192,37601,1,0,0:0:0:0:
64,192,37601,1,0,0:0:0:0:
192,192,37759,128,0,37917:0:0:0:0:
64,192,37917,1,0,0:0:0:0:
320,192,37917,1,0,0:0:0:0:
448,192,38075,1,0,0:0:0:0:
64,192,38233,1,0,0:0:0:0:
320,192,38233,1,0,0:0:0:0:
448,192,38391,1,0,0:0:0:0:
64,192,38549,1,0,0:0:0:0:
320,192,38549,1,0,0:0:0:0:
192,192,38707,1,0,0:0:0:0:
64,192,38865,1,0,0:0:0:0:
320,192,38865,1,0,0:0:0:0:
192,192,39023,1,0,0:0:0:0:
320,192,39180,1,0,0:0:0:0:
448,192,39180,1,0,0:0:0:0:
64,192,39180,128,0,39496:0:0:0:0:
320,192,39338,1,0,0:0:0:0:
448,192,39496,1,0,0:0:0:0:
192,192,39496,1,0,0:0:0:0:
64,192,39654,1,0,0:0:0:0:
320,192,39812,1,0,0:0:0:0:
448,192,39812,1,0,0:0:0:0:
192,192,39970,1,0,0:0:0:0:
320,192,40128,1,0,0:0:0:0:
64,192,40128,128,0,40286:0:0:0:0:
448,192,40286,128,0,40444:0:0:0:0:
320,192,40444,1,0,0:0:0:0:
192,192,40444,128,0,40601:0:0:0:0:
448,192,40601,1,0,0:0:0:0:
64,192,40759,1,0,0:0:0:0:
320,192,40759,1,0,0:0:0:0:
192,192,40917,1,0,0:0:0:0:
448,192,41075,1,0,0:0:0:0:
320,192,41075,1,0,0:0:0:0:
192,192,41233,1,0,0:0:0:0:
320,192,41391,1,0,0:0:0:0:
64,192,41391,1,0,0:0:0:0:
192,192,41549,1,0,0:0:0:0:
64,192,41707,1,0,0:0:0:0:
320,192,41707,128,0,41865:0:0:0:0:
448,192,41865,128,0,42023:0:0:0:0:
320,192,42023,1,0,0:0:0:0:
64,192,42023,1,0,0:0:0:0:
192,192,42180,1,0,0:0:0:0:
64,192,42338,1,0,0:0:0:0:
448,192,42338,1,0,0:0:0:0:
320,192,42496,1,0,0:0:0:0:
320,192,42654,128,0,42812:0:0:0:0:
192,192,42654,1,0,0:0:0:0:
448,192,42812,128,0,42970:0:0:0:0:
64,192,42812,1,0,0:0:0:0:
192,192,42970,1,0,0:0:0:0:
64,192,42970,1,0,0:0:0:0:
320,192,42970,1,0,0:0:0:0:
320,192,43128,1,0,0:0:0:0:
192,192,43128,1,0,0:0:0:0:
448,192,43286,1,0,0:0:0:0:
64,192,43286,128,0,43601:0:0:0:0:
320,192,43444,1,0,0:0:0:0:
192,192,43601,1,0,0:0:0:0:
448,192,43601,128,0,43917:0:0:0:0:
64,192,43759,1,0,0:0:0:0:
320,192,43917,128,0,44233:0:0:0:0:
192,192,43917,1,0,0:0:0:0:
64,192,44075,1,0,0:0:0:0:
448,192,44233,1,0,0:0:0:0:
192,192,44233,1,0,0:0:0:0:
64,192,44233,1,4,0:0:0:0:
192,192,44391,128,0,44707:0:0:0:0:
448,192,44391,128,0,44707:0:0:0:0:
320,192,44707,1,0,0:0:0:0:
64,192,44707,1,4,0:0:0:0:
64,192,44865,128,0,45180:0:0:0:0:
320,192,44865,128,0,45180:0:0:0:0:
448,192,45180,1,0,0:0:0:0:
192,192,45180,1,4,0:0:0:0:
448,192,45338,128,0,45654:0:0:0:0:
192,192,45338,128,0,45654:0:0:0:0:
64,192,45654,1,4,0:0:0:0:
320,192,45654,1,0,0:0:0:0:
320,192,45812,128,0,46128:0:0:0:0:
64,192,45812,128,0,46128:0:0:0:0:
448,192,45970,1,0,0:0:0:0:
192,192,45970,1,0,0:0:0:0:
192,192,46128,128,0,46365:0:0:0:0:
448,192,46128,1,4,0:0:0:0:
448,192,46365,1,4,0:0:0:0:
320,192,46365,128,0,46601:0:0:0:0:
64,192,46601,1,4,0:0:0:0:
192,192,46601,1,0,0:0:0:0:
448,192,46759,1,4,0:0:0:0:
192,192,46838,1,4,0:0:0:0:
448,192,46917,1,4,0:0:0:0:
192,192,46996,1,4,0:0:0:0:
64,192,47075,1,0,0:0:0:0:
448,192,47075,1,4,0:0:0:0:
192,192,47233,1,4,0:0:0:0:
448,192,47233,1,0,0:0:0:0:
320,192,47391,1,4,0:0:0:0:
64,192,47391,1,0,0:0:0:0:
448,192,47549,1,0,0:0:0:0:
192,192,47707,128,8,47865:0:0:0:0:
64,192,47707,128,0,48654:0:0:0:0:
320,192,47865,128,0,48023:0:0:0:0:
192,192,48023,1,0,0:0:0:0:
448,192,48023,1,4,0:0:0:0:
320,192,48180,1,0,0:0:0:0:
448,192,48338,1,0,0:0:0:0:
192,192,48338,1,0,0:0:0:0:
320,192,48496,1,0,0:0:0:0:
192,192,48654,128,0,48970:0:0:0:0:
448,192,48654,1,0,0:0:0:0:
64,192,48812,1,0,0:0:0:0:
448,192,48970,128,0,49286:0:0:0:0:
320,192,48970,1,0,0:0:0:0:
192,192,49128,1,0,0:0:0:0:
64,192,49286,128,0,50549:0:0:0:0:
320,192,49286,128,0,49444:0:0:0:0:
192,192,49444,128,0,49601:0:0:0:0:
448,192,49601,1,0,0:0:0:0:
320,192,49601,1,0,0:0:0:0:
448,192,49759,128,0,49917:0:0:0:0:
192,192,49917,1,0,0:0:0:0:
320,192,49917,128,0,50075:0:0:0:0:
448,192,50075,1,0,0:0:0:0:
192,192,50233,1,0,0:0:0:0:
320,192,50233,128,0,50391:0:0:0:0:
192,192,50391,128,0,50549:0:0:0:0:
448,192,50549,128,0,51180:0:0:0:0:
320,192,50549,1,0,0:0:0:0:
192,192,50707,1,0,0:0:0:0:
320,192,50865,1,0,0:0:0:0:
64,192,50865,1,0,0:0:0:0:
192,192,51023,1,0,0:0:0:0:
320,192,51180,128,0,51654:0:0:0:0:
64,192,51180,1,0,0:0:0:0:
192,192,51338,1,0,0:0:0:0:
64,192,51496,1,0,0:0:0:0:
448,192,51496,1,0,0:0:0:0:
64,192,51654,128,0,52444:0:0:0:0:
192,192,51654,1,0,0:0:0:0:
448,192,51654,128,0,52128:0:0:0:0:
192,192,52128,1,0,0:0:0:0:
320,192,52207,1,0,0:0:0:0:
448,192,52286,1,0,0:0:0:0:
320,192,52365,1,0,0:0:0:0:
448,192,52444,128,0,52917:0:0:0:0:
192,192,52444,1,0,0:0:0:0:
320,192,52601,1,0,0:0:0:0:
192,192,52759,1,0,0:0:0:0:
64,192,52917,128,0,53707:0:0:0:0:
320,192,52917,128,0,53391:0:0:0:0:
192,192,53233,1,0,0:0:0:0:
448,192,53391,1,0,0:0:0:0:
320,192,53470,1,0,0:0:0:0:
192,192,53549,1,0,0:0:0:0:
320,192,53628,1,0,0:0:0:0:
192,192,53707,1,0,0:0:0:0:
448,192,53707,1,0,0:0:0:0:
448,192,53865,1,0,0:0:0:0:
64,192,54023,1,0,0:0:0:0:
320,192,54023,1,0,0:0:0:0:
448,192,54180,1,0,0:0:0:0:
192,192,54180,128,0,54496:0:0:0:0:
64,192,54496,1,0,0:0:0:0:
320,192,54496,1,0,0:0:0:0:
192,192,54654,1,0,0:0:0:0:
448,192,54654,128,0,54970:0:0:0:0:
64,192,54812,1,0,0:0:0:0:
192,192,54970,1,0,0:0:0:0:
320,192,54970,1,0,0:0:0:0:
448,192,55128,1,0,0:0:0:0:
64,192,55128,128,0,55444:0:0:0:0:
448,192,55444,1,0,0:0:0:0:
192,192,55444,1,0,0:0:0:0:
320,192,55601,128,0,55812:0:0:0:0:
64,192,55601,1,0,0:0:0:0:
192,192,55812,128,0,56023:0:0:0:0:
448,192,56023,128,0,56233:0:0:0:0:
64,192,56233,128,0,56444:0:0:0:0:
192,192,56444,128,0,56654:0:0:0:0:
320,192,56654,128,0,56865:0:0:0:0:
448,192,56865,1,0,0:0:0:0:
192,192,56865,1,0,0:0:0:0:
64,192,56865,1,0,0:0:0:0:
192,192,57444,1,0,0:0:0:0:
320,192,57496,128,0,57654:0:0:0:0:
448,192,57496,1,0,0:0:0:0:
64,192,57654,128,0,57812:0:0:0:0:
192,192,57812,128,0,57970:0:0:0:0:
448,192,57970,128,0,58128:0:0:0:0:
64,192,58128,128,0,58286:0:0:0:0:
192,192,58286,128,0,58444:0:0:0:0:
320,192,58444,1,0,0:0:0:0:
448,192,58444,128,0,58759:0:0:0:0:
64,192,58759,128,0,59391:0:0:0:0:
320,192,58759,1,0,0:0:0:0:
192,192,58759,1,0,0:0:0:0:
448,192,58917,1,0,0:0:0:0:
320,192,59075,1,0,0:0:0:0:
192,192,59233,1,0,0:0:0:0:
448,192,59391,1,0,0:0:0:0:
320,192,59391,1,0,0:0:0:0:
192,192,59549,1,0,0:0:0:0:
64,192,59707,128,0,59865:0:0:0:0:
448,192,59707,1,0,0:0:0:0:
192,192,59865,128,0,60023:0:0:0:0:
320,192,60023,128,0,60338:0:0:0:0:
448,192,60023,1,0,0:0:0:0:
192,192,60338,128,0,60654:0:0:0:0:
448,192,60496,1,0,0:0:0:0:
64,192,60654,128,0,60812:0:0:0:0:
448,192,60654,128,0,60812:0:0:0:0:
448,192,60891,128,0,61049:0:0:0:0:
64,192,60891,128,0,61049:0:0:0:0:
64,192,61128,128,0,61207:0:0:0:0:
448,192,61128,128,0,61207:0:0:0:0:
320,192,61286,128,0,61917:0:0:0:0:
448,192,61286,1,0,0:0:0:0:
64,192,61286,1,0,0:0:0:0:
64,192,61601,1,0,0:0:0:0:
192,192,61680,1,0,0:0:0:0:
64,192,61759,1,0,0:0:0:0:
192,192,61838,1,0,0:0:0:0:
448,192,61917,128,0,62549:0:0:0:0:
64,192,61917,128,0,62549:0:0:0:0:
320,192,62549,1,0,0:0:0:0:
192,192,62549,1,0,0:0:0:0:
448,192,62707,1,0,0:0:0:0:
64,192,62865,128,0,63496:0:0:0:0:
320,192,62865,1,0,0:0:0:0:
448,192,63338,1,0,0:0:0:0:
192,192,63496,1,0,0:0:0:0:
320,192,63496,1,0,0:0:0:0:
448,192,63654,1,0,0:0:0:0:
320,192,63733,1,0,0:0:0:0:
448,192,63812,1,0,0:0:0:0:
64,192,63812,1,0,0:0:0:0:
192,192,63812,1,0,0:0:0:0:
64,192,64444,1,0,0:0:0:0:
448,192,64444,128,0,64917:0:0:0:0:
192,192,64917,1,0,0:0:0:0:
64,192,64917,1,0,0:0:0:0:
320,192,65075,1,0,0:0:0:0:
448,192,65075,1,0,0:0:0:0:
192,192,65154,1,0,0:0:0:0:
64,192,65233,1,0,0:0:0:0:
192,192,65312,1,0,0:0:0:0:
320,192,65391,1,0,0:0:0:0:
448,192,65470,1,0,0:0:0:0:
320,192,65549,1,0,0:0:0:0:
192,192,65628,1,0,0:0:0:0:
64,192,65707,1,0,0:0:0:0:
320,192,65707,1,0,0:0:0:0:
448,192,65707,1,0,0:0:0:0:
448,192,65944,1,0,0:0:0:0:
192,192,65944,1,0,0:0:0:0:
64,192,65944,1,0,0:0:0:0:
320,192,66180,1,0,0:0:0:0:
192,192,66180,1,0,0:0:0:0:
64,192,66338,128,0,66970:0:0:0:0:
448,192,66338,1,0,0:0:0:0:
320,192,66417,1,0,0:0:0:0:
192,192,66496,1,0,0:0:0:0:
320,192,66575,1,0,0:0:0:0:
192,192,66654,1,0,0:0:0:0:
448,192,66654,1,0,0:0:0:0:
448,192,66812,1,0,0:0:0:0:
320,192,66812,1,0,0:0:0:0:
192,192,66970,128,0,67601:0:0:0:0:
448,192,66970,1,0,0:0:0:0:
64,192,67286,1,0,0:0:0:0:
448,192,67286,1,0,0:0:0:0:
64,192,67601,128,0,68075:0:0:0:0:
448,192,67601,1,0,0:0:0:0:
320,192,67917,1,0,0:0:0:0:
448,192,67917,1,0,0:0:0:0:
192,192,67996,1,0,0:0:0:0:
448,192,68075,1,0,0:0:0:0:
320,192,68075,1,0,0:0:0:0:
192,192,68391,1,0,0:0:0:0:
448,192,68391,1,0,0:0:0:0:
192,192,68549,1,0,0:0:0:0:
448,192,68549,1,0,0:0:0:0:
64,192,68707,1,0,0:0:0:0:
320,192,68707,1,0,0:0:0:0:
64,192,68865,1,0,0:0:0:0:
320,192,68865,1,0,0:0:0:0:
192,192,69023,1,0,0:0:0:0:
448,192,69023,1,0,0:0:0:0:
192,192,69180,1,0,0:0:0:0:
448,192,69180,1,0,0:0:0:0:
320,192,69338,128,0,69496:0:0:0:0:
64,192,69338,128,0,69496:0:0:0:0:
448,192,70128,128,0,70759:0:0:0:0:
64,192,70128,128,0,70286:0:0:0:0:
320,192,70286,128,0,70444:0:0:0:0:
192,192,70444,128,0,70601:0:0:0:0:
320,192,70601,128,0,70759:0:0:0:0:
64,192,70759,1,0,0:0:0:0:
192,192,70759,1,0,0:0:0:0:
320,192,70917,1,0,0:0:0:0:
192,192,71075,1,0,0:0:0:0:
448,192,71075,1,0,0:0:0:0:
64,192,71075,1,0,0:0:0:0:
320,192,71233,1,0,0:0:0:0:
448,192,71391,1,0,0:0:0:0:
64,192,71391,1,0,0:0:0:0:
192,192,71549,1,0,0:0:0:0:
64,192,71707,128,0,71865:0:0:0:0:
448,192,71707,1,0,0:0:0:0:
320,192,71707,1,0,0:0:0:0:
192,192,71865,1,0,0:0:0:0:
448,192,72023,1,0,0:0:0:0:
64,192,72023,1,0,0:0:0:0:
320,192,72180,1,0,0:0:0:0:
448,192,72338,1,0,0:0:0:0:
64,192,72338,1,0,0:0:0:0:
192,192,72338,1,0,0:0:0:0:
64,192,72496,128,0,72654:0:0:0:0:
320,192,72496,1,0,0:0:0:0:
448,192,72654,1,0,0:0:0:0:
192,192,72654,1,0,0:0:0:0:
192,192,72812,1,0,0:0:0:0:
64,192,72970,128,0,73128:0:0:0:0:
448,192,72970,1,0,0:0:0:0:
320,192,72970,1,0,0:0:0:0:
192,192,73128,1,0,0:0:0:0:
64,192,73286,1,0,0:0:0:0:
448,192,73286,1,0,0:0:0:0:
192,192,73444,1,0,0:0:0:0:
192,192,73601,1,0,0:0:0:0:
448,192,73601,1,0,0:0:0:0:
320,192,73601,1,0,0:0:0:0:
64,192,73759,1,0,0:0:0:0:
192,192,73917,1,0,0:0:0:0:
448,192,73917,1,0,0:0:0:0:
320,192,74075,1,0,0:0:0:0:
64,192,74233,1,0,0:0:0:0:
448,192,74233,1,0,0:0:0:0:
192,192,74233,1,0,0:0:0:0:
320,192,74391,1,0,0:0:0:0:
320,192,74549,1,0,0:0:0:0:
64,192,74549,1,0,0:0:0:0:
448,192,74707,1,0,0:0:0:0:
64,192,74865,1,0,0:0:0:0:
320,192,74865,1,0,0:0:0:0:
192,192,74865,1,0,0:0:0:0:
192,192,75023,1,0,0:0:0:0:
64,192,75180,1,0,0:0:0:0:
320,192,75180,1,0,0:0:0:0:
448,192,75338,1,0,0:0:0:0:
448,192,75496,1,0,0:0:0:0:
64,192,75496,1,0,0:0:0:0:
320,192,75496,1,0,0:0:0:0:
192,192,75575,1,0,0:0:0:0:
448,192,75654,1,0,0:0:0:0:
64,192,75733,1,0,0:0:0:0:
448,192,75812,1,0,0:0:0:0:
320,192,75812,1,0,0:0:0:0:
192,192,75812,1,0,0:0:0:0:
320,192,75970,1,0,0:0:0:0:
448,192,76128,1,0,0:0:0:0:
320,192,76128,1,0,0:0:0:0:
64,192,76128,1,0,0:0:0:0:
64,192,76286,128,0,76444:0:0:0:0:
192,192,76286,1,0,0:0:0:0:
320,192,76444,1,0,0:0:0:0:
448,192,76444,1,0,0:0:0:0:
64,192,76601,1,0,0:0:0:0:
448,192,76759,1,0,0:0:0:0:
192,192,76759,1,0,0:0:0:0:
320,192,76759,1,0,0:0:0:0:
64,192,76917,1,0,0:0:0:0:
192,192,77075,1,0,0:0:0:0:
448,192,77075,1,0,0:0:0:0:
320,192,77233,1,0,0:0:0:0:
448,192,77391,1,0,0:0:0:0:
320,192,77391,1,0,0:0:0:0:
64,192,77391,1,0,0:0:0:0:
192,192,77549,1,0,0:0:0:0:
448,192,77707,1,0,0:0:0:0:
320,192,77707,1,0,0:0:0:0:
64,192,77865,1,0,0:0:0:0:
192,192,77865,1,0,0:0:0:0:
448,192,78023,128,0,78338:0:0:0:0:
64,192,78023,1,0,0:0:0:0:
192,192,78101,1,0,0:0:0:0:
320,192,78180,1,0,0:0:0:0:
192,192,78259,1,0,0:0:0:0:
320,192,78338,128,0,78654:0:0:0:0:
64,192,78338,1,0,0:0:0:0:
192,192,78654,1,0,0:0:0:0:
448,192,78654,128,0,78970:0:0:0:0:
320,192,78970,128,0,79207:0:0:0:0:
64,192,78970,1,0,0:0:0:0:
64,192,79207,128,0,79444:0:0:0:0:
448,192,79207,1,0,0:0:0:0:
192,192,79444,128,0,79601:0:0:0:0:
448,192,79444,1,0,0:0:0:0:
64,192,79601,128,0,79759:0:0:0:0:
320,192,79601,1,0,0:0:0:0:
192,192,79759,128,0,79917:0:0:0:0:
320,192,79759,1,0,0:0:0:0:
448,192,79917,128,0,80075:0:0:0:0:
64,192,79917,1,0,0:0:0:0:
320,192,80075,128,0,80233:0:0:0:0:
192,192,80075,1,0,0:0:0:0:
64,192,80233,128,0,80391:0:0:0:0:
448,192,80233,1,0,0:0:0:0:
192,192,80391,128,0,80549:0:0:0:0:
320,192,80391,1,0,0:0:0:0:
448,192,80549,128,0,80707:0:0:0:0:
64,192,80549,1,0,0:0:0:0:
320,192,80707,128,0,80865:0:0:0:0:
64,192,80707,1,0,0:0:0:0:
448,192,80865,128,0,82128:0:0:0:0:
192,192,80865,1,0,0:0:0:0:
64,192,80865,1,0,0:0:0:0:
192,192,81023,1,0,0:0:0:0:
320,192,81180,1,0,0:0:0:0:
64,192,81180,1,0,0:0:0:0:
192,192,81180,1,0,0:0:0:0:
320,192,81338,1,0,0:0:0:0:
320,192,81496,1,0,0:0:0:0:
192,192,81496,1,0,0:0:0:0:
64,192,81654,1,0,0:0:0:0:
320,192,81812,1,0,0:0:0:0:
64,192,81812,1,0,0:0:0:0:
192,192,81812,1,0,0:0:0:0:
320,192,81970,1,0,0:0:0:0:
64,192,82128,128,0,83391:0:0:0:0:
192,192,82128,1,0,0:0:0:0:
448,192,82286,1,0,0:0:0:0:
448,192,82444,1,0,0:0:0:0:
192,192,82444,1,0,0:0:0:0:
320,192,82444,1,0,0:0:0:0:
320,192,82601,1,0,0:0:0:0:
448,192,82759,1,0,0:0:0:0:
192,192,82759,1,0,0:0:0:0:
448,192,82917,1,0,0:0:0:0:
320,192,83075,1,0,0:0:0:0:
192,192,83075,1,0,0:0:0:0:
448,192,83075,1,0,0:0:0:0:
320,192,83233,1,0,0:0:0:0:
192,192,83391,128,0,84654:0:0:0:0:
448,192,83391,1,0,0:0:0:0:
320,192,83549,1,0,0:0:0:0:
64,192,83707,1,0,0:0:0:0:
448,192,83707,128,0,83865:0:0:0:0:
320,192,83707,1,0,0:0:0:0:
320,192,83865,128,0,84023:0:0:0:0:
64,192,84023,1,0,0:0:0:0:
448,192,84023,1,0,0:0:0:0:
320,192,84180,1,0,0:0:0:0:
64,192,84338,1,0,0:0:0:0:
320,192,84338,1,0,0:0:0:0:
448,192,84338,1,0,0:0:0:0:
448,192,84496,1,0,0:0:0:0:
320,192,84654,128,0,85917:0:0:0:0:
64,192,84654,1,0,0:0:0:0:
448,192,84812,1,0,0:0:0:0:
448,192,84970,1,0,0:0:0:0:
192,192,84970,1,0,0:0:0:0:
64,192,84970,1,0,0:0:0:0:
192,192,85128,128,0,85286:0:0:0:0:
448,192,85286,1,0,0:0:0:0:
64,192,85286,128,0,85444:0:0:0:0:
448,192,85444,128,0,85601:0:0:0:0:
64,192,85601,1,0,0:0:0:0:
192,192,85601,128,0,85759:0:0:0:0:
64,192,85759,128,0,85917:0:0:0:0:
448,192,85917,128,0,86233:0:0:0:0:
192,192,85917,1,0,0:0:0:0:
192,192,86075,1,0,0:0:0:0:
64,192,86233,1,0,0:0:0:0:
320,192,86233,1,0,0:0:0:0:
192,192,86391,1,0,0:0:0:0:
64,192,86549,1,0,0:0:0:0:
448,192,86549,1,0,0:0:0:0:
320,192,86628,1,0,0:0:0:0:
192,192,86707,1,0,0:0:0:0:
448,192,86786,1,0,0:0:0:0:
64,192,86865,1,0,0:0:0:0:
320,192,86865,128,0,87180:0:0:0:0:
448,192,87023,1,0,0:0:0:0:
64,192,87180,1,0,0:0:0:0:
192,192,87180,1,0,0:0:0:0:
192,192,87338,1,0,0:0:0:0:
448,192,87338,1,0,0:0:0:0:
64,192,87496,1,0,0:0:0:0:
320,192,87496,1,0,0:0:0:0:
448,192,87654,1,0,0:0:0:0:
192,192,87654,1,0,0:0:0:0:
320,192,87812,1,0,0:0:0:0:
64,192,87812,1,0,0:0:0:0:
192,192,87891,1,0,0:0:0:0:
320,192,87970,1,0,0:0:0:0:
448,192,88049,1,0,0:0:0:0:
64,192,88128,1,0,0:0:0:0:
192,192,88207,1,0,0:0:0:0:
320,192,88286,1,0,0:0:0:0:
448,192,88365,1,0,0:0:0:0:
320,192,88444,1,0,0:0:0:0:
64,192,88444,1,0,0:0:0:0:
448,192,88759,1,0,0:0:0:0:
64,192,88917,1,0,0:0:0:0:
320,192,88917,1,0,0:0:0:0:
64,192,89233,1,0,0:0:0:0:
448,192,89391,1,0,0:0:0:0:
192,192,89391,1,0,0:0:0:0:
320,192,89549,1,0,0:0:0:0:
64,192,89707,1,0,0:0:0:0:
448,192,89707,1,0,0:0:0:0:
320,192,89786,1,0,0:0:0:0:
192,192,89865,1,0,0:0:0:0:
64,192,89944,1,0,0:0:0:0:
448,192,90023,1,0,0:0:0:0:
192,192,90023,1,0,0:0:0:0:
320,192,90101,1,0,0:0:0:0:
192,192,90180,1,0,0:0:0:0:
448,192,90180,1,0,0:0:0:0:
64,192,90259,1,0,0:0:0:0:
192,192,90338,1,0,0:0:0:0:
320,192,90417,1,0,0:0:0:0:
448,192,90496,1,0,0:0:0:0:
64,192,90496,1,0,0:0:0:0:
320,192,90575,1,0,0:0:0:0:
448,192,90654,1,0,0:0:0:0:
64,192,90654,1,0,0:0:0:0:
192,192,90733,1,0,0:0:0:0:
320,192,90812,1,0,0:0:0:0:
192,192,90891,1,0,0:0:0:0:
64,192,90970,128,0,92233:0:0:0:0:
448,192,90970,128,0,91286:0:0:0:0:
320,192,91128,128,0,91286:0:0:0:0:
192,192,91286,128,0,91601:0:0:0:0:
448,192,91444,128,0,91601:0:0:0:0:
320,192,91601,128,0,91917:0:0:0:0:
448,192,91917,128,0,92233:0:0:0:0:
320,192,92233,128,0,92865:0:0:0:0:
192,192,92233,128,0,92865:0:0:0:0:
64,192,92865,128,0,93180:0:0:0:0:
448,192,92865,1,0,0:0:0:0:
448,192,93180,128,0,93496:0:0:0:0:
192,192,93180,1,0,0:0:0:0:
320,192,93496,1,0,0:0:0:0:
192,192,93496,1,0,0:0:0:0:
64,192,93496,128,0,93654:0:0:0:0:
192,192,93654,1,0,0:0:0:0:
320,192,93654,1,0,0:0:0:0:
320,192,93970,1,0,0:0:0:0:
192,192,93970,1,0,0:0:0:0:
448,192,93970,128,0,94128:0:0:0:0:
320,192,94128,1,0,0:0:0:0:
192,192,94128,1,0,0:0:0:0:
64,192,94444,1,0,0:0:0:0:
192,192,94444,1,0,0:0:0:0:
320,192,94444,128,0,94601:0:0:0:0:
64,192,94601,1,0,0:0:0:0:
192,192,94601,1,0,0:0:0:0:
448,192,94917,1,0,0:0:0:0:
320,192,94917,1,0,0:0:0:0:
192,192,94917,128,0,95075:0:0:0:0:
448,192,95075,1,0,0:0:0:0:
320,192,95075,1,0,0:0:0:0:
192,192,95233,128,0,95391:0:0:0:0:
64,192,95391,1,0,0:0:0:0:
448,192,95391,1,0,0:0:0:0:
64,192,95549,1,0,0:0:0:0:
448,192,95549,1,0,0:0:0:0:
64,192,95707,1,0,0:0:0:0:
448,192,95707,1,0,0:0:0:0:
192,192,95865,128,0,96101:0:0:0:0:
320,192,95865,128,0,96101:0:0:0:0:
