osu file format v6

[General]
AudioFilename: 100. Trickster - Nana Mizuki.mp3
AudioLeadIn: 0
PreviewTime: -1
Countdown: 2
SampleSet: Normal
StackLeniency: 0.7
Mode: 0
LetterboxInBreaks: 1

[Editor]
DistanceSpacing: 0.800000011920929
BeatDivisor: 4
GridSize: 16

[Metadata]
Title:Trickster
Artist:Nana Mizuki
Creator:[C]onte_[D]iabo_93
Version:Insane
Source:
Tags:

[Difficulty]
HPDrainRate:7
CircleSize:6
OverallDifficulty:8
SliderMultiplier:1.4
SliderTickRate:1

[Events]
//Background and Video events
0,0,"NanaMizuki-Trickster_scan01.jpg"
//Break Periods
//Storyboard Layer 0 (Background)
//Storyboard Layer 1 (Fail)
//Storyboard Layer 2 (Pass)
//Storyboard Layer 3 (Foreground)
//Storyboard Sound Samples
//Background Colour Transformations
3,100,163,162,255

[TimingPoints]
0,480,4,1,0,100,1,0

[HitObjects]
309,192,0,1,0
202,186,120,1,0
112,10,360,1,0
130,270,960,1,0
354,252,1200,1,0
264,102,1560,1,0
166,151,2040,1,0
154,207,2280,1,0
378,269,2520,1,0
335,95,2880,1,0
145,75,3360,1,0
132,96,3480,1,0
123,142,3600,1,0
207,242,3840,1,0
371,297,4080,1,0
369,207,4200,1,0
350,122,4440,1,0
325,99,4560,1,0
274,81,4680,1,0
108,52,4920,2,0,B|107:175|448:314|437:299,1,420
72,167,5160,2,0,B|72:169|74:185|368:145|359:175,3,280
233,114,8520,1,0
376,177,8640,1,0
189,253,9120,1,0
105,159,9480,5,8
216,209,9960,1,8
353,207,10440,1,8
366,100,10560,1,8
221,79,10800,1,8
163,117,10920,1,8
125,224,11160,1,8
320,275,11400,1,8
353,207,11520,1,8
290,189,11760,1,8
269,221,11880,1,8
326,237,12120,1,8
419,239,12240,1,8
225,136,12600,1,8
173,162,12720,1,8
188,205,12960,1,8
217,249,13200,1,8
314,216,13320,1,8
316,147,13560,1,8
82,54,13920,2,8,B|81:159|82:164|84:159,2,105
180,49,14760,2,8,B,2,105
267,50,15480,2,8,B|265:55|287:259|163:343|463:15|52:133|431:52|250:354|45:102|421:102|244:109,1,350
52,61,17280,1,8
61,159,17520,1,8
54,256,18120,1,8
102,289,18360,1,8
270,286,18720,1,8
373,241,18960,1,8
398,77,19320,1,8
321,124,19680,1,8
493,152,19920,1,8
459,86,20160,1,8
217,87,20520,1,8
256,208,21600,12,8,22680
121,100,23040,5,8
269,204,23400,1,8
376,97,23760,1,8
201,110,24120,1,8
108,154,24360,1,8
88,199,24600,1,8
148,269,24840,1,8
239,277,24960,1,8
290,269,25200,1,8
354,261,25440,1,8
406,247,25560,1,8
442,232,25800,1,8
463,177,26040,1,8
460,146,26280,1,8
404,72,26520,1,8
254,39,26760,1,8
128,62,27000,1,8
94,98,27240,1,8
79,169,27480,1,8
123,234,27720,1,8
303,134,27960,1,10
168,175,28320,1,10
96,239,28680,1,10
307,270,29040,1,10
364,254,29280,1,10
436,206,29520,1,10
433,153,29760,1,10
403,110,30000,1,10
358,99,30240,1,10
276,92,30480,1,10
180,112,30720,1,10
94,139,31080,1,10
48,64,31320,2,0,B|352:288|256:0|496:128|112:336|480:96|128:304|128:288,1,525
192,32,33240,1,0
272,144,33960,5,0
128,240,34320,1,0
288,256,34680,1,0
432,144,34800,1,0
320,128,35040,1,0
224,192,35400,1,0
256,192,35640,1,0
320,192,35880,1,0
336,208,36120,1,0
368,208,36240,1,0
336,208,36480,1,0
320,224,36600,1,0
288,224,36840,1,0
320,224,37080,1,0
384,320,37320,1,0
368,288,37560,1,0
368,288,37680,1,0
416,240,38040,1,0
384,208,38280,1,0
288,192,38400,1,0
384,144,38760,1,0
288,96,39120,1,0
176,112,39240,1,0
144,160,39480,1,0
160,208,39720,1,0
224,224,39960,1,0
304,240,40200,1,0
320,192,40320,1,0
48,48,40680,6,0,B|496:32|400:272|32:240,1,665
16,178,42600,2,0,B|368:288|432:64|448:32,1,490
439,52,44280,2,0,B|48:64|-48:160|48:80,3,455
256,208,49800,12,0,51360
304,144,51360,5,0
208,272,51960,5,0
96,160,52440,1,0
192,160,52680,1,0
288,208,52920,1,0
288,160,53280,1,0
320,208,53400,1,0
368,128,53760,1,0
416,208,54000,1,0
416,128,54240,1,0
368,80,54480,1,0
176,128,54840,1,0
160,192,55080,1,0
240,224,55320,1,0
272,224,55560,1,0
272,256,55680,1,0
416,224,55920,1,0
368,160,56160,1,0
320,208,56400,1,0
272,96,56640,1,0
144,224,56880,1,0
176,208,57000,1,0
112,112,57240,1,0
208,176,57480,1,0
288,144,57600,1,0
352,128,57840,1,0
368,144,58080,1,0
400,144,58320,1,0
336,96,58440,1,0
208,144,58680,1,0
208,144,58920,1,0
176,192,59160,1,0
192,240,59520,1,0
256,256,59640,1,0
336,256,59880,1,0
384,240,60120,1,0
432,176,60360,1,0
416,112,60480,1,0
288,64,60720,1,0
192,80,60840,1,0
80,96,61080,1,0
48,160,61200,1,0
64,224,61440,1,0
160,256,61680,1,0
64,32,62040,6,0,B,1,315
64,96,62760,2,0,B|416:96,1,315
64,160,63720,6,0,B|528:208|480:48|480:64,1,455
144,80,65280,1,0
144,160,65640,1,0
240,192,66000,1,0
336,160,66360,1,0
240,96,66840,1,0
176,144,67200,1,0
160,176,67440,1,0
192,208,67680,1,0
240,208,67920,1,0
288,208,68160,1,0
368,96,68760,1,0
240,128,69360,1,0
192,208,69840,1,0
240,240,70080,1,0
304,256,70440,1,0
336,256,70560,1,0
256,208,70920,12,0,73320
64,112,73800,5,0
224,128,74520,1,0
400,240,75480,1,0
270,163,75960,1,0
142,156,76800,1,0
83,153,77400,1,0
46,193,77760,1,0
55,239,78240,1,0
132,309,78600,1,0
214,322,78840,1,0
278,317,79200,1,0
338,305,79440,1,0
408,294,79680,1,0
465,248,80280,1,0
470,212,80760,1,0
459,186,81240,1,0
426,175,81720,1,0
373,182,82200,1,0
333,186,82680,1,0
333,186,82920,1,0
290,187,83280,1,0
262,187,83520,1,0
237,187,83760,1,0
211,185,84000,1,0
137,199,84240,6,0,B|137:75|136:88|128:70,1,105
54,161,85680,1,0
192,143,86160,1,0
294,137,86640,1,0
361,159,87120,1,0
267,305,87240,1,0
126,286,87480,1,0
169,72,87840,1,0
188,189,87960,1,0
231,194,88200,1,0
241,159,88440,1,0
249,60,88560,1,0
256,89,88800,1,0
301,162,88920,1,0
387,126,89160,1,0
387,126,89400,1,0
401,149,89520,1,0
52,106,89880,2,0,B|57:224|56:224,1,105
172,142,90120,2,0,B|172:193|482:288|470:278,1,315
303,98,90840,2,0,B|49:102|46:99,1,245
389,154,91680,1,0
315,219,91800,1,0
87,209,92040,1,0
95,173,92160,1,0
127,115,92400,1,0
257,97,92520,1,0
206,228,92760,1,0
252,266,93000,1,0
378,251,93240,1,0
371,181,93480,1,0
316,104,93720,1,0
267,117,93960,1,0
120,182,94080,1,0
90,156,94320,1,0
90,111,94560,1,0
201,142,94800,1,0
261,195,94920,1,0
399,172,95160,5,2
370,164,95280,1,2
236,101,95520,1,2
195,120,95760,1,2
130,185,96000,1,2
129,235,96240,1,2
186,268,96480,1,2
390,261,96720,1,2
369,130,97200,1,2
366,96,97440,1,2
360,62,97680,1,2
282,84,97920,1,2
235,93,98040,1,2
174,140,98280,1,2
154,241,98520,1,2
214,271,98880,1,2
282,271,99000,1,2
281,224,99360,1,2
289,131,99720,1,2
287,97,99960,1,2
421,52,100320,1,2
439,80,100560,1,2
447,148,100680,1,2
436,176,100920,1,2
417,196,101160,1,2
356,227,101400,1,2
326,235,101640,1,2
282,239,101760,1,2
204,246,102240,1,2
162,243,102600,1,2
162,243,102720,1,2
134,232,102960,1,2
106,224,103080,1,2
106,224,103320,1,2
84,214,103560,1,2
77,191,103920,1,2
72,169,104160,1,2
83,137,104400,1,2
107,115,104640,1,2
135,105,104880,1,2
181,97,105120,1,2
224,106,105360,1,2
261,143,105600,1,2
276,179,105840,1,2
334,212,106080,1,2
411,164,106320,1,2
368,75,106440,1,2
181,97,106680,1,2
138,210,106920,1,2
384,255,107400,1,2
87,46,107520,2,0,B|461:317|419:39|36:264|106:359|406:287|381:101|161:40|-2:212|440:58|430:60,1,665
60,196,109920,5,0
289,306,110520,1,0
396,213,110880,1,0
361,93,111360,1,0
197,117,111720,1,0
134,156,112080,1,0
131,241,112560,1,0
177,334,112800,1,0
276,315,113160,1,0
349,283,113400,1,0
399,231,113640,1,0
413,154,113880,1,0
392,114,114000,1,0
335,117,114240,1,0
221,166,114600,1,0
225,289,114840,1,0
350,262,114960,1,0
476,219,115200,1,0
392,114,115440,1,0
192,117,115680,1,0
104,100,115920,1,0
73,214,116160,1,0
150,284,116400,1,0
317,256,116640,1,0
366,199,116760,1,0
305,158,117000,1,0
199,199,117240,1,0
27,89,117480,2,0,B|516:338|511:329,1,525
74,51,124920,5,0
172,114,119760,2,0,B|373:271|415:331,5,315
181,53,125400,1,0
330,89,125880,1,0
374,167,126240,1,0
255,231,126600,1,0
161,248,127080,1,0
122,181,127320,1,0
168,156,127560,1,0
247,143,127800,1,0
301,149,127920,1,0
396,272,128400,1,0
348,270,128640,1,0
386,227,128760,1,0
279,209,129120,1,0
279,209,129360,1,0
283,187,129480,1,0
256,141,129840,1,0
222,133,130080,1,0
222,133,130200,1,0
137,114,130440,1,0
205,68,130680,1,0
307,72,130800,1,0
283,187,131040,1,0
247,243,131160,1,0
205,271,131400,1,0
82,316,131520,1,0
104,191,131760,1,0
137,160,132000,1,0
183,151,132240,1,0
283,187,132360,1,0
319,216,132600,1,0
354,234,132960,1,0
354,234,133200,1,0
383,245,133320,1,0
427,162,133800,1,0
403,131,133920,1,0
356,111,134160,1,0
226,109,134640,1,0
181,141,134760,1,0
162,167,135000,1,0
176,101,136320,5,0
256,208,135360,12,0,136320
264,143,136560,5,0
313,194,136920,1,0
256,208,137160,12,0,137880
258,166,138840,5,0
40,210,139080,1,0
173,197,139440,1,0
281,209,139680,1,0
256,208,139800,12,0,140400
103,90,142440,5,0
255,35,140400,2,0,B|246:345|112:269|99:189,2,350
172,163,143040,1,0
270,237,143880,1,0
314,241,144240,1,0
351,233,145080,1,0
375,219,145800,1,0
401,180,146880,1,0
102,89,148080,1,0
258,276,149640,1,0
247,99,151080,1,0
180,126,151440,1,0
119,181,151920,1,0
102,211,152280,1,0
95,266,152520,1,0
108,300,152760,1,0
176,314,153120,1,0
257,301,153480,1,0
291,295,153720,1,0
291,295,153960,1,0
367,264,154320,1,0
82,74,154680,6,0,B|443:75|441:75|-34:177|208:170,1,490
111,174,156840,1,0
255,191,156960,1,0
314,239,157080,1,0
314,239,157320,1,0
356,141,157440,1,0
162,134,157920,1,0
192,244,158280,1,0
192,244,158520,1,0
152,259,158640,1,0
201,177,159480,5,0
256,208,158880,12,0,159480
321,223,159600,5,0
321,223,159840,1,0
252,264,159960,1,0
154,207,160200,1,0
114,119,160440,1,0
241,97,160800,1,0
304,137,161040,1,0
311,158,161280,1,0
339,164,161640,1,0
339,164,161880,1,0
343,219,162120,1,0
227,244,162600,1,0
167,224,162840,1,0
167,224,163080,1,0
150,196,163320,1,0
138,149,163440,1,0
248,107,163800,1,0
304,108,164040,1,0
322,155,164280,1,0
285,248,164640,1,0
264,199,165120,1,0
214,99,165360,1,0
134,246,165720,1,0
137,194,165960,1,0
315,159,166200,1,0
349,151,166440,1,0
383,126,166560,1,0
385,150,166800,1,0
377,252,167280,1,0
290,222,167520,1,0
154,192,167760,1,0
120,173,168000,1,0
99,113,168480,1,0
287,83,168720,1,0
361,87,168840,1,0
276,241,169560,5,0
146,246,169800,1,0
74,229,170040,1,0
144,121,170520,1,0
293,79,170880,1,0
318,211,171240,1,0
199,260,171600,1,0
153,186,171960,1,0
154,113,172200,1,0
187,43,172440,1,0
286,78,172680,1,0
336,130,172920,1,0
393,211,173160,1,0
418,243,173400,1,0
414,281,173640,1,0
370,299,173880,1,0
219,327,174240,1,0
194,318,174480,1,0
139,277,174720,1,0
106,212,175200,1,0
102,183,175440,1,0
108,161,175680,1,0
158,139,176040,1,0
212,128,176280,1,0
256,127,176520,1,0
286,126,176760,1,0
364,139,177240,1,0
381,156,177480,1,0
401,205,177720,1,0
404,232,177960,1,0
287,292,178200,1,0
142,258,178560,1,0
77,116,179040,1,0
216,33,179280,6,0,B|479:339|409:36|205:203|459:242|119:176|269:288,1,490
127,239,180840,2,0,B|435:55|303:102,4,280
164,142,185160,2,0,B|356:152|50:129|86:284|333:242,2,350
152,171,188520,1,0
241,189,188760,1,0
344,229,189000,1,0
187,111,189480,1,0
104,208,189960,1,0
239,268,190440,1,0
332,237,190800,1,0
340,122,191880,5,0
150,149,192240,1,0
139,225,192720,1,0
301,266,193200,1,0
339,200,193440,1,0
298,134,193680,1,0
266,116,193800,1,0
174,112,194280,1,0
154,131,194400,1,0
124,199,194880,1,0
349,115,195600,1,0
7,16,196560,1,0
464,307,197160,1,0
371,111,197880,1,0
79,341,198600,1,0
34,95,199200,1,0
440,33,199920,1,0
181,54,200520,1,0
74,184,201000,1,0
363,282,201600,1,0
411,170,202080,1,0
290,159,202440,1,0
237,167,202800,1,0
186,171,203280,1,0
149,174,203520,1,0
149,174,203760,1,0
84,139,204240,1,0
189,87,204720,1,0
304,92,204840,1,0
364,156,205080,1,0
314,243,205560,1,0
274,252,205680,1,0
237,263,205920,1,0
187,256,206400,1,0
90,135,207120,1,0
354,67,207480,1,0
399,94,208440,5,0
328,128,209400,1,0
242,164,210360,1,0
136,216,211680,1,0
262,257,213120,1,0
349,202,214200,1,8
245,186,215400,1,8
155,164,216480,1,8
107,154,217560,1,8
62,172,218400,1,8
4,212,219480,1,8
9,249,220800,1,8
446,149,222840,5,8
354,171,223680,1,8
227,179,225600,1,8
