osu file format v7

[General]
AudioFilename: Takara Mono.mp3
AudioLeadIn: 0
PreviewTime: 205720
Countdown: 0
SampleSet: Soft
StackLeniency: 0.7
Mode: 0
LetterboxInBreaks: 1

[Editor]
DistanceSpacing: 1.60000002384186
BeatDivisor: 4
GridSize: 8

[Metadata]
Title:Takara Mono
Artist:Nana Mizuki
Creator:kodomonoyume
Version:Normal
Source:
Tags:

[Difficulty]
HPDrainRate:3
CircleSize:4
OverallDifficulty:3
SliderMultiplier:1
SliderTickRate:1

[Events]
//Background and Video events
0,0,"bg.jpg"
//Break Periods
2,113524,118840
//Storyboard Layer 0 (Background)
//Storyboard Layer 1 (Fail)
//Storyboard Layer 2 (Pass)
//Storyboard Layer 3 (Foreground)
//Storyboard Sound Samples
//Background Colour Transformations
3,100,192,192,192

[TimingPoints]
2020,434.782608695652,4,2,1,40,1,0
33111,-200,4,2,1,40,0,0
36155,-100,4,2,1,55,0,0
40068,-200,4,2,1,55,0,0
42242,-100,4,2,1,40,0,0
45285,-200,4,2,1,40,0,0
47025,-200,4,2,1,55,0,0
47459,-100,4,2,1,55,0,0
48764,-200,4,2,1,55,0,0
50068,-100,4,2,1,70,0,0
55720,-100,4,1,0,55,0,0
57459,-100,4,2,1,70,0,0
57672,-100,4,2,1,70,0,1
57894,-100,4,2,1,70,0,0
71264,-200,4,2,1,55,0,0
73872,-100,4,2,1,70,0,0
74742,-200,4,2,1,55,0,0
77351,-100,4,2,1,70,0,0
83546,-100,4,1,0,55,0,0
85285,-100,4,2,1,70,0,0
85498,-100,4,2,1,70,0,1
85720,-100,4,2,1,70,0,0
98546,-100,4,2,1,55,0,0
99090,-200,4,2,1,55,0,0
107459,-100,4,2,1,40,0,0
108764,-100,4,2,1,20,0,0
113546,-100,4,2,1,55,0,0
120720,-100,4,2,1,40,0,0
121590,-100,4,2,1,55,0,0
123111,-100,4,2,1,40,0,0
125285,-200,4,2,1,40,0,0
127459,-100,4,2,1,40,0,0
130068,-100,4,2,1,55,0,0
133981,-200,4,2,1,55,0,0
136155,-100,4,2,1,40,0,0
139198,-200,4,2,1,55,0,0
141372,-100,4,2,1,55,0,0
143546,-200,4,2,1,55,0,0
145720,-100,4,2,1,55,0,0
147894,-100,4,2,1,70,0,0
149416,-100,4,1,0,55,0,0
151372,-100,4,2,1,40,0,0
154851,-200,4,2,1,40,0,0
157024,-100,4,2,1,40,0,0
157894,-100,4,2,1,55,0,0
161807,-200,4,2,1,55,0,0
163981,-100,4,2,1,40,0,0
165285,-200,4,2,1,40,0,0
167459,-100,4,2,1,55,0,0
168764,-200,4,2,1,55,0,0
170938,-100,4,2,1,55,0,0
171807,-100,4,2,1,70,0,0
173872,-200,4,2,1,70,0,0
175177,-100,4,2,1,70,0,0
177459,-100,4,1,0,55,0,0
179198,-100,4,2,1,70,0,0
179411,-100,4,2,1,70,0,1
179633,-100,4,2,1,70,0,0
205720,-100,4,1,0,55,0,0
207024,-100,4,2,1,70,0,0
207237,-100,4,2,1,70,0,1
210285,-200,4,2,1,70,0,1
212894,-100,4,2,1,70,0,1
225285,-200,4,2,1,70,0,1
226590,-100,4,2,1,70,0,1
229198,-100,4,2,1,55,0,1
230068,-200,4,2,1,55,0,1
231372,-100,4,2,1,20,0,1
233546,-200,4,2,1,40,0,0
247894,-200,4,2,1,55,0,0

[Colours]
Combo1 : 0,255,0
Combo2 : 255,128,192
Combo3 : 0,128,255
Combo4 : 255,255,89
Combo5 : 255,85,85

[HitObjects]
75,290,29411,1,0
147,323,29846,2,0,B|252:343|352:320,1,200,0|2
419,290,31150,1,0
481,239,31585,2,0,B|536:135|464:36,1,200,0|2
394,32,32889,1,0
314,34,33324,2,0,B|175:81|278:215|111:265,1,300,0|2
60,284,36367,5,0
43,205,36802,2,0,B|46:86|154:42,1,200,0|2
223,36,38106,1,0
204,113,38541,2,0,B|175:210|273:318,1,200,0|2
315,352,39846,1,0
394,342,40280,2,0,B|487:276|461:142,1,200,0|2
452,87,42454,5,0
379,52,42889,2,0,B|352:35|315:34,2,50
343,123,43759,1,2
416,155,44193,2,0,B|444:163|474:186,2,50
378,225,45063,1,2
337,294,45498,6,0,B|249:345|143:328,1,200,0|2
72,292,47672,2,0,B|41:274|30:252,2,50
139,248,48541,1,2
218,239,48976,2,0,B|278:233|330:196,1,100
380,165,50280,5,0
317,114,50715,2,0,B|236:55|124:62,1,200,0|2
48,70,52019,1,0
35,148,52454,2,0,B|18:270|121:332,1,200,0|2
181,351,53759,5,0
260,363,54193,2,0,B|376:380|469:311,1,200,0|2
511,268,55498,1,0
473,197,55933,5,0
423,259,56367,1,0
383,189,56802,1,0
348,168,57019,1,0
312,149,57237,1,0
232,145,57672,6,0,B|238:261|358:310,1,200,0|2
413,331,58976,1,0
428,252,59411,2,0,B|425:136|302:87,1,200,0|2
245,67,60715,5,0
165,70,61150,1,0
102,120,61585,1,0
178,142,62019,2,0,B|284:158|346:243|276:368|201:379|97:324,1,400,2|2
46,291,64193,5,0
30,212,64628,2,0,B|8:108|49:42|135:6|219:19|297:81,1,400,0|2
367,101,66802,1,0
444,120,67237,6,0,B|534:215|492:318|432:369|365:381|271:335,1,400,0|2
208,340,69411,1,0
242,267,69846,1,0
321,273,70280,1,0
400,260,70715,5,2
400,260,70933,1,0
400,260,71150,1,0
399,260,71367,2,0,B|446:236|458:194,1,75,2|0
478,179,72237,2,0,B|508:82|427:13,1,175,2|0
354,21,74193,5,2
354,21,74411,1,0
354,21,74628,1,0
355,21,74846,2,0,B|337:69|288:85,1,75,2|0
271,94,75715,2,0,B|167:139|154:225,1,175,2|0
146,295,77672,1,2
74,331,78106,5,0
41,257,78541,2,0,B|13:148|73:59,1,200,0|2
139,26,79846,2,0,B|181:13|254:25,3,100,0|2|0|2
317,35,81585,5,0
262,93,82020,2,0,B|168:149|145:254,1,200,0|2
155,328,83324,1,0
228,296,83759,5,0
228,296,84193,1,0
298,333,84628,1,0
298,333,84846,1,0
298,333,85063,1,0
360,282,85498,6,0,B|250:66|152:342|28:130,1,400,0|2
64,64,87672,1,0
135,27,88106,6,0,B|347:-114|260:217|482:59,1,400,0|2
494,142,90280,1,0
501,221,90715,1,0
458,288,91150,1,0
386,324,91585,1,2
306,335,92020,6,0,B|185:354|100:283,2,200,0|2|0
386,324,94193,1,0
462,299,94628,1,0
402,245,95063,2,0,B|456:219|475:161,1,100,2|0
450,96,95933,2,0,B|338:113|293:226,1,200,2|0
315,226,97020,1,0
315,226,97237,1,0
315,226,97454,1,0
316,227,97672,2,0,B|300:287|223:297,1,100,2|0
167,301,98541,6,0,B|150:357,2,50
132,281,99193,2,0,B|81:271|68:215,1,75,2|0
50,205,100063,2,0,B|5:150|39:77,1,125,2|0
93,32,101585,1,0
130,102,102020,5,2
200,64,102454,1,0
244,130,102889,1,0
321,111,103324,1,0
388,68,103759,2,0,B|443:68|486:110,1,100,2|2
457,180,105063,1,0
488,253,105498,1,0
424,301,105933,1,0
344,292,106367,2,0,B|284:299|253:254,1,100,2|0
195,204,107672,6,0,B|138:216,2,50
275,184,108541,1,2
256,192,108976,12,0,113324
176,272,120280,5,2
336,272,121150,1,2
336,112,122020,1,2
176,112,122889,1,2
111,159,123324,5,0
117,238,123759,2,0,B|179:317|314:317,1,200,0|2
373,319,125063,1,0
414,250,125498,2,0,B|475:238|528:269,2,100,0|0|2
375,180,127672,1,0
430,122,128106,1,0
387,54,128541,2,0,B|227:19|84:53,1,300,2|2
24,98,130280,5,0
34,177,130715,2,0,B|131:124|248:136,1,200,2|2
306,132,132020,1,0
377,168,132454,1,0
414,238,132889,1,0
403,317,133324,1,0
335,360,133759,1,0
255,368,134193,2,0,B|154:382|52:346,1,200,2|2
27,273,136367,5,0
36,193,136802,2,0,B|91:183|145:207,3,100,2|0|2|0
180,267,138541,1,0
228,203,138976,1,0
187,134,139411,6,0,B|277:107|398:154,1,200,2|2
368,227,141585,2,0,B|313:236|267:206,2,100,0|2|0
435,183,142889,1,2
465,257,143324,1,0
447,335,143759,6,0,B|339:363|227:317,1,200,2|2
172,345,145933,1,0
117,286,146367,2,0,B|56:273|25:229,3,100,2|0|2|0
64,164,148106,5,2
190,66,148976,1,2
194,226,149846,1,0
267,258,150280,1,0
333,158,150933,1,0
333,158,151150,1,0
276,101,151585,6,0,B|213:43|156:104|78:30,1,200,0|2
12,22,152889,1,0
2,101,153324,2,0,B|-4:188|121:159|113:275,1,200,0|2
43,293,154628,1,0
102,346,155063,2,0,B|201:366|309:347,1,200,0|2
375,376,157237,1,0
364,296,157672,1,0
288,270,158106,5,0
208,274,158541,2,0,B|109:231|71:116,1,200,2|2
0,103,159846,1,0
61,51,160280,1,0
137,76,160715,1,0
191,17,161150,1,0
266,42,161585,1,0
245,119,162020,2,0,B|267:205|331:189|363:287,1,200,2|0
371,357,164193,5,0
451,357,164628,2,0,B|476:355|507:362,2,50,2|0|0
466,278,165498,2,0,B|480:167|435:77,1,200,2|2
368,42,167672,5,0
288,48,168106,2,0,B|254:38|245:8,2,50,2|0|0
277,127,168976,2,0,B|223:204|106:242,1,200,2|2
48,194,171150,1,0
36,273,171585,1,0
102,318,172020,5,0
153,379,172454,2,0,B|205:382|254:352,1,100,2|0
255,315,173106,2,0,B|308:260|406:251,1,150,2|0
419,277,173976,2,0,B|480:242|508:161,1,125,2|0
507,144,175280,6,0,B|518:113|514:85,2,50,2|0|0
468,155,175933,2,0,B|421:133|368:132,1,100,2|0
337,153,176585,2,0,B|247:172|170:125,1,150,2|0
118,102,177672,5,0
67,164,178106,1,0
177,211,178759,1,0
190,248,178976,1,0
269,258,179411,6,0,B|319:249|381:261,1,100,2|0
417,322,180280,2,0,B|370:342|304:349,1,100,2|0
240,353,181150,2,0,B|178:351|125:333,1,100,2|0
71,298,182020,6,0,B|22:264|15:202,3,100,2|0|2|0
7,137,183759,2,0,B|111:11|270:243|388:104,1,400,2|0
419,47,185933,6,0,B|471:43|515:85,1,100,0|2
494,239,187237,1,0
377,348,188106,1,2
217,349,188976,1,0
75,274,189846,2,0,B|5:198|0:88,1,200,2|0
42,25,191150,1,0
119,44,191585,2,0,B|188:104|206:228,1,200,2|0
159,286,192889,5,0
227,327,193324,2,0,B|330:355|449:339,2,200,2|0|2
229,246,195498,1,0
283,187,195933,6,0,B|386:215|503:196,2,200,2|0|2
262,109,198106,1,0
302,39,198541,2,0,B|202:16|102:39,1,200,2|2
46,95,199846,6,0,B|7:198|32:300,2,200,0|2|0
104,40,202020,2,0,B|123:17|160:8,2,50,2|0|0
141,110,202889,1,2
116,186,203324,6,0,B|221:193|322:251,2,200,0|2|0
66,249,205498,5,2
119,308,205933,1,0
153,328,206150,1,0
191,317,206367,1,0
223,340,206585,1,0
259,322,206802,1,0
335,345,207237,6,0,B|238:370|124:345,1,200,2|2
23,233,208976,2,0,B|105:267|229:270,1,200,2|2
356,187,210715,2,0,B|246:197|138:177,1,200,2|2
3,133,213324,5,2
64,81,213759,2,0,B|109:59|165:62,2,100
92,155,215063,2,0,B|203:159|300:205,1,200,2|0
432,263,216802,1,2
446,103,217672,2,0,B|461:46|515:5,2,100,2|0|0
460,119,218759,1,0
460,119,218976,1,0
460,119,219193,1,0
460,119,219411,6,0,B|431:200|446:231|403:331,1,200,2|0
332,337,220715,1,0
254,356,221150,2,0,B|196:365|146:344,1,100,2|0
81,316,222020,1,0
27,256,222454,2,0,B|9:210|20:153,1,100,0|2
45,82,223324,1,0
115,45,223759,6,0,B|165:30|227:44,2,100,0|0|2
45,82,225063,1,0
98,141,225498,2,0,B|127:178|190:191,1,100,0|2
262,175,226802,1,0
316,233,227237,1,0
386,195,227672,1,0
442,251,228106,2,0,B|387:332|266:343,1,200,2|0
199,335,229411,6,0,B|175:393,2,50,0|0|0
127,299,230280,2,0,B|76:276|54:229,1,100,0|2
256,192,231585,12,0,233324
152,153,234193,6,0,B|202:116|302:161|358:117,1,200,2|2
368,47,236367,1,0
426,101,236802,1,0
409,179,237237,1,0
460,239,237672,6,0,B|378:294|348:240|261:292,1,200,2|2
273,367,239846,1,0
199,335,240280,1,0
195,255,240715,1,0
147,190,241150,6,0,B|202:181|250:151,1,100,2|0
201,86,242454,2,0,B|245:62|357:65,1,150,0|2
421,96,244193,1,0
479,150,244628,2,0,B|525:211|510:303,1,150,2|0
443,334,246367,2,0,B|419:344|386:344,2,50,2|0|2
410,260,247672,1,0
430,182,248106,5,2
430,182,248324,1,0
430,182,248541,1,0
431,183,248759,2,0,B|388:170|367:132,1,75,2|0
339,116,249628,2,0,B|281:131|282:55|221:69,1,125,2|0
151,74,251150,1,0
89,125,251585,5,2
87,205,252020,1,0
136,267,252454,2,0,B|187:289|246:268,1,100,2|0
309,246,253759,1,0
377,204,254193,2,0,B|444:161|381:75|459:26,1,200,2|0
447,268,257237,5,0
410,285,257454,1,0
372,299,257672,2,0,B|320:317|264:295,1,100,2|0
256,192,259411,12,0,266367
