osu file format v7

[General]
AudioFilename: Takara Mono.mp3
AudioLeadIn: 0
PreviewTime: 205720
Countdown: 0
SampleSet: Soft
StackLeniency: 0.7
Mode: 0
LetterboxInBreaks: 1

[Editor]
DistanceSpacing: 1
BeatDivisor: 4
GridSize: 8

[Metadata]
Title:Takara Mono
Artist:Nana Mizuki
Creator:kodomonoyume
Version:Hard
Source:
Tags:

[Difficulty]
HPDrainRate:7
CircleSize:5
OverallDifficulty:6
SliderMultiplier:1
SliderTickRate:1

[Events]
//Background and Video events
0,0,"bg.jpg"
//Break Periods
2,113524,119230
//Storyboard Layer 0 (Background)
//Storyboard Layer 1 (Fail)
//Storyboard Layer 2 (Pass)
//Storyboard Layer 3 (Foreground)
//Storyboard Sound Samples
//Background Colour Transformations
3,100,192,192,192

[TimingPoints]
2020,434.782608695652,4,2,1,40,1,0
33220,-200,4,2,1,40,0,0
36155,-100,4,2,1,55,0,0
40068,-200,4,2,1,55,0,0
42242,-100,4,2,1,40,0,0
44851,-200,4,2,1,40,0,0
45720,-100,4,2,1,55,0,0
48764,-200,4,2,1,55,0,0
50068,-100,4,2,1,40,0,0
52133,-200,4,2,1,40,0,0
53438,-200,4,2,1,55,0,0
55829,-100,4,1,0,55,0,0
57459,-100,4,2,1,70,0,0
57672,-100,4,2,1,70,0,1
57894,-100,4,2,1,70,0,0
70503,-100,4,2,1,55,0,0
71264,-200,4,2,1,55,0,0
73981,-200,4,2,1,40,0,0
77894,-100,4,2,1,55,0,0
83546,-100,4,1,0,55,0,0
85285,-100,4,2,1,70,0,0
85498,-100,4,2,1,70,0,1
85720,-100,4,2,1,70,0,0
99090,-200,4,2,1,55,0,0
107459,-200,4,2,1,40,0,0
109198,-100,4,2,1,20,0,0
119851,-100,4,2,1,55,0,0
120720,-100,4,2,1,40,0,0
121590,-100,4,2,1,55,0,0
122459,-100,4,2,1,70,0,0
123111,-100,4,2,1,40,0,0
126155,-200,4,2,1,40,0,0
127459,-100,4,2,1,40,0,0
128329,-200,4,2,1,40,0,0
130068,-100,4,2,1,55,0,0
133981,-200,4,2,1,55,0,0
136155,-100,4,2,1,40,0,0
139633,-100,4,2,1,55,0,0
142242,-200,4,2,1,55,0,0
143546,-100,4,2,1,55,0,0
143981,-100,4,2,1,40,0,0
147894,-100,4,2,1,70,0,0
148546,-100,4,2,1,55,0,0
149416,-100,4,1,0,55,0,0
151372,-100,4,2,1,40,0,0
157894,-100,4,2,1,55,0,0
163981,-100,4,2,1,40,0,0
166590,-200,4,2,1,40,0,0
167894,-100,4,2,1,40,0,0
171807,-100,4,2,1,55,0,0
173886,-200,4,2,1,55,0,0
175177,-100,4,2,1,55,0,0
177568,-100,4,1,0,55,0,0
179198,-100,4,2,1,70,0,0
179411,-100,4,2,1,70,0,1
179851,-100,4,2,1,70,0,0
192242,-100,4,2,1,55,0,0
195720,-100,4,2,1,40,0,0
199633,-100,4,2,1,55,0,0
205285,-100,4,2,1,70,0,0
205720,-100,4,1,0,55,0,0
207025,-100,4,2,1,70,0,0
207237,-100,4,2,1,70,0,1
210503,-200,4,2,1,70,0,1
212568,-100,4,2,1,70,0,1
219851,-100,4,2,1,55,0,1
225285,-200,4,2,1,55,0,1
226590,-100,4,2,1,55,0,1
229198,-100,4,2,1,40,0,1
230503,-100,4,2,1,20,0,1
233546,-200,4,2,1,40,0,0
247894,-200,4,2,1,55,0,0
256807,-200,4,2,1,40,0,0
258111,-200,4,2,1,25,0,0
258438,-200,4,2,1,40,0,0
258981,-200,4,2,1,55,0,0

[Colours]
Combo1 : 0,255,0
Combo2 : 255,128,192
Combo3 : 0,128,255
Combo4 : 255,255,89
Combo5 : 255,85,85

[HitObjects]
3,311,29411,1,0
90,359,29846,2,0,B|137:373|195:359,1,100,2|0
206,313,30498,2,0,B|277:292|360:313,1,150,0|0
374,357,31367,2,0,B|457:347|508:279,1,150,0|0
431,215,32454,1,2
504,147,32889,1,0
508,97,33106,1,0
477,56,33324,2,0,B|385:106|283:-18|183:31,1,300,2|2
97,73,36367,5,0
37,151,36802,2,0,B|84:170|160:152,1,100,2|0
173,124,37454,2,0,B|250:108|339:129,1,150,0|0
357,160,38324,2,0,B|441:177|511:149,1,150,0|0
510,51,39411,1,2
412,27,39846,1,0
312,18,40280,2,0,B|237:12|187:90|116:84,1,200,2|2
31,53,42454,5,0
8,150,42889,1,0
8,150,43106,1,0
8,150,43324,1,0
101,185,43759,1,2
28,253,44193,1,0
28,253,44411,1,0
28,253,44628,1,0
115,302,45063,2,0,B|136:316|169:311,1,50,2|0
263,313,45933,5,0
195,239,46367,1,0
195,239,46585,1,0
195,239,46802,1,0
287,201,47237,1,2
223,123,47672,1,0
223,123,47889,1,0
223,123,48106,1,0
318,91,48541,1,2
415,114,48976,2,0,B|429:165|405:214,1,100,0|2
359,299,50280,5,0
267,339,50715,2,0,B|215:354|146:334,1,100,2|0
120,325,51367,2,0,B|52:282|37:191,1,150,0|0
39,153,52237,2,0,B|36:78|101:25,1,125,0|0
126,13,53541,5,0
162,47,53759,1,0
201,16,53976,1,0
237,49,54193,2,0,B|264:59|295:46,1,50,2|0
323,16,54846,2,0,B|361:5|406:24,1,75,0|0
437,49,55715,1,0
403,86,55933,5,0
473,156,56367,1,0
376,182,56802,1,0
418,208,57019,1,0
461,232,57237,1,0
471,331,57672,6,0,B|418:316|366:324,1,100,2|0
279,361,58541,2,0,B|222:367|177:352,1,100,2|0
241,273,59411,2,0,B|160:256|111:216|78:141,1,200,2|0
102,59,60715,5,0
102,59,60933,1,0
183,116,61367,1,0
183,116,61585,1,0
250,42,62019,2,0,B|307:86|381:29|450:75,1,200,2|2
467,168,63324,1,0
491,211,63541,1,0
464,253,63759,1,0
506,343,64193,5,0
409,369,64628,2,0,B|343:387|285:369,1,100,2|0
240,303,65498,2,0,B|298:327|360:318,1,100,2|0
437,313,66367,1,2
372,236,66802,1,0
418,219,67019,1,0
433,171,67237,2,0,B|371:123|296:162|232:117,1,200,2|2
184,41,68541,5,0
2,124,68976,1,2
45,319,69411,1,0
239,364,69846,1,2
421,282,70280,1,0
483,203,70715,5,2
483,203,70933,1,0
483,203,71150,1,0
482,204,71367,2,0,B|512:164|513:124,1,75,2|0
489,38,72454,1,2
442,20,72672,1,0
392,18,72889,1,0
291,20,73324,2,0,B|263:14|236:27,1,50,2|0
298,106,74193,5,2
298,106,74411,1,0
298,106,74628,1,0
299,106,74846,2,0,B|281:154|232:170,1,75,2|0
151,168,75933,1,2
115,202,76150,1,0
147,239,76367,1,0
240,275,76802,2,0,B|272:295|307:266|343:286,1,100,2|2
424,333,78106,5,0
489,257,78541,2,0,B|439:263|384:246,1,100,2|0
391,197,79193,2,0,B|313:179|235:183,1,150,0|0
148,218,80280,1,2
103,194,80498,1,0
67,229,80715,1,0
30,322,81150,1,2
120,365,81585,5,0
219,358,82020,2,0,B|266:367|323:355,1,100,2|0
323,306,82672,2,0,B|402:308|474:275,1,150,0|0
501,182,83759,5,0
414,132,84193,1,0
479,56,84628,1,0
479,56,84846,1,0
479,56,85063,1,0
387,14,85498,6,0,B|324:47|263:18|190:53,2,200,2|0|2
414,55,87454,1,0
387,97,87672,1,0
439,181,88106,6,0,B|376:214|315:185|242:220,2,200,2|0|2
482,271,90280,1,0
469,319,90498,1,0
430,351,90715,1,2
383,369,90933,1,0
333,368,91150,1,0
246,318,91585,1,2
326,258,92020,6,0,B|261:221|191:249|120:206,2,200,0|0|0
409,312,94193,1,2
503,194,94846,1,0
503,194,95063,1,0
413,150,95498,1,0
413,150,95715,1,0
473,70,96150,6,0,B|408:42|342:87|316:53,1,150,0|2
278,44,97020,1,0
251,86,97237,1,0
203,70,97454,1,0
179,114,97672,2,0,B|128:142|63:128,3,100,2|0|2|0
46,165,99193,6,0,B|64:201|120:211,1,75,0|0
147,233,100063,2,0,B|122:266|72:266,1,75,0|0
6,331,101150,1,2
44,362,101367,1,0
93,357,101585,1,0
177,303,102020,5,2
270,338,102454,1,0
305,244,102889,1,2
396,285,103324,1,0
412,186,103759,2,0,B|457:166|511:172,1,100,2|2
450,252,105063,1,0
511,330,105498,1,2
467,354,105715,1,0
418,365,105933,1,0
318,367,106367,2,0,B|258:374|215:342,1,100,2|0
151,275,107672,5,0
197,257,107889,1,0
207,208,108106,2,0,B|257:197|316:210,1,100,2|0
256,192,109411,12,0,113324
444,333,120280,5,2
48,270,121150,1,2
431,154,122020,1,2
39,72,122889,1,2
132,35,123324,5,0
230,18,123759,2,0,B|283:6|336:22,1,100,2|0
421,56,124628,1,2
488,129,125063,1,0
498,177,125280,1,0
496,227,125498,1,0
450,315,125933,1,2
360,360,126367,2,0,B|307:376|256:364,1,100,0|2
166,342,127672,1,0
244,280,128106,1,0
342,294,128541,2,0,B|426:296|499:255,1,150,2|2
418,188,130280,5,0
489,118,130715,1,2
419,45,131150,2,0,B|440:28|476:25,2,50
319,59,132020,1,2
319,59,132237,1,0
319,59,132454,1,0
244,126,132889,1,0
305,204,133324,1,2
228,268,133759,1,0
275,355,134193,2,0,B|167:367|77:330,1,200,2|2
0,268,136367,5,0
76,203,136802,1,2
125,194,137020,1,0
173,207,137237,1,0
256,262,137672,2,0,B|305:279|366:261,3,100,2|0|2|0
441,214,139411,1,2
357,158,139846,5,0
258,144,140280,2,0,B|229:142|196:129,2,50
357,157,141150,1,2
454,133,141585,1,0
440,85,141802,1,0
394,62,142020,1,0
295,78,142454,2,0,B|241:95|176:73,1,100,2|0
100,50,143759,1,2
37,127,144193,5,0
57,172,144411,1,0
99,198,144628,1,2
187,244,145063,1,0
229,270,145280,1,0
251,314,145498,1,2
162,359,145933,1,0
114,344,146150,1,0
72,316,146367,2,0,B|28:283|15:226,3,100,2|0|2|0
51,140,148106,5,2
224,40,148976,1,2
421,73,149846,1,0
490,144,150280,1,0
492,194,150498,1,0
465,290,150933,1,0
442,334,151150,1,0
342,347,151585,6,0,B|261:377|226:308|131:338,1,200,2|2
46,324,152889,2,0,B|25:355|13:388,1,50,0|0
99,305,153541,2,0,B|116:278|128:248,1,50,0|0
117,160,154193,1,2
180,237,154628,1,0
213,274,154846,1,0
256,297,155063,2,0,B|355:317|463:294,1,200,2|0
391,218,156367,1,2
487,192,156802,1,0
499,143,157020,1,0
473,100,157237,1,0
399,31,157672,1,2
350,117,158106,5,0
376,213,158541,2,0,B|322:229|255:207,1,100,2|0
227,205,159193,1,0
178,192,159411,1,0
78,182,159846,2,0,B|45:238,1,50,0|0
102,138,160498,2,0,B|127:94,1,50,0|0
62,18,161150,1,2
158,42,161585,1,0
242,96,162020,1,2
308,170,162454,1,0
337,265,162889,1,2
333,364,163324,1,0
233,372,163759,6,0,B|177:378|131:365,1,100,2|0
57,301,164628,2,0,B|32:295|7:297,2,50
149,261,165498,1,2
71,197,165933,1,0
71,197,166150,1,0
71,197,166367,1,0
162,157,166802,2,0,B|136:106|91:83,1,100,2|0
1,49,168106,5,2
59,130,168541,2,0,B|96:175,2,50,0|0|2
1,49,169411,1,0
1,49,169628,1,0
1,49,169846,1,0
5,148,170280,1,2
39,242,170715,1,0
71,280,170933,1,0
116,301,171150,1,0
215,311,171585,1,2
300,258,172020,5,0
301,158,172454,2,0,B|274:104|219:95,1,100,2|0
177,88,173106,2,0,B|117:90|87:106|52:160,1,150,0|0
40,206,173976,2,0,B|22:279|85:339,1,125,0|2
106,356,175280,5,0
106,356,175498,1,0
106,356,175715,1,0
106,355,175933,2,0,B|152:377|214:368,1,100,2|0
253,365,176585,2,0,B|335:349|390:289,1,150,0|0
430,280,177454,1,0
389,250,177672,5,0
421,344,178106,1,0
493,275,178541,1,0
455,308,178759,1,0
421,344,178976,1,0
321,354,179411,6,0,B|266:342|239:289,1,100,2|0
267,252,180063,1,0
290,208,180280,2,0,B|267:162|212:150,1,100,2|0
168,173,180933,1,0
124,198,181150,2,0,B|69:186|42:133,1,100,2|0
4,49,182020,1,0
4,49,182237,1,0
101,24,182672,1,0
101,24,182889,1,0
70,119,183324,1,0
28,146,183541,1,0
28,196,183759,2,0,B|144:277|305:135|420:231,1,400,2|2
488,293,185933,5,0
396,332,186367,2,0,B|344:360|286:363,1,100,2|0
200,364,187237,1,2
105,331,187672,2,0,B|81:354|50:366,2,50,0|0|0
193,284,188541,2,0,B|222:289|260:301,2,50,0|0|0
103,239,189411,2,0,B|73:254|47:254,1,50
7,239,189846,2,0,B|-32:143|0:38,1,200,2|2
93,11,191150,1,0
58,104,191585,1,0
107,109,191802,1,0
153,91,192020,1,0
92,11,192454,1,2
107,109,192889,5,0
102,208,193324,2,0,B|144:240|210:246,1,100,2|0
293,256,194193,2,0,B|325:259|364:250,2,50,2|0|0
225,181,195063,1,2
315,138,195498,1,0
253,58,195933,5,2
253,58,196150,1,0
253,58,196367,1,0
253,58,196585,2,0,B|336:67|427:43,1,150,2|0
498,21,197672,1,2
504,70,197889,1,0
477,112,198106,1,0
385,153,198541,5,2
279,322,198976,1,0
187,143,199411,1,2
386,153,199846,5,0
424,245,200280,2,0,B|443:293|444:350,1,100,2|0
395,355,200933,2,0,B|380:268|321:219,1,150,0|0
277,137,202020,2,0,B|296:114|333:105,2,50,2|0|0
207,208,202889,1,2
306,217,203324,6,0,B|411:224|512:282,2,200,0|0|0
206,208,205498,5,2
270,284,205933,1,0
223,302,206150,1,0
173,299,206367,1,0
131,270,206585,1,0
110,224,206802,1,0
37,153,207237,6,0,B|15:254|40:351,1,200,2|0
140,349,208541,1,0
239,352,208976,2,0,B|214:255|236:153,1,200,2|0
335,165,210280,1,0
434,153,210715,2,0,B|411:254|436:351,1,200,2|2
485,364,212672,1,0
498,316,212889,1,0
500,215,213324,5,2
417,271,213759,2,0,B|372:306|346:354,2,100,0|2|0
353,194,215063,2,0,B|251:178|141:222,2,200,2|2|2
434,136,217237,2,0,B|399:91|344:79,3,100,0|2|0|2
316,115,218759,1,0
285,75,218976,1,0
246,107,219193,1,0
216,66,219411,6,0,B|137:78|94:35|-3:40,1,200,2|2
2,138,220715,1,0
91,182,221150,2,0,B|117:176|145:165,2,50,2|0|0
25,258,222020,1,2
80,341,222454,1,0
127,325,222672,1,0
154,366,222889,1,2
197,341,223106,1,0
232,376,223324,1,0
331,379,223759,6,0,B|379:385|435:363,3,100,2|0|2|0
504,300,225498,2,0,B|518:254|512:198,1,100,2|2
484,105,226802,1,0
449,68,227020,1,0
399,66,227237,1,2
326,134,227672,1,0
331,233,228106,2,0,B|259:267|196:202|111:237,1,200,2|2
64,302,229411,5,0
93,342,229628,1,0
138,364,229846,2,0,B|186:382|252:370,1,100,2|0
256,192,230715,12,0,233324
20,57,234193,6,0,B|42:40|68:36,1,50,2|0
113,23,234846,2,0,B|175:12|246:19,1,125,0|2
337,24,236367,1,0
386,34,236585,1,0
431,53,236802,1,2
495,129,237237,1,0
511,227,237672,6,0,B|511:255|507:286,1,50,2|0
484,321,238324,2,0,B|457:351|416:365,1,75,0|0
323,373,239411,1,2
222,374,239846,1,0
172,371,240063,1,0
122,363,240280,1,2
73,350,240498,1,0
29,325,240715,1,0
3,228,241150,1,2
25,130,241585,6,0,B|43:113|79:102,1,50,0|2
164,77,242454,1,0
213,71,242672,1,0
312,71,243106,1,0
359,86,243324,1,0
441,143,243759,2,0,B|457:180|442:222,1,75,2|0
413,256,244628,2,0,B|352:302|260:293,1,150,2|0
171,282,246367,2,0,B|140:281|115:258,2,50,2|0|2
270,294,247672,1,0
369,282,248106,5,2
369,282,248324,1,0
369,282,248541,1,0
369,282,248759,2,0,B|412:269|433:231,1,75,2|0
450,194,249628,2,0,B|456:163|470:136,1,50,0|0
489,102,250280,1,2
508,55,250498,2,0,B|478:30|437:21,1,75,0|0
341,15,251585,5,2
242,34,252020,1,0
142,46,252454,2,0,B|102:53|65:50,1,75,2|0
22,72,253324,2,0,B|-2:121|9:174,1,100,2|2
26,267,254628,2,0,B|67:338|154:347,1,150,0|2
446,327,257237,5,0
427,280,257454,1,0
378,293,257672,2,0,B|339:283|313:248,1,75,2|0
333,205,258541,2,0,B|300:167|263:156,1,75,2|0
256,192,259411,12,0,266367
