osu file format v12

[General]
AudioFilename: 192Synchrogazer.mp3
AudioLeadIn: 0
PreviewTime: 58547
Countdown: 0
SampleSet: None
StackLeniency: 0.7
Mode: 3
LetterboxInBreaks: 1
SpecialStyle: 0
WidescreenStoryboard: 1

[Editor]
DistanceSpacing: 1
BeatDivisor: 8
GridSize: 8

[Metadata]
Title:Synchrogazer
TitleUnicode:Synchrogazer
Artist:Nana Mizuki
ArtistUnicode:Nana Mizuki
Creator:Zillah
Version:hehe
Source:
Tags:
BeatmapID:370951
BeatmapSetID:139348

[Difficulty]
HPDrainRate:8
CircleSize:7
OverallDifficulty:7
ApproachRate:5
SliderMultiplier:1.4
SliderTickRate:1

[Events]
//Background and Video events
0,0,"1457480_684839114869609_1281267853_n.jpg",0,0
//Break Periods
//Storyboard Layer 0 (Background)
//Storyboard Layer 1 (Fail)
//Storyboard Layer 2 (Pass)
//Storyboard Layer 3 (Foreground)
//Storyboard Sound Samples
//Background Colour Transformations
3,100,163,162,255

[TimingPoints]
623,377.358490566038,4,2,0,30,1,0
7226,-400,4,2,0,30,0,0
7273,-133.333333333333,4,2,0,30,0,0
7321,-66.6666666666667,4,2,0,30,0,0
7415,-400,4,2,0,30,0,0
7462,-133.333333333333,4,2,0,30,0,0
7509,-66.6666666666667,4,2,0,30,0,0
7604,-400,4,2,0,30,0,0
7651,-133.333333333333,4,2,0,30,0,0
7698,-66.6666666666667,4,2,0,30,0,0
7792,-400,4,2,0,30,0,0
7839,-133.333333333333,4,2,0,30,0,0
8170,-100,4,2,0,30,0,0
8358,-200,4,2,0,30,0,0
8641,-50,4,2,0,30,0,0
8704,-100,4,2,0,30,0,0
28170,-133.333333333333,4,2,0,30,0,0
28358,-80,4,2,0,30,0,0
28547,-133.333333333333,4,2,0,30,0,0
28641,-100,4,2,0,30,0,0
28736,-133.333333333333,4,2,0,30,0,0
28924,-80,4,2,0,30,0,0
29113,-200,4,2,0,30,0,0
29207,-66.6666666666667,4,2,0,30,0,0
29302,-100,4,2,0,30,0,0
29325,-200,4,2,0,30,0,0
29420,-50,4,2,0,30,0,0
29490,-100,4,2,0,30,0,0
29514,-200,4,2,0,30,0,0
29585,-50,4,2,0,30,0,0
29679,-100,4,2,0,30,0,0
29703,-200,4,2,0,30,0,0
29773,-50,4,2,0,30,0,0
29868,-100,4,2,0,30,0,0
34207,-133.333333333333,4,2,0,30,0,0
34396,-80,4,2,0,30,0,0
34585,-133.333333333333,4,2,0,30,0,0
34679,-100,4,2,0,30,0,0
34773,-133.333333333333,4,2,0,30,0,0
34868,-80,4,2,0,30,0,0
34962,-133.333333333333,4,2,0,30,0,0
35056,-80,4,2,0,30,0,0
35151,-133.333333333333,4,2,0,30,0,0
35245,-80,4,2,0,30,0,0
35339,-133.333333333333,4,2,0,30,0,0
35481,-80,4,2,0,30,0,0
35623,-133.333333333333,4,2,0,30,0,0
35764,-80,4,2,0,30,0,0
36094,-100,4,2,0,30,0,0
45740,-500,4,2,0,30,0,0
45906,-35.7142857142857,4,2,0,30,0,0
46094,-100,4,2,0,30,0,0
49207,-400,4,2,0,30,0,0
49302,-133.333333333333,4,2,0,30,0,0
49396,-133.333333333333,4,2,0,30,0,0
49490,-400,4,2,0,30,0,0
49538,-133.333333333333,4,2,0,30,0,0
49585,-66.6666666666667,4,2,0,30,0,0
49679,-400,4,2,0,30,0,0
49773,-133.333333333333,4,2,0,30,0,0
49868,-66.6666666666667,4,2,0,30,0,0
49962,-400,4,2,0,30,0,0
50056,-133.333333333333,4,2,0,30,0,0
50151,-66.6666666666667,4,2,0,30,0,0
50245,-400,4,2,0,30,0,0
50339,-66.6666666666667,4,2,0,30,0,0
50434,-100,4,2,0,30,0,0
57792,-66.6666666666667,4,2,0,30,0,0
57887,-133.333333333333,4,2,0,30,0,0
57934,-400,4,2,0,30,0,0
57981,-66.6666666666667,4,2,0,30,0,0
58028,-133.333333333333,4,2,0,30,0,0
58052,-400,4,2,0,30,0,0
58075,-66.6666666666667,4,2,0,30,0,0
58358,-133.333333333333,4,2,0,30,0,0
58453,-400,4,2,0,30,0,0
58547,-66.6666666666667,4,2,0,30,0,0
58594,-133.333333333333,4,2,0,30,0,0
58618,-400,4,2,0,30,0,0
58641,-100,4,2,0,30,0,0
65528,-400,4,2,0,30,0,0
65623,-133.333333333333,4,2,0,30,0,0
65717,-66.6666666666667,4,2,0,30,0,0
65811,-400,4,2,0,30,0,0
65906,-133.333333333333,4,2,0,30,0,0
66000,-66.6666666666667,4,2,0,30,0,0
66094,-100,4,2,0,30,0,0
67038,-400,4,2,0,30,0,0
67132,-133.333333333333,4,2,0,30,0,0
67226,-66.6666666666667,4,2,0,30,0,0
67321,-400,4,2,0,30,0,0
67415,-133.333333333333,4,2,0,30,0,0
67509,-66.6666666666667,4,2,0,30,0,0
67604,-100,4,2,0,30,0,0
70056,-200,4,2,0,30,0,0
70151,-66.6666666666667,4,2,0,30,0,0
70245,-200,4,2,0,30,0,0
70339,-66.6666666666667,4,2,0,30,0,0
70434,-200,4,2,0,30,0,0
70528,-66.6666666666667,4,2,0,30,0,0
70623,-200,4,2,0,30,0,0
70717,-66.6666666666667,4,2,0,30,0,0
70811,-200,4,2,0,30,0,0
70906,-66.6666666666667,4,2,0,30,0,0
71000,-200,4,2,0,30,0,0
71094,-66.6666666666667,4,2,0,30,0,0
71189,-200,4,2,0,30,0,0
71283,-66.6666666666667,4,2,0,30,0,0
71377,-200,4,2,0,30,0,0
71472,-66.6666666666667,4,2,0,30,0,0
71566,-100,4,2,0,30,0,0
80646,-50,4,2,0,30,0,0
80717,-200,4,2,0,30,0,0
80811,-100,4,2,0,30,0,0
80835,-50,4,2,0,30,0,0
80906,-200,4,2,0,30,0,0
81000,-100,4,2,0,30,0,0
81023,-50,4,2,0,30,0,0
81094,-200,4,2,0,30,0,0
81189,-100,4,2,0,30,0,0
81212,-50,4,2,0,30,0,0
81283,-200,4,2,0,30,0,0
81377,-100,4,2,0,30,0,0
83641,-400,4,2,0,30,0,0
83783,-133.333333333333,4,2,0,30,0,0
83877,-66.6666666666667,4,2,0,30,0,0
83924,-400,4,2,0,30,0,0
84066,-133.333333333333,4,2,0,30,0,0
84160,-66.6666666666667,4,2,0,30,0,0
84207,-400,4,2,0,30,0,0
84302,-133.333333333333,4,2,0,30,0,0
84349,-66.6666666666667,4,2,0,30,0,0
84396,-400,4,2,0,30,0,0
84538,-133.333333333333,4,2,0,30,0,0
84632,-66.6666666666667,4,2,0,30,0,0
84679,-400,4,2,0,30,0,0
84821,-133.333333333333,4,2,0,30,0,0
84915,-66.6666666666667,4,2,0,30,0,0
84962,-400,4,2,0,30,0,0
85056,-133.333333333333,4,2,0,30,0,0
85104,-66.6666666666667,4,2,0,30,0,0
85151,-100,4,2,0,30,0,0
86644,-100,4,2,0,30,0,0

[HitObjects]
36,192,623,128,0,2132:0:0:0:0:
475,192,623,128,0,2132:0:0:0:0:
109,192,623,1,0,0:0:0:0:
182,192,717,1,0,0:0:0:0:
402,192,811,1,0,0:0:0:0:
329,192,906,1,0,0:0:0:0:
109,192,1000,1,0,0:0:0:0:
182,192,1094,1,0,0:0:0:0:
402,192,1189,1,0,0:0:0:0:
329,192,1283,1,0,0:0:0:0:
109,192,1377,1,0,0:0:0:0:
182,192,1472,1,0,0:0:0:0:
402,192,1566,1,0,0:0:0:0:
329,192,1660,1,0,0:0:0:0:
109,192,1755,1,0,0:0:0:0:
182,192,1849,1,0,0:0:0:0:
402,192,1943,1,0,0:0:0:0:
182,192,2132,1,0,0:0:0:0:
329,192,2132,1,0,0:0:0:0:
182,192,2226,1,0,0:0:0:0:
329,192,2226,1,0,0:0:0:0:
402,192,2321,1,0,0:0:0:0:
475,192,2415,1,0,0:0:0:0:
109,192,2509,1,0,0:0:0:0:
256,192,2509,1,0,0:0:0:0:
402,192,2604,1,0,0:0:0:0:
475,192,2698,1,0,0:0:0:0:
36,192,2698,1,0,0:0:0:0:
109,192,2698,1,0,0:0:0:0:
475,192,2792,1,0,0:0:0:0:
36,192,2792,1,0,0:0:0:0:
402,192,2792,1,0,0:0:0:0:
329,192,2887,1,0,0:0:0:0:
256,192,2981,1,0,0:0:0:0:
329,192,3075,1,0,0:0:0:0:
402,192,3170,1,0,0:0:0:0:
36,192,3264,1,0,0:0:0:0:
182,192,3358,1,0,0:0:0:0:
109,192,3453,1,0,0:0:0:0:
256,192,3547,1,0,0:0:0:0:
109,192,3641,1,0,0:0:0:0:
182,192,3641,1,0,0:0:0:0:
329,192,3641,1,0,0:0:0:0:
402,192,3641,1,0,0:0:0:0:
402,192,3736,1,0,0:0:0:0:
329,192,3736,1,0,0:0:0:0:
182,192,3736,1,0,0:0:0:0:
109,192,3736,1,0,0:0:0:0:
182,192,3830,1,0,0:0:0:0:
36,192,3924,1,0,0:0:0:0:
329,192,4019,1,0,0:0:0:0:
475,192,4113,1,0,0:0:0:0:
36,192,4207,1,0,0:0:0:0:
109,192,4207,1,0,0:0:0:0:
475,192,4207,1,0,0:0:0:0:
402,192,4207,1,0,0:0:0:0:
329,192,4207,1,0,0:0:0:0:
36,192,4302,1,0,0:0:0:0:
109,192,4302,1,0,0:0:0:0:
402,192,4302,1,0,0:0:0:0:
475,192,4302,1,0,0:0:0:0:
182,192,4302,1,0,0:0:0:0:
256,192,4396,1,0,0:0:0:0:
182,192,4490,1,0,0:0:0:0:
36,192,4585,1,0,0:0:0:0:
475,192,4679,1,0,0:0:0:0:
402,192,4773,1,0,0:0:0:0:
329,192,4868,1,0,0:0:0:0:
256,192,4962,1,0,0:0:0:0:
329,192,5056,1,0,0:0:0:0:
36,192,5151,1,0,0:0:0:0:
109,192,5151,1,0,0:0:0:0:
182,192,5151,1,0,0:0:0:0:
475,192,5245,1,0,0:0:0:0:
402,192,5245,1,0,0:0:0:0:
329,192,5245,1,0,0:0:0:0:
182,192,5339,1,0,0:0:0:0:
36,192,5339,1,0,0:0:0:0:
256,192,5528,1,0,0:0:0:0:
402,192,5528,1,0,0:0:0:0:
475,192,5717,1,0,0:0:0:0:
402,192,5717,1,0,0:0:0:0:
329,192,5717,1,0,0:0:0:0:
182,192,5811,1,0,0:0:0:0:
109,192,5811,1,0,0:0:0:0:
36,192,5811,1,0,0:0:0:0:
402,192,5906,1,0,0:0:0:0:
329,192,6000,1,0,0:0:0:0:
36,192,6094,128,0,6660:0:0:0:0:
475,192,6094,128,0,6660:0:0:0:0:
256,192,6094,1,0,0:0:0:0:
329,192,6283,1,0,0:0:0:0:
109,192,6472,1,0,0:0:0:0:
402,192,6472,1,0,0:0:0:0:
402,192,6566,1,0,0:0:0:0:
109,192,6566,1,0,0:0:0:0:
109,192,6660,1,0,0:0:0:0:
402,192,6660,1,0,0:0:0:0:
109,192,6849,1,0,0:0:0:0:
402,192,6849,1,0,0:0:0:0:
109,192,6943,1,0,0:0:0:0:
402,192,6943,1,0,0:0:0:0:
402,192,7226,1,0,0:0:0:0:
109,192,7226,1,0,0:0:0:0:
36,192,7226,1,0,0:0:0:0:
109,192,7415,1,0,0:0:0:0:
402,192,7415,1,0,0:0:0:0:
182,192,7415,1,0,0:0:0:0:
109,192,7604,1,0,0:0:0:0:
402,192,7604,1,0,0:0:0:0:
329,192,7604,1,0,0:0:0:0:
109,192,7792,1,0,0:0:0:0:
402,192,7792,1,0,0:0:0:0:
475,192,7792,1,0,0:0:0:0:
475,192,7981,1,0,0:0:0:0:
36,192,7981,1,0,0:0:0:0:
402,192,8012,1,0,0:0:0:0:
109,192,8012,1,0,0:0:0:0:
329,192,8044,1,0,0:0:0:0:
182,192,8044,1,0,0:0:0:0:
402,192,8075,1,0,0:0:0:0:
256,192,8075,1,0,0:0:0:0:
475,192,8107,1,0,0:0:0:0:
182,192,8107,1,0,0:0:0:0:
402,192,8138,1,0,0:0:0:0:
109,192,8138,1,0,0:0:0:0:
329,192,8170,1,0,0:0:0:0:
36,192,8170,1,0,0:0:0:0:
109,192,8358,128,0,8736:0:0:0:0:
402,192,8736,128,0,8924:0:0:0:0:
329,192,8924,128,0,9302:0:0:0:0:
109,192,8924,128,0,9302:0:0:0:0:
182,192,9302,128,0,9679:0:0:0:0:
36,192,9302,128,0,9679:0:0:0:0:
256,192,9302,128,0,9679:0:0:0:0:
402,192,9302,128,0,9679:0:0:0:0:
329,192,9679,128,0,11943:0:0:0:0:
475,192,9679,128,0,11943:0:0:0:0:
109,192,9679,128,0,10245:0:0:0:0:
36,192,10245,128,0,10811:0:0:0:0:
182,192,10245,1,0,0:0:0:0:
256,192,10245,1,0,0:0:0:0:
402,192,10245,1,0,0:0:0:0:
182,192,10811,128,0,11377:0:0:0:0:
109,192,10811,1,0,0:0:0:0:
256,192,10811,1,0,0:0:0:0:
402,192,10811,1,0,0:0:0:0:
36,192,11377,128,0,11755:0:0:0:0:
109,192,11377,1,0,0:0:0:0:
256,192,11377,1,0,0:0:0:0:
402,192,11377,1,0,0:0:0:0:
109,192,11755,128,0,11943:0:0:0:0:
182,192,11755,1,0,0:0:0:0:
256,192,11755,1,0,0:0:0:0:
402,192,11755,1,0,0:0:0:0:
182,192,11943,128,0,12226:0:0:0:0:
256,192,11943,1,0,0:0:0:0:
36,192,11943,1,0,0:0:0:0:
402,192,11943,1,0,0:0:0:0:
109,192,12226,128,0,12509:0:0:0:0:
475,192,12226,1,0,0:0:0:0:
36,192,12226,1,0,0:0:0:0:
329,192,12321,128,0,12698:0:0:0:0:
36,192,12509,128,0,12698:0:0:0:0:
256,192,12509,1,0,0:0:0:0:
182,192,12509,1,0,0:0:0:0:
402,192,12509,1,0,0:0:0:0:
475,192,12509,1,0,0:0:0:0:
402,192,12698,128,0,15717:0:0:0:0:
475,192,12698,128,0,15717:0:0:0:0:
182,192,12698,128,0,13264:0:0:0:0:
256,192,12698,128,0,13264:0:0:0:0:
109,192,12698,1,0,0:0:0:0:
36,192,13264,128,0,13830:0:0:0:0:
329,192,13264,1,0,0:0:0:0:
109,192,13264,1,0,0:0:0:0:
109,192,13830,128,0,14396:0:0:0:0:
182,192,13830,128,0,14396:0:0:0:0:
256,192,13830,1,0,0:0:0:0:
329,192,13830,1,0,0:0:0:0:
36,192,14396,128,0,14773:0:0:0:0:
256,192,14396,1,0,0:0:0:0:
256,192,14585,1,0,0:0:0:0:
329,192,14585,1,0,0:0:0:0:
182,192,14585,1,0,0:0:0:0:
256,192,14773,1,0,0:0:0:0:
182,192,14773,1,0,0:0:0:0:
329,192,14773,1,0,0:0:0:0:
256,192,14962,1,0,0:0:0:0:
329,192,14962,1,0,0:0:0:0:
182,192,14962,1,0,0:0:0:0:
182,192,15151,1,0,0:0:0:0:
109,192,15245,1,0,0:0:0:0:
36,192,15339,1,0,0:0:0:0:
109,192,15434,1,0,0:0:0:0:
36,192,15528,1,0,0:0:0:0:
109,192,15623,1,0,0:0:0:0:
182,192,15717,1,0,0:0:0:0:
36,192,15717,128,0,15906:0:0:0:0:
329,192,15717,1,0,0:0:0:0:
329,192,15906,1,0,0:0:0:0:
475,192,15906,1,0,0:0:0:0:
109,192,15906,128,0,16094:0:0:0:0:
329,192,16094,1,0,0:0:0:0:
182,192,16094,128,0,16283:0:0:0:0:
475,192,16094,1,0,0:0:0:0:
402,192,16283,1,0,0:0:0:0:
109,192,16283,128,0,16472:0:0:0:0:
329,192,16377,1,0,0:0:0:0:
475,192,16377,1,0,0:0:0:0:
475,192,16472,1,0,0:0:0:0:
36,192,16472,128,0,16660:0:0:0:0:
109,192,16660,1,0,0:0:0:0:
36,192,16849,1,0,0:0:0:0:
475,192,16849,1,0,0:0:0:0:
329,192,16849,1,0,0:0:0:0:
109,192,17038,1,0,0:0:0:0:
329,192,17132,1,0,0:0:0:0:
182,192,17132,1,0,0:0:0:0:
402,192,17226,1,0,0:0:0:0:
256,192,17226,1,0,0:0:0:0:
36,192,17226,128,0,17415:0:0:0:0:
329,192,17415,1,0,0:0:0:0:
109,192,17415,128,0,17604:0:0:0:0:
329,192,17604,1,0,0:0:0:0:
475,192,17604,1,0,0:0:0:0:
182,192,17604,128,0,17792:0:0:0:0:
402,192,17792,1,0,0:0:0:0:
475,192,17887,1,0,0:0:0:0:
109,192,17887,128,0,18358:0:0:0:0:
256,192,17981,1,0,0:0:0:0:
475,192,17981,1,0,0:0:0:0:
36,192,17981,128,0,18358:0:0:0:0:
475,192,18170,1,0,0:0:0:0:
182,192,18358,1,0,0:0:0:0:
109,192,18453,1,0,0:0:0:0:
402,192,18453,1,0,0:0:0:0:
329,192,18547,1,0,0:0:0:0:
36,192,18736,1,0,0:0:0:0:
182,192,18736,1,0,0:0:0:0:
402,192,18736,1,0,0:0:0:0:
109,192,18830,1,0,0:0:0:0:
329,192,18924,1,0,0:0:0:0:
182,192,19019,1,0,0:0:0:0:
475,192,19019,1,0,0:0:0:0:
36,192,19113,1,0,0:0:0:0:
182,192,19302,1,0,0:0:0:0:
329,192,19302,1,0,0:0:0:0:
36,192,19490,1,0,0:0:0:0:
182,192,19490,1,0,0:0:0:0:
402,192,19490,1,0,0:0:0:0:
329,192,19679,1,0,0:0:0:0:
475,192,19773,1,0,0:0:0:0:
36,192,19868,1,0,0:0:0:0:
182,192,19868,1,0,0:0:0:0:
475,192,19962,1,0,0:0:0:0:
329,192,20056,1,0,0:0:0:0:
256,192,20151,1,0,0:0:0:0:
109,192,20151,1,0,0:0:0:0:
36,192,20245,1,0,0:0:0:0:
182,192,20245,1,0,0:0:0:0:
402,192,20245,1,0,0:0:0:0:
329,192,20339,1,0,0:0:0:0:
109,192,20434,1,0,0:0:0:0:
256,192,20434,1,0,0:0:0:0:
329,192,20528,128,0,20623:0:0:0:0:
182,192,20623,1,0,0:0:0:0:
402,192,20717,1,0,0:0:0:0:
36,192,20811,1,0,0:0:0:0:
475,192,20811,1,0,0:0:0:0:
329,192,20906,1,0,0:0:0:0:
475,192,21000,1,0,0:0:0:0:
402,192,21000,1,0,0:0:0:0:
475,192,21063,1,0,0:0:0:0:
329,192,21094,1,0,0:0:0:0:
36,192,21189,1,0,0:0:0:0:
256,192,21189,1,0,0:0:0:0:
36,192,21251,1,0,0:0:0:0:
109,192,21283,1,0,0:0:0:0:
475,192,21377,1,0,0:0:0:0:
182,192,21377,1,0,0:0:0:0:
475,192,21440,1,0,0:0:0:0:
402,192,21472,1,0,0:0:0:0:
36,192,21566,1,0,0:0:0:0:
329,192,21566,1,0,0:0:0:0:
36,192,21660,1,0,0:0:0:0:
109,192,21755,1,0,0:0:0:0:
329,192,21755,1,0,0:0:0:0:
109,192,21849,1,0,0:0:0:0:
329,192,21849,1,0,0:0:0:0:
475,192,22038,1,0,0:0:0:0:
36,192,22132,1,0,0:0:0:0:
182,192,22132,1,0,0:0:0:0:
109,192,22321,1,0,0:0:0:0:
475,192,22321,1,0,0:0:0:0:
182,192,22321,1,0,0:0:0:0:
329,192,22415,1,0,0:0:0:0:
36,192,22509,1,0,0:0:0:0:
475,192,22509,1,0,0:0:0:0:
402,192,22509,1,0,0:0:0:0:
109,192,22698,1,0,0:0:0:0:
329,192,22698,1,0,0:0:0:0:
402,192,22792,1,0,0:0:0:0:
36,192,22887,1,0,0:0:0:0:
475,192,22887,1,0,0:0:0:0:
402,192,22981,1,0,0:0:0:0:
109,192,23075,1,0,0:0:0:0:
329,192,23075,1,0,0:0:0:0:
402,192,23170,1,0,0:0:0:0:
36,192,23264,1,0,0:0:0:0:
475,192,23264,1,0,0:0:0:0:
402,192,23358,1,0,0:0:0:0:
109,192,23453,1,0,0:0:0:0:
329,192,23453,1,0,0:0:0:0:
256,192,23547,1,0,0:0:0:0:
36,192,23547,1,0,0:0:0:0:
109,192,23641,1,0,0:0:0:0:
36,192,23736,1,0,0:0:0:0:
109,192,23830,1,0,0:0:0:0:
329,192,23924,1,0,0:0:0:0:
36,192,24018,1,0,0:0:0:0:
402,192,24019,1,0,0:0:0:0:
109,192,24207,1,0,0:0:0:0:
329,192,24207,1,0,0:0:0:0:
36,192,24302,1,0,0:0:0:0:
402,192,24396,1,0,0:0:0:0:
36,192,24490,1,0,0:0:0:0:
109,192,24585,1,0,0:0:0:0:
329,192,24679,1,0,0:0:0:0:
36,192,24773,1,0,0:0:0:0:
402,192,24868,1,0,0:0:0:0:
109,192,24962,1,0,0:0:0:0:
475,192,24962,1,0,0:0:0:0:
256,192,24962,128,0,25528:0:0:0:0:
36,192,25150,1,0,0:0:0:0:
329,192,25151,1,0,0:0:0:0:
182,192,25151,128,0,25528:0:0:0:0:
402,192,25339,1,0,0:0:0:0:
109,192,25339,128,0,25528:0:0:0:0:
475,192,25528,1,0,0:0:0:0:
36,192,25528,128,0,26094:0:0:0:0:
329,192,25717,1,0,0:0:0:0:
109,192,25717,128,0,26094:0:0:0:0:
475,192,25811,1,0,0:0:0:0:
182,192,25811,128,0,26094:0:0:0:0:
402,192,25906,1,0,0:0:0:0:
475,192,26094,1,0,0:0:0:0:
402,192,26094,128,0,26283:0:0:0:0:
36,192,26283,1,0,0:0:0:0:
475,192,26283,1,0,0:0:0:0:
256,192,26283,1,0,0:0:0:0:
109,192,26283,128,0,26472:0:0:0:0:
329,192,26472,1,0,0:0:0:0:
182,192,26472,128,0,26660:0:0:0:0:
36,192,26660,1,0,0:0:0:0:
402,192,26660,1,0,0:0:0:0:
475,192,26660,1,0,0:0:0:0:
109,192,26660,128,0,26849:0:0:0:0:
329,192,26849,1,0,0:0:0:0:
182,192,26849,128,0,27038:0:0:0:0:
36,192,27037,1,0,0:0:0:0:
402,192,27038,1,0,0:0:0:0:
475,192,27038,1,0,0:0:0:0:
109,192,27038,128,0,27226:0:0:0:0:
329,192,27226,1,0,0:0:0:0:
475,192,27321,128,0,27792:0:0:0:0:
36,192,27415,1,0,0:0:0:0:
402,192,27415,1,0,0:0:0:0:
109,192,27509,1,0,0:0:0:0:
329,192,27509,1,0,0:0:0:0:
182,192,27604,1,0,0:0:0:0:
256,192,27698,1,0,0:0:0:0:
402,192,27698,1,0,0:0:0:0:
329,192,27792,1,0,0:0:0:0:
36,192,27792,1,0,0:0:0:0:
402,192,27981,1,0,0:0:0:0:
36,192,28170,1,0,0:0:0:0:
329,192,28170,128,0,28547:0:0:0:0:
182,192,28170,1,0,0:0:0:0:
475,192,28170,1,0,0:0:0:0:
256,192,28547,1,0,0:0:0:0:
402,192,28547,1,0,0:0:0:0:
475,192,28736,128,0,29113:0:0:0:0:
109,192,28736,1,0,0:0:0:0:
36,192,28924,1,0,0:0:0:0:
329,192,28924,1,0,0:0:0:0:
256,192,28924,1,0,0:0:0:0:
182,192,29113,1,0,0:0:0:0:
329,192,29302,128,0,30623:0:0:0:0:
36,192,29302,1,0,0:0:0:0:
182,192,29302,1,0,0:0:0:0:
256,192,29302,1,0,0:0:0:0:
475,192,29302,1,0,0:0:0:0:
475,192,29490,1,0,0:0:0:0:
256,192,29490,1,0,0:0:0:0:
36,192,29679,1,0,0:0:0:0:
182,192,29679,1,0,0:0:0:0:
475,192,29868,1,0,0:0:0:0:
256,192,29868,1,0,0:0:0:0:
36,192,30056,1,0,0:0:0:0:
109,192,30151,1,0,0:0:0:0:
256,192,30151,1,0,0:0:0:0:
182,192,30245,1,0,0:0:0:0:
475,192,30245,1,0,0:0:0:0:
402,192,30339,1,0,0:0:0:0:
36,192,30434,1,0,0:0:0:0:
182,192,30528,1,0,0:0:0:0:
402,192,30528,1,0,0:0:0:0:
109,192,30623,1,0,0:0:0:0:
475,192,30623,1,0,0:0:0:0:
402,192,30717,1,0,0:0:0:0:
475,192,30811,1,0,0:0:0:0:
182,192,30811,1,0,0:0:0:0:
36,192,30811,1,0,0:0:0:0:
475,192,31000,1,0,0:0:0:0:
109,192,31094,1,0,0:0:0:0:
36,192,31189,1,0,0:0:0:0:
329,192,31189,1,0,0:0:0:0:
475,192,31189,1,0,0:0:0:0:
402,192,31377,1,0,0:0:0:0:
182,192,31377,1,0,0:0:0:0:
36,192,31566,1,0,0:0:0:0:
256,192,31566,1,0,0:0:0:0:
475,192,31566,1,0,0:0:0:0:
109,192,31660,1,0,0:0:0:0:
182,192,31755,1,0,0:0:0:0:
329,192,31849,128,0,32038:0:0:0:0:
256,192,31849,1,0,0:0:0:0:
36,192,31943,1,0,0:0:0:0:
182,192,31943,1,0,0:0:0:0:
402,192,32132,1,0,0:0:0:0:
402,192,32226,1,0,0:0:0:0:
36,192,32321,1,0,0:0:0:0:
182,192,32321,1,0,0:0:0:0:
329,192,32321,1,0,0:0:0:0:
475,192,32415,1,0,0:0:0:0:
402,192,32509,1,0,0:0:0:0:
182,192,32604,1,0,0:0:0:0:
36,192,32698,1,0,0:0:0:0:
402,192,32698,1,0,0:0:0:0:
256,192,32698,1,0,0:0:0:0:
329,192,32887,1,0,0:0:0:0:
36,192,33075,1,0,0:0:0:0:
475,192,33075,1,0,0:0:0:0:
256,192,33075,1,0,0:0:0:0:
182,192,33170,1,0,0:0:0:0:
402,192,33264,1,0,0:0:0:0:
329,192,33358,128,0,33830:0:0:0:0:
36,192,33452,1,0,0:0:0:0:
475,192,33453,1,0,0:0:0:0:
182,192,33547,1,0,0:0:0:0:
109,192,33641,1,0,0:0:0:0:
256,192,33736,1,0,0:0:0:0:
182,192,33830,1,0,0:0:0:0:
475,192,33830,1,0,0:0:0:0:
109,192,33830,1,0,0:0:0:0:
36,192,34207,1,0,0:0:0:0:
402,192,34207,128,0,34585:0:0:0:0:
182,192,34207,1,0,0:0:0:0:
256,192,34207,1,0,0:0:0:0:
329,192,34585,1,0,0:0:0:0:
109,192,34585,1,0,0:0:0:0:
475,192,34773,128,0,35339:0:0:0:0:
402,192,34773,1,0,0:0:0:0:
182,192,34773,1,0,0:0:0:0:
36,192,34961,1,0,0:0:0:0:
329,192,34962,1,0,0:0:0:0:
182,192,34962,1,0,0:0:0:0:
256,192,35151,1,0,0:0:0:0:
36,192,35339,1,0,0:0:0:0:
329,192,35339,128,0,36094:0:0:0:0:
182,192,35339,1,0,0:0:0:0:
109,192,35623,1,0,0:0:0:0:
256,192,35623,1,0,0:0:0:0:
402,192,35623,1,0,0:0:0:0:
182,192,35906,1,0,0:0:0:0:
475,192,35906,1,0,0:0:0:0:
36,192,35906,1,0,0:0:0:0:
402,192,35906,1,0,0:0:0:0:
182,192,36189,1,0,0:0:0:0:
36,192,36283,1,0,0:0:0:0:
329,192,36283,1,0,0:0:0:0:
256,192,36283,1,0,0:0:0:0:
475,192,36377,1,0,0:0:0:0:
402,192,36472,1,0,0:0:0:0:
109,192,36472,1,0,0:0:0:0:
182,192,36566,1,0,0:0:0:0:
329,192,36566,1,0,0:0:0:0:
475,192,36660,1,0,0:0:0:0:
36,192,36660,1,0,0:0:0:0:
182,192,36755,1,0,0:0:0:0:
329,192,36755,1,0,0:0:0:0:
402,192,36849,1,0,0:0:0:0:
109,192,36849,1,0,0:0:0:0:
329,192,37132,1,0,0:0:0:0:
36,192,37226,1,0,0:0:0:0:
182,192,37226,1,0,0:0:0:0:
475,192,37226,1,0,0:0:0:0:
402,192,37415,1,0,0:0:0:0:
475,192,37604,1,0,0:0:0:0:
182,192,37604,1,0,0:0:0:0:
329,192,37604,1,0,0:0:0:0:
36,192,37792,1,0,0:0:0:0:
182,192,37792,1,0,0:0:0:0:
256,192,37792,1,0,0:0:0:0:
402,192,37792,1,0,0:0:0:0:
402,192,37981,128,0,38358:0:0:0:0:
109,192,37981,1,0,0:0:0:0:
256,192,37981,1,0,0:0:0:0:
36,192,38170,1,0,0:0:0:0:
182,192,38170,1,0,0:0:0:0:
329,192,38170,1,0,0:0:0:0:
109,192,38358,1,0,0:0:0:0:
329,192,38358,1,0,0:0:0:0:
36,192,38453,1,0,0:0:0:0:
182,192,38547,1,0,0:0:0:0:
329,192,38547,1,0,0:0:0:0:
402,192,38641,1,0,0:0:0:0:
109,192,38736,1,0,0:0:0:0:
475,192,38736,1,0,0:0:0:0:
36,192,38924,1,0,0:0:0:0:
475,192,38924,128,0,39396:0:0:0:0:
256,192,38924,1,0,0:0:0:0:
329,192,38924,1,0,0:0:0:0:
109,192,39113,1,0,0:0:0:0:
36,192,39113,1,0,0:0:0:0:
329,192,39113,1,0,0:0:0:0:
182,192,39302,1,0,0:0:0:0:
402,192,39396,1,0,0:0:0:0:
36,192,39396,1,0,0:0:0:0:
256,192,39396,1,0,0:0:0:0:
109,192,39585,1,0,0:0:0:0:
36,192,39679,1,0,0:0:0:0:
402,192,39679,1,0,0:0:0:0:
256,192,39679,1,0,0:0:0:0:
329,192,39773,1,0,0:0:0:0:
475,192,39868,1,0,0:0:0:0:
36,192,40056,1,0,0:0:0:0:
256,192,40056,1,0,0:0:0:0:
475,192,40151,128,0,40339:0:0:0:0:
36,192,40245,1,0,0:0:0:0:
182,192,40245,1,0,0:0:0:0:
329,192,40245,1,0,0:0:0:0:
329,192,40434,1,0,0:0:0:0:
402,192,40623,128,0,40811:0:0:0:0:
182,192,40623,1,0,0:0:0:0:
109,192,40717,1,0,0:0:0:0:
36,192,40811,1,0,0:0:0:0:
256,192,40811,1,0,0:0:0:0:
475,192,40811,1,0,0:0:0:0:
329,192,40906,1,0,0:0:0:0:
475,192,41000,1,0,0:0:0:0:
36,192,41189,1,0,0:0:0:0:
402,192,41189,1,0,0:0:0:0:
256,192,41189,1,0,0:0:0:0:
329,192,41377,1,0,0:0:0:0:
36,192,41377,1,0,0:0:0:0:
36,192,41566,1,0,0:0:0:0:
182,192,41566,1,0,0:0:0:0:
329,192,41566,1,0,0:0:0:0:
475,192,41566,1,0,0:0:0:0:
402,192,41660,1,0,0:0:0:0:
36,192,41943,1,0,0:0:0:0:
475,192,41943,1,0,0:0:0:0:
182,192,41943,1,0,0:0:0:0:
256,192,41943,1,0,0:0:0:0:
36,192,42132,1,0,0:0:0:0:
329,192,42132,1,0,0:0:0:0:
475,192,42132,1,0,0:0:0:0:
109,192,42226,1,0,0:0:0:0:
256,192,42226,1,0,0:0:0:0:
36,192,42415,1,0,0:0:0:0:
329,192,42415,1,0,0:0:0:0:
402,192,42415,1,0,0:0:0:0:
36,192,42698,1,0,0:0:0:0:
329,192,42698,128,0,43075:0:0:0:0:
475,192,42698,128,0,43075:0:0:0:0:
256,192,42698,1,0,0:0:0:0:
182,192,42792,1,0,0:0:0:0:
109,192,42792,1,0,0:0:0:0:
402,192,43075,1,0,0:0:0:0:
36,192,43264,1,0,0:0:0:0:
329,192,43264,1,0,0:0:0:0:
182,192,43264,1,0,0:0:0:0:
402,192,43453,1,0,0:0:0:0:
36,192,43641,1,0,0:0:0:0:
475,192,43641,1,0,0:0:0:0:
256,192,43641,1,0,0:0:0:0:
182,192,43736,1,0,0:0:0:0:
402,192,43736,1,0,0:0:0:0:
109,192,43830,1,0,0:0:0:0:
329,192,43830,1,0,0:0:0:0:
36,192,43924,1,0,0:0:0:0:
256,192,43924,1,0,0:0:0:0:
256,192,44019,1,0,0:0:0:0:
36,192,44019,1,0,0:0:0:0:
109,192,44113,1,0,0:0:0:0:
36,192,44207,1,0,0:0:0:0:
402,192,44207,128,0,44585:0:0:0:0:
256,192,44207,1,0,0:0:0:0:
182,192,44302,1,0,0:0:0:0:
109,192,44396,1,0,0:0:0:0:
182,192,44490,1,0,0:0:0:0:
475,192,44585,1,0,0:0:0:0:
329,192,44585,1,0,0:0:0:0:
256,192,44679,1,0,0:0:0:0:
329,192,44773,1,0,0:0:0:0:
182,192,44773,1,0,0:0:0:0:
109,192,44868,1,0,0:0:0:0:
402,192,44962,1,0,0:0:0:0:
36,192,44962,1,0,0:0:0:0:
109,192,45056,1,0,0:0:0:0:
36,192,45151,1,0,0:0:0:0:
475,192,45151,128,0,45434:0:0:0:0:
256,192,45151,1,0,0:0:0:0:
402,192,45151,1,0,0:0:0:0:
109,192,45245,1,0,0:0:0:0:
182,192,45339,1,0,0:0:0:0:
256,192,45434,1,0,0:0:0:0:
182,192,45528,1,0,0:0:0:0:
109,192,45623,1,0,0:0:0:0:
36,192,45717,1,0,0:0:0:0:
329,192,45717,128,0,46283:0:0:0:0:
475,192,45717,1,0,0:0:0:0:
182,192,45717,1,0,0:0:0:0:
36,192,46283,1,0,0:0:0:0:
402,192,46283,1,0,0:0:0:0:
182,192,46283,1,0,0:0:0:0:
475,192,46472,1,0,0:0:0:0:
402,192,46566,1,0,0:0:0:0:
36,192,46660,1,0,0:0:0:0:
329,192,46660,1,0,0:0:0:0:
182,192,46660,1,0,0:0:0:0:
256,192,46755,1,0,0:0:0:0:
109,192,46849,1,0,0:0:0:0:
402,192,46943,1,0,0:0:0:0:
256,192,46943,1,0,0:0:0:0:
36,192,47038,1,0,0:0:0:0:
182,192,47038,1,0,0:0:0:0:
329,192,47038,1,0,0:0:0:0:
475,192,47132,1,0,0:0:0:0:
329,192,47226,1,0,0:0:0:0:
475,192,47321,1,0,0:0:0:0:
36,192,47415,1,0,0:0:0:0:
182,192,47415,1,0,0:0:0:0:
402,192,47415,1,0,0:0:0:0:
329,192,47415,1,0,0:0:0:0:
182,192,47604,1,0,0:0:0:0:
475,192,47698,1,0,0:0:0:0:
36,192,47792,1,0,0:0:0:0:
329,192,47792,128,0,48170:0:0:0:0:
182,192,47792,1,0,0:0:0:0:
256,192,47792,1,0,0:0:0:0:
475,192,47981,1,0,0:0:0:0:
109,192,48075,1,0,0:0:0:0:
36,192,48170,1,0,0:0:0:0:
475,192,48170,128,0,48547:0:0:0:0:
256,192,48170,1,0,0:0:0:0:
182,192,48170,1,0,0:0:0:0:
109,192,48453,1,0,0:0:0:0:
256,192,48547,1,0,0:0:0:0:
402,192,48547,128,0,48924:0:0:0:0:
109,192,48641,1,0,0:0:0:0:
256,192,48736,1,0,0:0:0:0:
109,192,48830,1,0,0:0:0:0:
256,192,48924,1,0,0:0:0:0:
329,192,48924,128,0,51566:0:0:0:0:
36,192,49207,1,0,0:0:0:0:
182,192,49207,1,0,0:0:0:0:
475,192,49207,1,0,0:0:0:0:
109,192,49207,1,0,0:0:0:0:
36,192,49490,1,0,0:0:0:0:
182,192,49490,1,0,0:0:0:0:
475,192,49490,1,0,0:0:0:0:
109,192,49490,1,0,0:0:0:0:
475,192,49679,1,0,0:0:0:0:
182,192,49679,1,0,0:0:0:0:
36,192,49679,1,0,0:0:0:0:
109,192,49679,1,0,0:0:0:0:
36,192,49962,1,0,0:0:0:0:
182,192,49962,1,0,0:0:0:0:
475,192,49962,1,0,0:0:0:0:
109,192,49962,1,0,0:0:0:0:
36,192,50245,1,0,0:0:0:0:
182,192,50245,1,0,0:0:0:0:
475,192,50245,1,0,0:0:0:0:
109,192,50245,1,0,0:0:0:0:
475,192,50434,1,0,0:0:0:0:
36,192,50434,1,0,0:0:0:0:
182,192,50528,1,0,0:0:0:0:
475,192,50623,1,0,0:0:0:0:
36,192,50623,1,0,0:0:0:0:
402,192,50811,1,0,0:0:0:0:
182,192,50906,1,0,0:0:0:0:
402,192,51000,1,0,0:0:0:0:
182,192,51094,1,0,0:0:0:0:
402,192,51189,1,0,0:0:0:0:
109,192,51189,1,0,0:0:0:0:
109,192,51283,1,0,0:0:0:0:
402,192,51283,1,0,0:0:0:0:
109,192,51377,1,0,0:0:0:0:
402,192,51377,1,0,0:0:0:0:
36,192,51472,1,0,0:0:0:0:
182,192,51472,1,0,0:0:0:0:
36,192,51566,1,0,0:0:0:0:
182,192,51566,1,0,0:0:0:0:
36,192,51660,1,0,0:0:0:0:
182,192,51660,1,0,0:0:0:0:
475,192,51755,1,0,0:0:0:0:
475,192,51849,1,0,0:0:0:0:
182,192,51943,128,0,52321:0:0:0:0:
402,192,51943,128,0,52415:0:0:0:0:
36,192,52321,128,0,52509:0:0:0:0:
475,192,52415,1,0,0:0:0:0:
256,192,52509,128,0,52887:0:0:0:0:
329,192,52604,1,0,0:0:0:0:
109,192,52887,128,0,53264:0:0:0:0:
402,192,52981,1,0,0:0:0:0:
402,192,53264,128,0,53830:0:0:0:0:
475,192,53264,128,0,54396:0:0:0:0:
329,192,53830,1,0,0:0:0:0:
256,192,53924,1,0,0:0:0:0:
182,192,54019,1,0,0:0:0:0:
109,192,54113,1,0,0:0:0:0:
182,192,54207,128,0,54490:0:0:0:0:
109,192,54490,128,0,54962:0:0:0:0:
182,192,54585,128,0,54962:0:0:0:0:
329,192,54585,1,0,0:0:0:0:
402,192,54773,1,0,0:0:0:0:
36,192,54962,128,0,55151:0:0:0:0:
475,192,54962,1,0,0:0:0:0:
182,192,55151,1,0,0:0:0:0:
256,192,55245,1,0,0:0:0:0:
182,192,55339,128,0,55528:0:0:0:0:
329,192,55339,1,0,0:0:0:0:
109,192,55528,128,0,55717:0:0:0:0:
402,192,55528,128,0,55906:0:0:0:0:
256,192,55623,1,0,0:0:0:0:
182,192,55717,1,0,0:0:0:0:
36,192,55811,1,0,0:0:0:0:
182,192,55906,1,0,0:0:0:0:
329,192,55906,1,0,0:0:0:0:
475,192,55906,128,0,56283:0:0:0:0:
109,192,56000,1,0,0:0:0:0:
256,192,56094,1,0,0:0:0:0:
109,192,56189,1,0,0:0:0:0:
329,192,56283,128,0,56660:0:0:0:0:
36,192,56283,1,0,0:0:0:0:
182,192,56283,1,0,0:0:0:0:
36,192,56660,1,0,0:0:0:0:
402,192,56660,128,0,57792:0:0:0:0:
182,192,56660,1,0,0:0:0:0:
109,192,56849,1,0,0:0:0:0:
475,192,56849,128,0,57792:0:0:0:0:
256,192,56849,1,0,0:0:0:0:
182,192,57038,1,0,0:0:0:0:
329,192,57038,1,0,0:0:0:0:
329,192,57132,1,0,0:0:0:0:
182,192,57132,1,0,0:0:0:0:
182,192,57226,1,0,0:0:0:0:
329,192,57226,1,0,0:0:0:0:
36,192,57321,1,0,0:0:0:0:
182,192,57321,1,0,0:0:0:0:
36,192,57415,1,0,0:0:0:0:
182,192,57415,1,0,0:0:0:0:
182,192,57509,1,0,0:0:0:0:
36,192,57509,1,0,0:0:0:0:
329,192,57604,1,0,0:0:0:0:
36,192,57604,1,0,0:0:0:0:
36,192,57698,1,0,0:0:0:0:
329,192,57698,1,0,0:0:0:0:
36,192,57792,1,0,0:0:0:0:
329,192,57792,1,0,0:0:0:0:
36,192,57981,1,0,0:0:0:0:
475,192,57981,1,0,0:0:0:0:
329,192,57981,1,0,0:0:0:0:
36,192,58075,1,0,0:0:0:0:
329,192,58075,1,0,0:0:0:0:
475,192,58075,1,0,0:0:0:0:
109,192,58547,1,0,0:0:0:0:
402,192,58547,1,0,0:0:0:0:
329,192,58547,1,0,0:0:0:0:
109,192,58641,1,0,0:0:0:0:
329,192,58641,1,0,0:0:0:0:
402,192,58641,1,0,0:0:0:0:
475,192,58736,1,0,0:0:0:0:
475,192,58924,1,0,0:0:0:0:
36,192,58924,1,0,0:0:0:0:
402,192,59019,1,0,0:0:0:0:
109,192,59019,1,0,0:0:0:0:
329,192,59302,1,0,0:0:0:0:
109,192,59302,1,0,0:0:0:0:
475,192,59490,1,0,0:0:0:0:
402,192,59490,128,0,59679:0:0:0:0:
36,192,59490,1,0,0:0:0:0:
182,192,59490,1,0,0:0:0:0:
329,192,59679,1,0,0:0:0:0:
182,192,59773,1,0,0:0:0:0:
36,192,59868,1,0,0:0:0:0:
402,192,59962,1,0,0:0:0:0:
182,192,59962,1,0,0:0:0:0:
475,192,60056,1,0,0:0:0:0:
256,192,60056,1,0,0:0:0:0:
182,192,60151,1,0,0:0:0:0:
402,192,60151,1,0,0:0:0:0:
36,192,60245,1,0,0:0:0:0:
256,192,60245,1,0,0:0:0:0:
329,192,60434,1,0,0:0:0:0:
36,192,60434,1,0,0:0:0:0:
182,192,60434,1,0,0:0:0:0:
36,192,60623,1,0,0:0:0:0:
402,192,60623,1,0,0:0:0:0:
475,192,60811,1,0,0:0:0:0:
36,192,60811,1,0,0:0:0:0:
329,192,60811,1,0,0:0:0:0:
36,192,61000,1,0,0:0:0:0:
329,192,61000,1,0,0:0:0:0:
402,192,61189,1,0,0:0:0:0:
182,192,61189,1,0,0:0:0:0:
329,192,61283,1,0,0:0:0:0:
109,192,61283,1,0,0:0:0:0:
36,192,61377,1,0,0:0:0:0:
329,192,61377,1,0,0:0:0:0:
475,192,61472,1,0,0:0:0:0:
182,192,61472,1,0,0:0:0:0:
329,192,61566,1,0,0:0:0:0:
36,192,61566,1,0,0:0:0:0:
182,192,61660,1,0,0:0:0:0:
475,192,61660,1,0,0:0:0:0:
36,192,61755,1,0,0:0:0:0:
256,192,61755,1,0,0:0:0:0:
475,192,61755,1,0,0:0:0:0:
402,192,61943,1,0,0:0:0:0:
109,192,61943,1,0,0:0:0:0:
36,192,62132,1,0,0:0:0:0:
475,192,62132,1,0,0:0:0:0:
256,192,62132,1,0,0:0:0:0:
402,192,62321,1,0,0:0:0:0:
36,192,62509,1,0,0:0:0:0:
475,192,62509,1,0,0:0:0:0:
329,192,62698,1,0,0:0:0:0:
182,192,62792,1,0,0:0:0:0:
36,192,62887,1,0,0:0:0:0:
402,192,62887,1,0,0:0:0:0:
329,192,63075,1,0,0:0:0:0:
182,192,63075,1,0,0:0:0:0:
36,192,63264,1,0,0:0:0:0:
329,192,63264,1,0,0:0:0:0:
182,192,63264,1,0,0:0:0:0:
109,192,63358,1,0,0:0:0:0:
256,192,63453,1,0,0:0:0:0:
402,192,63547,1,0,0:0:0:0:
36,192,63641,1,0,0:0:0:0:
182,192,63641,1,0,0:0:0:0:
256,192,63736,1,0,0:0:0:0:
329,192,63830,1,0,0:0:0:0:
475,192,63830,1,0,0:0:0:0:
256,192,63924,1,0,0:0:0:0:
36,192,64019,1,0,0:0:0:0:
329,192,64019,128,0,64773:0:0:0:0:
402,192,64019,128,0,64773:0:0:0:0:
182,192,64019,128,0,64396:0:0:0:0:
109,192,64396,1,0,0:0:0:0:
256,192,64396,128,0,64773:0:0:0:0:
36,192,64773,1,0,0:0:0:0:
36,192,64962,1,0,0:0:0:0:
36,192,65151,1,0,0:0:0:0:
475,192,65151,1,0,0:0:0:0:
109,192,65151,1,0,0:0:0:0:
182,192,65245,1,0,0:0:0:0:
36,192,65339,1,0,0:0:0:0:
475,192,65339,1,0,0:0:0:0:
256,192,65339,1,0,0:0:0:0:
329,192,65434,1,0,0:0:0:0:
36,192,65528,1,0,0:0:0:0:
475,192,65528,1,0,0:0:0:0:
402,192,65528,1,0,0:0:0:0:
182,192,65528,1,0,0:0:0:0:
36,192,65811,1,0,0:0:0:0:
329,192,65811,1,0,0:0:0:0:
182,192,65811,1,0,0:0:0:0:
36,192,66094,1,0,0:0:0:0:
329,192,66094,1,0,0:0:0:0:
402,192,66094,1,0,0:0:0:0:
182,192,66283,1,0,0:0:0:0:
36,192,66472,1,0,0:0:0:0:
329,192,66472,1,0,0:0:0:0:
475,192,66660,1,0,0:0:0:0:
36,192,66660,1,0,0:0:0:0:
109,192,66755,1,0,0:0:0:0:
402,192,66755,1,0,0:0:0:0:
182,192,66849,1,0,0:0:0:0:
329,192,66849,1,0,0:0:0:0:
109,192,66943,1,0,0:0:0:0:
402,192,66943,1,0,0:0:0:0:
36,192,67038,1,0,0:0:0:0:
475,192,67038,1,0,0:0:0:0:
182,192,67038,1,0,0:0:0:0:
36,192,67321,1,0,0:0:0:0:
329,192,67321,1,0,0:0:0:0:
475,192,67321,1,0,0:0:0:0:
36,192,67604,1,0,0:0:0:0:
475,192,67604,1,0,0:0:0:0:
256,192,67604,1,0,0:0:0:0:
36,192,67981,1,0,0:0:0:0:
182,192,67981,1,0,0:0:0:0:
329,192,67981,1,0,0:0:0:0:
475,192,67981,1,0,0:0:0:0:
475,192,68170,1,0,0:0:0:0:
475,192,68264,1,0,0:0:0:0:
329,192,68264,1,0,0:0:0:0:
329,192,68358,1,0,0:0:0:0:
182,192,68358,1,0,0:0:0:0:
182,192,68453,1,0,0:0:0:0:
36,192,68547,1,0,0:0:0:0:
182,192,68547,1,0,0:0:0:0:
329,192,68547,1,0,0:0:0:0:
256,192,68736,1,0,0:0:0:0:
36,192,68924,1,0,0:0:0:0:
402,192,68924,1,0,0:0:0:0:
329,192,69113,1,0,0:0:0:0:
182,192,69207,1,0,0:0:0:0:
36,192,69302,1,0,0:0:0:0:
475,192,69302,1,0,0:0:0:0:
402,192,69585,1,0,0:0:0:0:
109,192,69585,1,0,0:0:0:0:
36,192,69679,1,0,0:0:0:0:
475,192,69679,1,0,0:0:0:0:
329,192,69868,1,0,0:0:0:0:
182,192,69868,1,0,0:0:0:0:
36,192,70056,1,0,0:0:0:0:
475,192,70056,128,0,70623:0:0:0:0:
182,192,70056,1,0,0:0:0:0:
329,192,70056,1,0,0:0:0:0:
36,192,70245,1,0,0:0:0:0:
329,192,70245,1,0,0:0:0:0:
182,192,70245,1,0,0:0:0:0:
36,192,70434,1,0,0:0:0:0:
182,192,70434,1,0,0:0:0:0:
329,192,70434,1,0,0:0:0:0:
36,192,70623,1,0,0:0:0:0:
329,192,70623,1,0,0:0:0:0:
182,192,70623,1,0,0:0:0:0:
475,192,70811,1,0,0:0:0:0:
329,192,70811,1,0,0:0:0:0:
36,192,70811,1,0,0:0:0:0:
475,192,71000,1,0,0:0:0:0:
329,192,71000,1,0,0:0:0:0:
109,192,71000,1,0,0:0:0:0:
475,192,71189,1,0,0:0:0:0:
329,192,71189,1,0,0:0:0:0:
182,192,71189,1,0,0:0:0:0:
475,192,71377,1,0,0:0:0:0:
329,192,71377,1,0,0:0:0:0:
256,192,71377,1,0,0:0:0:0:
36,192,71566,1,0,0:0:0:0:
402,192,71566,1,0,0:0:0:0:
475,192,71566,128,0,72321:0:0:0:0:
109,192,71660,1,0,0:0:0:0:
36,192,71755,1,0,0:0:0:0:
109,192,71849,1,0,0:0:0:0:
329,192,71849,1,0,0:0:0:0:
36,192,71943,1,0,0:0:0:0:
402,192,71943,1,0,0:0:0:0:
182,192,72038,1,0,0:0:0:0:
329,192,72038,1,0,0:0:0:0:
36,192,72132,1,0,0:0:0:0:
182,192,72226,1,0,0:0:0:0:
329,192,72226,1,0,0:0:0:0:
36,192,72321,128,0,72509:0:0:0:0:
329,192,72415,1,0,0:0:0:0:
475,192,72509,1,0,0:0:0:0:
329,192,72509,1,0,0:0:0:0:
36,192,72604,1,0,0:0:0:0:
475,192,72604,1,0,0:0:0:0:
109,192,72698,128,0,72981:0:0:0:0:
329,192,72698,1,0,0:0:0:0:
475,192,72887,1,0,0:0:0:0:
329,192,73075,1,0,0:0:0:0:
36,192,73075,1,0,0:0:0:0:
475,192,73264,1,0,0:0:0:0:
109,192,73264,1,0,0:0:0:0:
329,192,73358,1,0,0:0:0:0:
36,192,73453,1,0,0:0:0:0:
182,192,73453,1,0,0:0:0:0:
402,192,73547,1,0,0:0:0:0:
329,192,73641,1,0,0:0:0:0:
36,192,73830,1,0,0:0:0:0:
182,192,73830,1,0,0:0:0:0:
475,192,74019,1,0,0:0:0:0:
329,192,74019,1,0,0:0:0:0:
329,192,74207,1,0,0:0:0:0:
36,192,74207,1,0,0:0:0:0:
182,192,74207,1,0,0:0:0:0:
402,192,74396,1,0,0:0:0:0:
475,192,74585,1,0,0:0:0:0:
36,192,74585,1,0,0:0:0:0:
109,192,74773,1,0,0:0:0:0:
402,192,74868,1,0,0:0:0:0:
36,192,74962,1,0,0:0:0:0:
329,192,75056,1,0,0:0:0:0:
475,192,75151,1,0,0:0:0:0:
329,192,75245,1,0,0:0:0:0:
36,192,75339,1,0,0:0:0:0:
182,192,75339,1,0,0:0:0:0:
475,192,75339,1,0,0:0:0:0:
402,192,75528,1,0,0:0:0:0:
182,192,75528,1,0,0:0:0:0:
36,192,75717,1,0,0:0:0:0:
329,192,75717,1,0,0:0:0:0:
182,192,75717,1,0,0:0:0:0:
475,192,75906,1,0,0:0:0:0:
36,192,75906,1,0,0:0:0:0:
36,192,76094,1,0,0:0:0:0:
329,192,76094,128,0,76472:0:0:0:0:
182,192,76094,1,0,0:0:0:0:
109,192,76283,1,0,0:0:0:0:
256,192,76377,1,0,0:0:0:0:
36,192,76472,1,0,0:0:0:0:
475,192,76472,128,0,76849:0:0:0:0:
256,192,76660,1,0,0:0:0:0:
36,192,76849,1,0,0:0:0:0:
329,192,76849,128,0,77226:0:0:0:0:
182,192,76943,1,0,0:0:0:0:
256,192,77132,1,0,0:0:0:0:
36,192,77226,1,0,0:0:0:0:
402,192,77226,1,0,0:0:0:0:
109,192,77321,1,0,0:0:0:0:
329,192,77415,1,0,0:0:0:0:
475,192,77415,1,0,0:0:0:0:
182,192,77509,1,0,0:0:0:0:
36,192,77604,1,0,0:0:0:0:
475,192,77604,128,0,78736:0:0:0:0:
256,192,77604,1,0,0:0:0:0:
109,192,77698,1,0,0:0:0:0:
329,192,77698,1,0,0:0:0:0:
402,192,77887,1,0,0:0:0:0:
182,192,77887,1,0,0:0:0:0:
36,192,77981,1,0,0:0:0:0:
329,192,77981,1,0,0:0:0:0:
109,192,78170,1,0,0:0:0:0:
329,192,78170,1,0,0:0:0:0:
402,192,78358,1,0,0:0:0:0:
256,192,78358,1,0,0:0:0:0:
36,192,78453,1,0,0:0:0:0:
182,192,78547,1,0,0:0:0:0:
329,192,78641,1,0,0:0:0:0:
36,192,78736,128,0,79113:0:0:0:0:
402,192,78736,1,0,0:0:0:0:
109,192,78736,1,0,0:0:0:0:
329,192,78830,1,0,0:0:0:0:
182,192,78830,1,0,0:0:0:0:
109,192,78924,1,0,0:0:0:0:
402,192,78924,1,0,0:0:0:0:
182,192,79019,1,0,0:0:0:0:
329,192,79019,1,0,0:0:0:0:
402,192,79113,1,0,0:0:0:0:
109,192,79113,1,0,0:0:0:0:
475,192,79396,1,0,0:0:0:0:
182,192,79396,1,0,0:0:0:0:
36,192,79396,1,0,0:0:0:0:
329,192,79679,1,0,0:0:0:0:
182,192,79679,1,0,0:0:0:0:
475,192,79679,1,0,0:0:0:0:
36,192,79868,1,0,0:0:0:0:
182,192,79868,1,0,0:0:0:0:
329,192,79868,1,0,0:0:0:0:
36,192,80056,1,0,0:0:0:0:
329,192,80056,1,0,0:0:0:0:
475,192,80056,1,0,0:0:0:0:
36,192,80245,1,0,0:0:0:0:
182,192,80245,1,0,0:0:0:0:
329,192,80245,1,0,0:0:0:0:
475,192,80434,1,0,0:0:0:0:
36,192,80434,1,0,0:0:0:0:
256,192,80434,1,0,0:0:0:0:
36,192,80623,1,0,0:0:0:0:
329,192,80623,1,0,0:0:0:0:
475,192,80623,1,0,0:0:0:0:
329,192,80811,1,0,0:0:0:0:
475,192,80811,1,0,0:0:0:0:
182,192,80811,1,0,0:0:0:0:
36,192,81000,1,0,0:0:0:0:
329,192,81000,1,0,0:0:0:0:
256,192,81000,1,0,0:0:0:0:
329,192,81189,1,0,0:0:0:0:
475,192,81189,1,0,0:0:0:0:
109,192,81189,1,0,0:0:0:0:
36,192,81377,1,0,0:0:0:0:
329,192,81377,1,0,0:0:0:0:
402,192,81377,1,0,0:0:0:0:
109,192,81472,1,0,0:0:0:0:
475,192,81566,1,0,0:0:0:0:
329,192,81566,1,0,0:0:0:0:
36,192,81660,1,0,0:0:0:0:
109,192,81755,1,0,0:0:0:0:
329,192,81755,1,0,0:0:0:0:
36,192,81943,1,0,0:0:0:0:
329,192,82132,1,0,0:0:0:0:
402,192,82132,1,0,0:0:0:0:
256,192,82132,128,0,82981:0:0:0:0:
109,192,82132,1,0,0:0:0:0:
36,192,82321,1,0,0:0:0:0:
182,192,82509,1,0,0:0:0:0:
475,192,82509,1,0,0:0:0:0:
36,192,82698,1,0,0:0:0:0:
329,192,82698,1,0,0:0:0:0:
402,192,82792,1,0,0:0:0:0:
182,192,82887,1,0,0:0:0:0:
475,192,82981,1,0,0:0:0:0:
36,192,83075,1,0,0:0:0:0:
329,192,83075,1,0,0:0:0:0:
182,192,83170,1,0,0:0:0:0:
36,192,83264,128,0,83358:0:0:0:0:
402,192,83264,1,0,0:0:0:0:
36,192,83453,1,0,0:0:0:0:
475,192,83453,1,0,0:0:0:0:
182,192,83547,1,0,0:0:0:0:
329,192,83547,1,0,0:0:0:0:
36,192,83641,1,0,0:0:0:0:
475,192,83641,1,0,0:0:0:0:
329,192,83641,1,0,0:0:0:0:
36,192,83924,1,0,0:0:0:0:
329,192,83924,1,0,0:0:0:0:
475,192,83924,1,0,0:0:0:0:
36,192,84207,1,0,0:0:0:0:
329,192,84207,1,0,0:0:0:0:
475,192,84207,1,0,0:0:0:0:
36,192,84396,1,0,0:0:0:0:
182,192,84396,1,0,0:0:0:0:
475,192,84396,1,0,0:0:0:0:
36,192,84679,1,0,0:0:0:0:
182,192,84679,1,0,0:0:0:0:
475,192,84679,1,0,0:0:0:0:
36,192,84962,1,0,0:0:0:0:
182,192,84962,1,0,0:0:0:0:
475,192,84962,1,0,0:0:0:0:
36,192,85151,1,0,0:0:0:0:
182,192,85151,128,0,85434:0:0:0:0:
329,192,85151,1,0,0:0:0:0:
402,192,85151,1,0,0:0:0:0:
475,192,85151,128,0,85623:0:0:0:0:
109,192,85434,128,0,85717:0:0:0:0:
256,192,85528,1,0,0:0:0:0:
329,192,85528,1,0,0:0:0:0:
182,192,85717,128,0,86000:0:0:0:0:
329,192,85717,128,0,86094:0:0:0:0:
402,192,85717,128,0,86094:0:0:0:0:
475,192,85717,128,0,86094:0:0:0:0:
36,192,85906,1,0,0:0:0:0:
36,192,86283,1,0,0:0:0:0:
402,192,86283,1,0,0:0:0:0:
329,192,86283,1,0,0:0:0:0:
182,192,86283,1,0,0:0:0:0:
36,192,86660,1,0,0:0:0:0:
475,192,86660,1,0,0:0:0:0:
329,192,86660,1,0,0:0:0:0:
182,192,86660,1,0,0:0:0:0:
36,192,87038,1,0,0:0:0:0:
182,192,87038,1,0,0:0:0:0:
329,192,87038,128,0,87981:0:0:0:0:
402,192,87226,128,0,87981:0:0:0:0:
475,192,87226,128,0,87981:0:0:0:0:
36,192,87415,1,0,0:0:0:0:
182,192,87415,1,0,0:0:0:0:
36,192,87792,1,0,0:0:0:0:
182,192,87792,1,0,0:0:0:0:
475,192,88170,128,0,89207:0:0:0:0:
36,192,88170,1,0,0:0:0:0:
329,192,88170,128,0,88453:0:0:0:0:
402,192,88170,128,0,88736:0:0:0:0:
182,192,88170,1,0,0:0:0:0:
36,192,88736,1,0,0:0:0:0:
329,192,88736,128,0,89207:0:0:0:0:
182,192,88736,1,0,0:0:0:0:
36,192,89113,1,0,0:0:0:0:
182,192,89113,1,0,0:0:0:0:
402,192,89207,1,0,0:0:0:0:
36,192,89302,1,0,0:0:0:0:
182,192,89302,1,0,0:0:0:0:
329,192,89396,1,0,0:0:0:0:
36,192,89490,1,0,0:0:0:0:
182,192,89490,1,0,0:0:0:0:
402,192,89585,1,0,0:0:0:0:
