osu file format v14

[General]
AudioFilename: Dog Days.mp3
AudioLeadIn: 2000
PreviewTime: 54058
Countdown: 0
SampleSet: Normal
StackLeniency: 0.7
Mode: 1
LetterboxInBreaks: 0
WidescreenStoryboard: 0

[Editor]
DistanceSpacing: 0.9
BeatDivisor: 4
GridSize: 4
TimelineZoom: 2.1

[Metadata]
Title:No Limit
TitleUnicode:No Limit
Artist:Nana Mizuki
ArtistUnicode:水樹奈々
Creator:Doyak
Version:Oni
Source:DOG DAYS"
Tags:opening 3rd season TV Size
BeatmapID:904999
BeatmapSetID:418019

[Difficulty]
HPDrainRate:6
CircleSize:4
OverallDifficulty:5
ApproachRate:7
SliderMultiplier:1.4
SliderTickRate:1

[Events]
//Background and Video events
0,0,"BG.jpg",0,0
//Break Periods
//Storyboard Layer 0 (Background)
//Storyboard Layer 1 (Fail)
//Storyboard Layer 2 (Pass)
//Storyboard Layer 3 (Foreground)
//Storyboard Sound Samples

[TimingPoints]
120,410.958904109589,4,1,0,40,1,0
6695,-100,4,1,0,55,0,0
11626,-100,4,1,0,70,0,0
13270,-100,4,1,0,80,0,0
26421,-100,4,1,0,60,0,0
39572,-100,4,1,0,70,0,0
53955,-100,4,1,0,90,0,0
54366,-100,4,1,0,80,0,1
67517,-100,4,1,0,70,0,1
75736,-100,4,1,0,80,0,0
88065,-100,4,1,0,90,0,0

[HitObjects]
220,48,120,5,0,0:0:0:0:
220,48,428,1,0,0:0:0:0:
220,48,736,1,8,0:0:0:0:
220,48,1044,1,8,0:0:0:0:
220,48,1147,1,0,0:0:0:0:
220,48,1352,1,8,0:0:0:0:
220,48,1763,1,0,0:0:0:0:
220,48,2072,1,0,0:0:0:0:
220,48,2380,1,8,0:0:0:0:
220,48,2688,1,8,0:0:0:0:
220,48,2791,1,0,0:0:0:0:
220,48,2996,1,8,0:0:0:0:
220,48,3202,1,8,0:0:0:0:
220,48,3407,1,0,0:0:0:0:
220,48,3715,1,0,0:0:0:0:
220,48,4024,1,8,0:0:0:0:
220,48,4332,1,8,0:0:0:0:
220,48,4435,1,0,0:0:0:0:
220,48,4640,1,8,0:0:0:0:
220,48,5051,1,0,0:0:0:0:
220,48,5359,1,0,0:0:0:0:
220,48,5667,1,8,0:0:0:0:
220,48,5976,1,8,0:0:0:0:
220,48,6078,1,0,0:0:0:0:
220,48,6284,1,8,0:0:0:0:
220,48,6489,1,0,0:0:0:0:
220,48,6695,1,0,0:0:0:0:
220,48,7106,1,8,0:0:0:0:
220,48,7311,1,0,0:0:0:0:
220,48,7414,1,8,0:0:0:0:
220,48,7722,1,0,0:0:0:0:
220,48,7928,1,8,0:0:0:0:
220,48,8133,1,0,0:0:0:0:
220,48,8339,1,0,0:0:0:0:
220,48,8750,1,8,0:0:0:0:
220,48,8955,1,0,0:0:0:0:
220,48,9058,1,8,0:0:0:0:
220,48,9366,1,0,0:0:0:0:
220,48,9572,1,0,0:0:0:0:
220,48,9777,1,8,0:0:0:0:
220,48,9983,1,0,0:0:0:0:
220,48,10393,1,8,0:0:0:0:
220,48,10599,1,0,0:0:0:0:
220,48,10702,1,8,0:0:0:0:
220,48,11010,1,0,0:0:0:0:
220,48,11215,1,0,0:0:0:0:
220,48,11318,1,8,0:0:0:0:
220,48,11421,1,8,0:0:0:0:
220,48,11626,1,12,0:0:0:0:
220,48,11935,1,12,0:0:0:0:
220,48,12243,1,4,0:0:0:0:
220,48,12654,1,0,0:0:0:0:
220,48,12756,1,0,0:0:0:0:
220,48,12859,1,8,0:0:0:0:
220,48,13270,1,4,0:0:0:0:
220,48,13475,1,0,0:0:0:0:
220,48,13681,1,8,0:0:0:0:
220,48,13887,1,8,0:0:0:0:
220,48,13989,1,8,0:0:0:0:
220,48,14092,1,0,0:0:0:0:
220,48,14297,1,0,0:0:0:0:
220,48,14503,1,8,0:0:0:0:
220,48,14708,1,0,0:0:0:0:
220,48,14811,1,8,0:0:0:0:
220,48,14914,1,0,0:0:0:0:
220,48,15119,1,0,0:0:0:0:
220,48,15222,1,0,0:0:0:0:
220,48,15325,1,8,0:0:0:0:
220,48,15530,1,8,0:0:0:0:
220,48,15941,1,0,0:0:0:0:
220,48,16147,1,8,0:0:0:0:
220,48,16352,1,8,0:0:0:0:
220,48,16455,1,8,0:0:0:0:
220,48,16558,1,0,0:0:0:0:
220,48,16969,1,8,0:0:0:0:
220,48,17174,1,0,0:0:0:0:
220,48,17380,1,8,0:0:0:0:
220,48,17482,1,8,0:0:0:0:
220,48,17585,1,0,0:0:0:0:
220,48,17790,1,8,0:0:0:0:
220,48,17996,1,8,0:0:0:0:
220,48,18201,1,0,0:0:0:0:
220,48,18407,1,0,0:0:0:0:
220,48,18510,1,0,0:0:0:0:
220,48,18612,1,8,0:0:0:0:
220,48,18818,1,0,0:0:0:0:
220,48,19024,1,12,0:0:0:0:
220,48,19332,1,12,0:0:0:0:
220,48,19640,1,4,0:0:0:0:
220,48,20256,1,4,0:0:0:0:
220,48,20462,1,0,0:0:0:0:
220,48,20564,1,0,0:0:0:0:
220,48,20667,1,8,0:0:0:0:
220,48,20873,1,0,0:0:0:0:
220,48,21078,1,8,0:0:0:0:
220,48,21284,1,8,0:0:0:0:
220,48,21489,1,0,0:0:0:0:
220,48,21695,1,0,0:0:0:0:
220,48,21797,1,8,0:0:0:0:
220,48,21900,1,8,0:0:0:0:
220,48,22106,1,0,0:0:0:0:
220,48,22517,1,0,0:0:0:0:
220,48,22722,1,8,0:0:0:0:
220,48,22928,1,0,0:0:0:0:
220,48,23030,1,8,0:0:0:0:
220,48,23133,1,0,0:0:0:0:
220,48,23544,1,8,0:0:0:0:
220,48,23749,1,0,0:0:0:0:
220,48,23955,1,8,0:0:0:0:
220,48,24058,1,8,0:0:0:0:
220,48,24160,1,0,0:0:0:0:
220,48,24366,1,8,0:0:0:0:
220,48,24571,1,8,0:0:0:0:
220,48,24777,1,0,0:0:0:0:
220,48,25085,1,0,0:0:0:0:
220,48,25393,1,8,0:0:0:0:
220,48,25599,1,0,0:0:0:0:
220,48,26421,1,0,0:0:0:0:
220,48,26626,1,0,0:0:0:0:
220,48,26832,1,8,0:0:0:0:
220,48,27037,1,0,0:0:0:0:
220,48,27140,1,8,0:0:0:0:
220,48,27243,1,8,0:0:0:0:
220,48,27448,1,0,0:0:0:0:
220,48,27654,1,8,0:0:0:0:
220,48,27859,1,8,0:0:0:0:
220,48,28065,1,0,0:0:0:0:
220,48,28270,1,0,0:0:0:0:
220,48,28373,1,0,0:0:0:0:
220,48,28476,1,8,0:0:0:0:
220,48,28681,1,8,0:0:0:0:
220,48,28887,1,0,0:0:0:0:
220,48,29092,1,0,0:0:0:0:
220,48,29195,1,0,0:0:0:0:
220,48,29298,1,8,0:0:0:0:
220,48,29709,1,0,0:0:0:0:
220,48,29914,1,0,0:0:0:0:
220,48,30119,1,8,0:0:0:0:
220,48,30325,1,0,0:0:0:0:
220,48,30428,1,8,0:0:0:0:
220,48,30530,1,8,0:0:0:0:
220,48,30736,1,0,0:0:0:0:
220,48,30941,1,8,0:0:0:0:
220,48,31147,1,0,0:0:0:0:
220,48,31352,1,0,0:0:0:0:
220,48,31763,1,8,0:0:0:0:
220,48,32072,1,8,0:0:0:0:
220,48,32174,1,0,0:0:0:0:
220,48,32380,1,0,0:0:0:0:
220,48,32585,1,8,0:0:0:0:
220,48,32791,1,8,0:0:0:0:
220,48,32996,1,0,0:0:0:0:
220,48,33202,1,0,0:0:0:0:
220,48,33407,1,8,0:0:0:0:
220,48,33613,1,0,0:0:0:0:
220,48,33715,1,8,0:0:0:0:
220,48,33818,1,8,0:0:0:0:
220,48,34024,1,0,0:0:0:0:
220,48,34229,1,8,0:0:0:0:
220,48,34435,1,8,0:0:0:0:
220,48,34640,1,0,0:0:0:0:
220,48,35051,1,8,0:0:0:0:
220,48,35256,1,0,0:0:0:0:
220,48,35462,1,8,0:0:0:0:
220,48,35667,1,0,0:0:0:0:
220,48,35873,1,8,0:0:0:0:
220,48,36078,1,8,0:0:0:0:
220,48,36284,1,0,0:0:0:0:
220,48,36695,1,8,0:0:0:0:
220,48,36900,1,8,0:0:0:0:
220,48,37106,1,0,0:0:0:0:
220,48,37414,1,0,0:0:0:0:
220,48,37722,1,8,0:0:0:0:
220,48,37928,1,0,0:0:0:0:
220,48,38339,1,8,0:0:0:0:
220,48,38544,1,0,0:0:0:0:
220,48,38750,1,0,0:0:0:0:
220,48,38852,1,8,0:0:0:0:
220,48,38955,1,0,0:0:0:0:
220,48,39161,1,8,0:0:0:0:
220,48,39366,1,8,0:0:0:0:
220,48,39572,1,4,0:0:0:0:
220,48,39880,1,4,0:0:0:0:
220,48,40393,1,12,0:0:0:0:
220,48,40702,1,12,0:0:0:0:
220,48,41215,1,4,0:0:0:0:
220,48,41524,1,4,0:0:0:0:
220,48,41832,1,0,0:0:0:0:
220,48,42037,1,8,0:0:0:0:
220,48,42140,1,0,0:0:0:0:
220,48,42243,1,0,0:0:0:0:
220,48,42448,1,8,0:0:0:0:
220,48,42859,1,0,0:0:0:0:
220,48,43065,1,0,0:0:0:0:
220,48,43167,1,0,0:0:0:0:
220,48,43270,1,8,0:0:0:0:
220,48,43476,1,8,0:0:0:0:
220,48,43681,1,0,0:0:0:0:
220,48,43887,1,0,0:0:0:0:
220,48,44092,1,8,0:0:0:0:
220,48,44298,1,8,0:0:0:0:
220,48,44503,1,0,0:0:0:0:
220,48,44811,1,0,0:0:0:0:
220,48,44914,1,8,0:0:0:0:
220,48,45120,1,8,0:0:0:0:
220,48,45325,1,0,0:0:0:0:
220,48,45428,1,0,0:0:0:0:
220,48,45530,1,0,0:0:0:0:
220,48,45736,1,8,0:0:0:0:
220,48,45941,1,8,0:0:0:0:
220,48,46147,1,4,0:0:0:0:
220,48,46455,1,4,0:0:0:0:
220,48,46969,1,12,0:0:0:0:
220,48,47277,1,12,0:0:0:0:
220,48,47585,1,8,0:0:0:0:
220,48,47688,1,8,0:0:0:0:
220,48,47791,1,0,0:0:0:0:
220,48,48099,1,0,0:0:0:0:
220,48,48202,1,8,0:0:0:0:
220,48,48407,1,8,0:0:0:0:
220,48,48613,1,0,0:0:0:0:
220,48,48715,1,0,0:0:0:0:
220,48,48818,1,0,0:0:0:0:
220,48,49024,1,8,0:0:0:0:
220,48,49435,1,0,0:0:0:0:
220,48,49640,1,0,0:0:0:0:
220,48,49743,1,0,0:0:0:0:
220,48,49846,1,8,0:0:0:0:
220,48,50051,1,8,0:0:0:0:
220,48,50256,1,0,0:0:0:0:
220,48,50462,1,0,0:0:0:0:
220,48,50667,1,8,0:0:0:0:
220,48,50873,1,0,0:0:0:0:
220,48,51078,1,8,0:0:0:0:
220,48,51284,1,0,0:0:0:0:
220,48,51387,1,8,0:0:0:0:
220,48,51489,1,0,0:0:0:0:
220,48,51695,1,8,0:0:0:0:
220,48,52105,1,0,0:0:0:0:
220,48,52311,1,8,0:0:0:0:
220,48,52722,5,0,0:0:0:0:
220,48,52825,1,0,0:0:0:0:
220,48,52928,1,8,0:0:0:0:
220,48,53030,1,8,0:0:0:0:
220,48,53133,1,0,0:0:0:0:
220,48,53339,1,8,0:0:0:0:
220,48,53544,1,0,0:0:0:0:
220,48,53852,1,0,0:0:0:0:
220,48,53955,1,8,0:0:0:0:
220,48,54366,1,4,0:0:0:0:
220,48,54572,1,0,0:0:0:0:
220,48,54674,1,0,0:0:0:0:
220,48,54777,1,8,0:0:0:0:
220,48,54983,1,0,0:0:0:0:
220,48,55188,1,8,0:0:0:0:
220,48,55291,1,8,0:0:0:0:
220,48,55393,1,0,0:0:0:0:
220,48,55599,1,8,0:0:0:0:
220,48,55804,1,0,0:0:0:0:
220,48,55907,1,0,0:0:0:0:
220,48,56010,1,0,0:0:0:0:
220,48,56215,1,0,0:0:0:0:
220,48,56318,1,0,0:0:0:0:
220,48,56421,1,8,0:0:0:0:
220,48,56626,1,8,0:0:0:0:
220,48,56832,1,0,0:0:0:0:
220,48,56935,1,8,0:0:0:0:
220,48,57037,1,0,0:0:0:0:
220,48,57243,1,8,0:0:0:0:
220,48,57448,1,8,0:0:0:0:
220,48,57551,1,8,0:0:0:0:
220,48,57654,1,0,0:0:0:0:
220,48,57859,1,0,0:0:0:0:
220,48,57962,1,0,0:0:0:0:
220,48,58065,1,8,0:0:0:0:
220,48,58270,1,0,0:0:0:0:
220,48,58476,1,8,0:0:0:0:
220,48,58578,1,8,0:0:0:0:
220,48,58681,1,0,0:0:0:0:
220,48,58887,1,8,0:0:0:0:
220,48,59092,1,8,0:0:0:0:
220,48,59195,1,8,0:0:0:0:
220,48,59298,1,0,0:0:0:0:
220,48,59503,1,0,0:0:0:0:
220,48,59709,1,8,0:0:0:0:
220,48,59914,1,0,0:0:0:0:
220,48,60017,1,0,0:0:0:0:
220,48,60119,1,0,0:0:0:0:
220,48,60325,1,0,0:0:0:0:
220,48,60530,1,8,0:0:0:0:
220,48,60736,1,8,0:0:0:0:
220,48,60839,1,8,0:0:0:0:
220,48,60941,1,0,0:0:0:0:
220,48,61147,1,0,0:0:0:0:
220,48,61250,1,0,0:0:0:0:
220,48,61352,1,8,0:0:0:0:
220,48,61558,1,0,0:0:0:0:
220,48,61661,1,0,0:0:0:0:
220,48,61763,1,0,0:0:0:0:
220,48,61969,1,0,0:0:0:0:
220,48,62174,1,8,0:0:0:0:
220,48,62380,1,8,0:0:0:0:
220,48,62483,1,8,0:0:0:0:
220,48,62585,1,0,0:0:0:0:
220,48,62791,1,0,0:0:0:0:
220,48,62893,1,0,0:0:0:0:
220,48,62996,1,8,0:0:0:0:
220,48,63202,1,8,0:0:0:0:
220,48,63407,1,0,0:0:0:0:
220,48,63510,1,8,0:0:0:0:
220,48,63613,1,0,0:0:0:0:
220,48,63818,1,8,0:0:0:0:
220,48,64024,1,8,0:0:0:0:
220,48,64126,1,8,0:0:0:0:
220,48,64229,1,0,0:0:0:0:
220,48,64435,1,0,0:0:0:0:
220,48,64537,1,0,0:0:0:0:
220,48,64640,1,8,0:0:0:0:
220,48,64846,1,0,0:0:0:0:
220,48,65051,1,8,0:0:0:0:
220,48,65154,1,8,0:0:0:0:
220,48,65256,1,0,0:0:0:0:
220,48,65462,1,8,0:0:0:0:
220,48,65667,1,8,0:0:0:0:
220,48,65770,1,8,0:0:0:0:
220,48,65873,1,0,0:0:0:0:
220,48,66078,1,0,0:0:0:0:
220,48,66181,1,0,0:0:0:0:
220,48,66284,1,8,0:0:0:0:
220,48,66489,1,8,0:0:0:0:
220,48,66695,1,0,0:0:0:0:
220,48,66798,1,8,0:0:0:0:
220,48,66900,1,0,0:0:0:0:
220,48,67106,1,8,0:0:0:0:
220,48,67209,1,8,0:0:0:0:
220,48,67311,1,8,0:0:0:0:
220,48,67414,1,8,0:0:0:0:
220,48,67517,1,0,0:0:0:0:
220,48,67825,1,0,0:0:0:0:
220,48,67928,1,8,0:0:0:0:
220,48,68133,1,8,0:0:0:0:
220,48,68339,1,0,0:0:0:0:
220,48,68544,1,0,0:0:0:0:
220,48,68750,1,8,0:0:0:0:
220,48,68955,1,8,0:0:0:0:
220,48,69058,1,8,0:0:0:0:
220,48,69161,1,0,0:0:0:0:
220,48,69469,1,0,0:0:0:0:
220,48,69572,1,8,0:0:0:0:
220,48,69777,1,8,0:0:0:0:
220,48,69983,1,0,0:0:0:0:
220,48,70291,1,0,0:0:0:0:
220,48,70393,1,8,0:0:0:0:
220,48,70599,1,8,0:0:0:0:
220,48,70702,1,8,0:0:0:0:
220,48,70804,1,0,0:0:0:0:
220,48,71010,1,0,0:0:0:0:
220,48,71113,1,0,0:0:0:0:
220,48,71215,1,8,0:0:0:0:
220,48,71421,1,0,0:0:0:0:
220,48,71626,1,8,0:0:0:0:
220,48,71729,1,8,0:0:0:0:
220,48,71832,1,0,0:0:0:0:
220,48,72037,1,8,0:0:0:0:
220,48,72243,1,8,0:0:0:0:
220,48,72448,1,4,0:0:0:0:
220,48,72756,1,0,0:0:0:0:
220,48,73065,1,8,0:0:0:0:
220,48,73270,1,0,0:0:0:0:
220,48,73476,1,0,0:0:0:0:
220,48,73578,1,0,0:0:0:0:
220,48,73681,1,8,0:0:0:0:
220,48,73887,1,0,0:0:0:0:
220,48,74092,1,4,0:0:0:0:
220,48,74503,1,8,0:0:0:0:
220,48,74709,1,0,0:0:0:0:
220,48,74811,1,0,0:0:0:0:
220,48,74914,1,8,0:0:0:0:
220,48,75120,1,0,0:0:0:0:
220,48,75325,1,8,0:0:0:0:
220,48,75736,1,4,0:0:0:0:
220,48,75941,1,0,0:0:0:0:
220,48,76147,1,8,0:0:0:0:
220,48,76353,1,8,0:0:0:0:
220,48,76455,1,8,0:0:0:0:
220,48,76558,1,0,0:0:0:0:
220,48,76763,1,0,0:0:0:0:
220,48,76969,1,8,0:0:0:0:
220,48,77174,1,0,0:0:0:0:
220,48,77277,1,8,0:0:0:0:
220,48,77380,1,0,0:0:0:0:
220,48,77585,1,0,0:0:0:0:
220,48,77688,1,0,0:0:0:0:
220,48,77791,1,8,0:0:0:0:
220,48,77996,1,8,0:0:0:0:
220,48,78407,1,0,0:0:0:0:
220,48,78613,1,8,0:0:0:0:
220,48,78818,1,8,0:0:0:0:
220,48,78921,1,8,0:0:0:0:
220,48,79024,1,0,0:0:0:0:
220,48,79435,1,8,0:0:0:0:
220,48,79640,1,0,0:0:0:0:
220,48,79846,1,8,0:0:0:0:
220,48,79948,1,8,0:0:0:0:
220,48,80051,1,0,0:0:0:0:
220,48,80256,1,8,0:0:0:0:
220,48,80462,1,8,0:0:0:0:
220,48,80667,1,0,0:0:0:0:
220,48,80873,1,0,0:0:0:0:
220,48,80976,1,0,0:0:0:0:
220,48,81078,1,8,0:0:0:0:
220,48,81284,1,0,0:0:0:0:
220,48,81490,1,4,0:0:0:0:
220,48,81798,1,4,0:0:0:0:
220,48,82106,1,12,0:0:0:0:
220,48,82722,1,4,0:0:0:0:
220,48,82928,1,0,0:0:0:0:
220,48,83030,1,0,0:0:0:0:
220,48,83133,1,8,0:0:0:0:
220,48,83339,1,0,0:0:0:0:
220,48,83544,1,8,0:0:0:0:
220,48,83750,1,8,0:0:0:0:
220,48,83955,1,0,0:0:0:0:
220,48,84161,1,0,0:0:0:0:
220,48,84263,1,8,0:0:0:0:
220,48,84366,1,8,0:0:0:0:
220,48,84572,1,0,0:0:0:0:
220,48,84983,1,0,0:0:0:0:
220,48,85188,1,8,0:0:0:0:
220,48,85394,1,0,0:0:0:0:
220,48,85496,1,8,0:0:0:0:
220,48,85599,1,0,0:0:0:0:
220,48,86010,1,8,0:0:0:0:
220,48,86215,1,0,0:0:0:0:
220,48,86421,1,8,0:0:0:0:
220,48,86524,1,8,0:0:0:0:
220,48,86626,1,0,0:0:0:0:
220,48,86832,1,8,0:0:0:0:
220,48,87037,1,8,0:0:0:0:
220,48,87243,1,0,0:0:0:0:
220,48,87346,1,0,0:0:0:0:
220,48,87448,1,0,0:0:0:0:
220,48,87654,1,8,0:0:0:0:
220,48,87859,1,0,0:0:0:0:
220,48,88065,1,12,0:0:0:0:
220,48,88373,1,12,0:0:0:0:
220,48,88681,1,4,0:0:0:0:
