osu file format v14

[General]
AudioFilename: Dog Days.mp3
AudioLeadIn: 2000
PreviewTime: 54058
Countdown: 0
SampleSet: Normal
StackLeniency: 0.7
Mode: 1
LetterboxInBreaks: 0
WidescreenStoryboard: 0

[Editor]
DistanceSpacing: 0.9
BeatDivisor: 4
GridSize: 4
TimelineZoom: 2.1

[Metadata]
Title:No Limit
TitleUnicode:No Limit
Artist:Nana Mizuki
ArtistUnicode:水樹奈々
Creator:Doyak
Version:Inner Oni
Source:DOG DAYS"
Tags:opening 3rd season TV Size
BeatmapID:904996
BeatmapSetID:418019

[Difficulty]
HPDrainRate:6
CircleSize:4
OverallDifficulty:6
ApproachRate:7
SliderMultiplier:1.4
SliderTickRate:1

[Events]
//Background and Video events
0,0,"BG.jpg",0,0
//Break Periods
//Storyboard Layer 0 (Background)
//Storyboard Layer 1 (Fail)
//Storyboard Layer 2 (Pass)
//Storyboard Layer 3 (Foreground)
//Storyboard Sound Samples

[TimingPoints]
120,410.958904109589,4,1,0,40,1,0
6695,-100,4,1,0,55,0,0
12654,-100,4,1,0,70,0,0
13270,-100,4,1,0,80,0,0
26421,-100,4,1,0,60,0,0
39572,-100,4,1,0,70,0,0
53955,-100,4,1,0,90,0,0
54366,-100,4,1,0,80,0,1
67517,-100,4,1,0,70,0,1
75736,-100,4,1,0,80,0,0
88065,-100,4,1,0,90,0,0

[HitObjects]
280,280,120,5,0,0:0:0:0:
280,280,428,1,0,0:0:0:0:
280,280,530,1,8,0:0:0:0:
280,280,736,1,0,0:0:0:0:
280,280,1044,1,8,0:0:0:0:
280,280,1147,1,0,0:0:0:0:
280,280,1352,1,8,0:0:0:0:
280,280,1763,1,0,0:0:0:0:
280,280,2072,1,0,0:0:0:0:
280,280,2174,1,8,0:0:0:0:
280,280,2380,1,0,0:0:0:0:
280,280,2688,1,8,0:0:0:0:
280,280,2791,1,0,0:0:0:0:
280,280,2996,1,8,0:0:0:0:
280,280,3202,1,8,0:0:0:0:
280,280,3407,1,0,0:0:0:0:
280,280,3715,1,0,0:0:0:0:
280,280,3818,1,8,0:0:0:0:
280,280,4024,1,0,0:0:0:0:
280,280,4126,1,8,0:0:0:0:
280,280,4332,1,8,0:0:0:0:
280,280,4435,1,0,0:0:0:0:
256,60,4537,1,0,0:0:0:0:
280,280,4640,1,8,0:0:0:0:
256,60,5051,1,0,0:0:0:0:
256,60,5359,1,0,0:0:0:0:
256,60,5462,1,8,0:0:0:0:
256,60,5667,1,0,0:0:0:0:
256,60,5770,1,8,0:0:0:0:
256,60,5976,1,8,0:0:0:0:
256,60,6078,1,0,0:0:0:0:
256,60,6181,1,0,0:0:0:0:
256,60,6284,1,8,0:0:0:0:
256,60,6387,1,8,0:0:0:0:
256,60,6489,1,0,0:0:0:0:
256,60,6695,1,4,0:0:0:0:
256,60,6900,1,0,0:0:0:0:
256,60,7106,1,8,0:0:0:0:
256,60,7311,1,0,0:0:0:0:
256,60,7414,1,8,0:0:0:0:
256,60,7620,1,8,0:0:0:0:
256,60,7722,1,0,0:0:0:0:
256,60,7825,1,0,0:0:0:0:
256,60,7928,1,8,0:0:0:0:
256,60,8133,1,0,0:0:0:0:
256,60,8339,1,4,0:0:0:0:
256,60,8544,1,0,0:0:0:0:
256,60,8647,1,0,0:0:0:0:
256,60,8750,1,8,0:0:0:0:
256,60,8955,1,0,0:0:0:0:
256,60,9058,1,8,0:0:0:0:
256,60,9263,1,0,0:0:0:0:
256,60,9366,1,8,0:0:0:0:
256,60,9469,1,8,0:0:0:0:
256,60,9572,1,0,0:0:0:0:
256,60,9674,1,0,0:0:0:0:
256,60,9777,1,8,0:0:0:0:
256,60,9983,1,4,0:0:0:0:
256,60,10188,1,0,0:0:0:0:
256,60,10291,1,0,0:0:0:0:
256,60,10393,1,8,0:0:0:0:
256,60,10599,1,0,0:0:0:0:
256,60,10702,1,8,0:0:0:0:
256,60,10907,1,8,0:0:0:0:
256,60,11010,1,0,0:0:0:0:
256,60,11113,1,0,0:0:0:0:
256,60,11215,1,8,0:0:0:0:
256,60,11318,1,8,0:0:0:0:
256,60,11421,1,0,0:0:0:0:
256,60,11626,1,12,0:0:0:0:
256,60,11935,1,12,0:0:0:0:
256,60,12243,1,4,0:0:0:0:
256,60,12654,1,0,0:0:0:0:
256,60,12756,1,0,0:0:0:0:
256,60,12859,1,8,0:0:0:0:
256,60,13270,1,4,0:0:0:0:
256,60,13476,1,0,0:0:0:0:
256,60,13578,1,0,0:0:0:0:
256,60,13681,1,8,0:0:0:0:
256,60,13887,1,8,0:0:0:0:
256,60,13989,1,8,0:0:0:0:
256,60,14092,1,0,0:0:0:0:
256,60,14195,1,8,0:0:0:0:
256,60,14298,1,0,0:0:0:0:
256,60,14503,1,8,0:0:0:0:
256,60,14709,1,8,0:0:0:0:
256,60,14811,1,8,0:0:0:0:
256,60,14914,1,0,0:0:0:0:
256,60,15119,1,0,0:0:0:0:
256,60,15222,1,8,0:0:0:0:
256,60,15325,1,8,0:0:0:0:
256,60,15428,1,0,0:0:0:0:
256,60,15530,1,8,0:0:0:0:
256,60,15839,1,8,0:0:0:0:
256,60,15941,1,0,0:0:0:0:
256,60,16147,1,8,0:0:0:0:
256,60,16352,1,0,0:0:0:0:
256,60,16455,1,8,0:0:0:0:
256,60,16558,1,0,0:0:0:0:
256,60,16763,1,0,0:0:0:0:
256,60,16866,1,0,0:0:0:0:
256,60,16969,1,8,0:0:0:0:
256,60,17174,1,0,0:0:0:0:
256,60,17380,1,8,0:0:0:0:
256,60,17483,1,8,0:0:0:0:
256,60,17585,1,0,0:0:0:0:
256,60,17791,1,8,0:0:0:0:
256,60,17996,1,0,0:0:0:0:
256,60,18099,1,8,0:0:0:0:
256,60,18202,1,0,0:0:0:0:
256,60,18407,1,0,0:0:0:0:
256,60,18510,1,0,0:0:0:0:
256,60,18613,1,8,0:0:0:0:
256,60,18715,1,8,0:0:0:0:
256,60,18818,1,0,0:0:0:0:
256,60,19024,1,12,0:0:0:0:
256,60,19332,1,12,0:0:0:0:
256,60,19640,1,4,0:0:0:0:
256,60,20256,1,4,0:0:0:0:
256,60,20462,1,0,0:0:0:0:
256,60,20565,1,0,0:0:0:0:
256,60,20667,1,8,0:0:0:0:
256,60,20873,1,0,0:0:0:0:
256,60,21078,1,8,0:0:0:0:
256,60,21284,1,8,0:0:0:0:
256,60,21387,1,8,0:0:0:0:
256,60,21489,1,0,0:0:0:0:
256,60,21695,1,0,0:0:0:0:
256,60,21798,1,8,0:0:0:0:
256,60,21900,1,8,0:0:0:0:
256,60,22003,1,8,0:0:0:0:
256,60,22106,1,0,0:0:0:0:
256,60,22414,1,8,0:0:0:0:
256,60,22517,1,0,0:0:0:0:
256,60,22722,1,8,0:0:0:0:
256,60,22825,1,8,0:0:0:0:
256,60,22928,1,0,0:0:0:0:
256,60,23030,1,0,0:0:0:0:
256,60,23133,1,8,0:0:0:0:
256,60,23339,1,8,0:0:0:0:
256,60,23441,1,0,0:0:0:0:
256,60,23544,1,8,0:0:0:0:
256,60,23750,1,0,0:0:0:0:
256,60,23852,1,0,0:0:0:0:
256,60,23955,1,8,0:0:0:0:
256,60,24058,1,8,0:0:0:0:
256,60,24161,1,0,0:0:0:0:
256,60,24366,1,8,0:0:0:0:
256,60,24572,1,8,0:0:0:0:
256,60,24674,1,8,0:0:0:0:
256,60,24777,1,0,0:0:0:0:
256,60,24983,1,0,0:0:0:0:
256,60,25085,1,0,0:0:0:0:
256,60,25188,1,8,0:0:0:0:
256,60,25393,1,8,0:0:0:0:
256,60,25599,1,0,0:0:0:0:
256,60,26421,1,0,0:0:0:0:
256,60,26626,1,0,0:0:0:0:
256,60,26832,1,8,0:0:0:0:
256,60,27037,1,0,0:0:0:0:
256,60,27140,1,8,0:0:0:0:
256,60,27243,1,8,0:0:0:0:
256,60,27448,1,0,0:0:0:0:
256,60,27654,1,8,0:0:0:0:
256,60,27859,1,8,0:0:0:0:
256,60,28065,1,0,0:0:0:0:
256,60,28270,1,0,0:0:0:0:
256,60,28373,1,0,0:0:0:0:
256,60,28476,1,8,0:0:0:0:
256,60,28681,1,8,0:0:0:0:
256,60,28784,1,0,0:0:0:0:
256,60,28887,1,0,0:0:0:0:
256,60,29092,1,0,0:0:0:0:
256,60,29195,1,0,0:0:0:0:
256,60,29298,1,8,0:0:0:0:
256,60,29709,1,0,0:0:0:0:
256,60,29914,1,0,0:0:0:0:
256,60,30119,1,8,0:0:0:0:
256,60,30325,1,0,0:0:0:0:
256,60,30428,1,8,0:0:0:0:
256,60,30530,1,8,0:0:0:0:
256,60,30736,1,0,0:0:0:0:
256,60,30941,1,8,0:0:0:0:
256,60,31147,1,0,0:0:0:0:
256,60,31352,1,0,0:0:0:0:
256,60,31763,1,8,0:0:0:0:
256,60,31969,1,0,0:0:0:0:
256,60,32072,1,8,0:0:0:0:
256,60,32174,1,0,0:0:0:0:
256,60,32277,1,8,0:0:0:0:
256,60,32380,1,0,0:0:0:0:
256,60,32585,1,8,0:0:0:0:
256,60,32791,1,8,0:0:0:0:
256,60,32996,1,0,0:0:0:0:
256,60,33202,1,0,0:0:0:0:
256,60,33407,1,8,0:0:0:0:
256,60,33613,1,0,0:0:0:0:
256,60,33715,1,8,0:0:0:0:
256,60,33818,1,8,0:0:0:0:
256,60,34024,1,0,0:0:0:0:
256,60,34229,1,8,0:0:0:0:
256,60,34435,1,8,0:0:0:0:
256,60,34640,1,0,0:0:0:0:
256,60,35051,1,8,0:0:0:0:
256,60,35256,1,0,0:0:0:0:
256,60,35359,1,0,0:0:0:0:
256,60,35462,1,8,0:0:0:0:
256,60,35667,1,0,0:0:0:0:
256,60,35873,1,8,0:0:0:0:
256,60,36078,1,8,0:0:0:0:
256,60,36284,1,0,0:0:0:0:
256,60,36489,1,0,0:0:0:0:
256,60,36695,1,8,0:0:0:0:
256,60,36900,1,8,0:0:0:0:
256,60,37003,1,0,0:0:0:0:
256,60,37106,1,0,0:0:0:0:
256,60,37311,1,0,0:0:0:0:
256,60,37414,1,0,0:0:0:0:
256,60,37517,1,8,0:0:0:0:
256,60,37722,1,8,0:0:0:0:
256,60,37928,1,0,0:0:0:0:
256,60,38133,1,0,0:0:0:0:
256,60,38339,1,8,0:0:0:0:
256,60,38544,1,0,0:0:0:0:
256,60,38647,1,8,0:0:0:0:
256,60,38750,1,0,0:0:0:0:
256,60,38852,1,8,0:0:0:0:
256,60,38955,1,0,0:0:0:0:
256,60,39161,1,8,0:0:0:0:
256,60,39366,1,8,0:0:0:0:
256,60,39469,1,8,0:0:0:0:
256,60,39572,1,0,0:0:0:0:
256,60,39880,1,0,0:0:0:0:
256,60,40188,1,0,0:0:0:0:
256,60,40291,1,0,0:0:0:0:
256,60,40393,1,8,0:0:0:0:
256,60,40702,1,8,0:0:0:0:
256,60,41010,1,8,0:0:0:0:
256,60,41113,1,8,0:0:0:0:
256,60,41215,1,0,0:0:0:0:
256,60,41524,1,0,0:0:0:0:
256,60,41832,1,0,0:0:0:0:
256,60,41935,1,0,0:0:0:0:
256,60,42037,1,8,0:0:0:0:
256,60,42140,1,0,0:0:0:0:
256,60,42243,1,0,0:0:0:0:
256,60,42448,1,8,0:0:0:0:
256,60,42654,1,8,0:0:0:0:
256,60,42756,1,8,0:0:0:0:
256,60,42859,1,0,0:0:0:0:
256,60,43065,1,0,0:0:0:0:
256,60,43167,1,0,0:0:0:0:
256,60,43270,1,8,0:0:0:0:
256,60,43476,1,8,0:0:0:0:
256,60,43578,1,8,0:0:0:0:
256,60,43681,1,0,0:0:0:0:
256,60,43887,1,0,0:0:0:0:
256,60,44092,1,8,0:0:0:0:
256,60,44298,1,0,0:0:0:0:
256,60,44400,1,8,0:0:0:0:
256,60,44503,1,0,0:0:0:0:
256,60,44709,1,0,0:0:0:0:
256,60,44811,1,0,0:0:0:0:
256,60,44914,1,8,0:0:0:0:
256,60,45120,1,8,0:0:0:0:
256,60,45222,1,8,0:0:0:0:
256,60,45325,1,0,0:0:0:0:
256,60,45428,1,8,0:0:0:0:
256,60,45530,1,0,0:0:0:0:
256,60,45736,1,8,0:0:0:0:
256,60,45839,1,0,0:0:0:0:
256,60,46044,1,0,0:0:0:0:
256,60,46147,1,0,0:0:0:0:
256,60,46455,1,0,0:0:0:0:
256,60,46763,1,0,0:0:0:0:
256,60,46866,1,0,0:0:0:0:
256,60,46969,1,8,0:0:0:0:
256,60,47277,1,8,0:0:0:0:
256,60,47585,1,8,0:0:0:0:
256,60,47688,1,8,0:0:0:0:
256,60,47791,1,0,0:0:0:0:
256,60,48099,1,0,0:0:0:0:
256,60,48202,1,8,0:0:0:0:
256,60,48407,1,8,0:0:0:0:
256,60,48613,1,0,0:0:0:0:
256,60,48715,1,0,0:0:0:0:
256,60,48818,1,0,0:0:0:0:
256,60,49024,1,8,0:0:0:0:
256,60,49229,1,8,0:0:0:0:
256,60,49332,1,8,0:0:0:0:
256,60,49435,1,0,0:0:0:0:
256,60,49743,1,0,0:0:0:0:
256,60,49846,1,8,0:0:0:0:
256,60,50051,1,8,0:0:0:0:
256,60,50154,1,8,0:0:0:0:
256,60,50256,1,0,0:0:0:0:
256,60,50462,1,0,0:0:0:0:
256,60,50667,1,8,0:0:0:0:
256,60,50873,1,0,0:0:0:0:
256,60,50976,1,8,0:0:0:0:
256,60,51078,1,0,0:0:0:0:
256,60,51284,1,0,0:0:0:0:
256,60,51387,1,0,0:0:0:0:
256,60,51489,1,8,0:0:0:0:
256,60,51695,1,8,0:0:0:0:
256,60,51900,1,0,0:0:0:0:
256,60,52003,1,8,0:0:0:0:
256,60,52106,1,0,0:0:0:0:
256,60,52311,1,8,0:0:0:0:
256,60,52414,1,0,0:0:0:0:
256,60,52619,1,8,0:0:0:0:
256,60,52722,5,0,0:0:0:0:
256,60,52825,1,0,0:0:0:0:
256,60,52928,1,8,0:0:0:0:
256,60,53030,1,0,0:0:0:0:
256,60,53133,1,8,0:0:0:0:
256,60,53236,1,8,0:0:0:0:
256,60,53339,1,0,0:0:0:0:
256,60,53441,1,8,0:0:0:0:
256,60,53544,1,0,0:0:0:0:
256,60,53852,1,0,0:0:0:0:
256,60,53955,1,8,0:0:0:0:
256,60,54366,1,4,0:0:0:0:
256,60,54572,1,0,0:0:0:0:
256,60,54674,1,0,0:0:0:0:
256,60,54777,1,8,0:0:0:0:
256,60,54983,1,0,0:0:0:0:
256,60,55085,1,0,0:0:0:0:
256,60,55188,1,8,0:0:0:0:
256,60,55291,1,8,0:0:0:0:
256,60,55393,1,0,0:0:0:0:
256,60,55599,1,8,0:0:0:0:
256,60,55804,1,0,0:0:0:0:
256,60,55907,1,0,0:0:0:0:
256,60,56010,1,0,0:0:0:0:
256,60,56215,1,0,0:0:0:0:
256,60,56318,1,0,0:0:0:0:
256,60,56421,1,8,0:0:0:0:
256,60,56626,1,8,0:0:0:0:
256,60,56729,1,8,0:0:0:0:
256,60,56832,1,0,0:0:0:0:
256,60,56935,1,8,0:0:0:0:
256,60,57037,1,0,0:0:0:0:
256,60,57243,1,8,0:0:0:0:
256,60,57346,1,0,0:0:0:0:
256,60,57448,1,8,0:0:0:0:
256,60,57551,1,8,0:0:0:0:
256,60,57654,1,0,0:0:0:0:
256,60,57859,1,0,0:0:0:0:
256,60,57962,1,0,0:0:0:0:
256,60,58065,1,8,0:0:0:0:
256,60,58270,1,0,0:0:0:0:
256,60,58373,1,0,0:0:0:0:
256,60,58476,1,8,0:0:0:0:
256,60,58578,1,8,0:0:0:0:
256,60,58681,1,0,0:0:0:0:
256,60,58887,1,8,0:0:0:0:
256,60,59092,1,8,0:0:0:0:
256,60,59195,1,0,0:0:0:0:
256,60,59298,1,0,0:0:0:0:
256,60,59503,1,0,0:0:0:0:
256,60,59709,1,8,0:0:0:0:
256,60,59914,1,0,0:0:0:0:
256,60,60017,1,8,0:0:0:0:
256,60,60119,1,0,0:0:0:0:
256,60,60325,1,0,0:0:0:0:
256,60,60530,1,8,0:0:0:0:
256,60,60633,1,8,0:0:0:0:
256,60,60736,1,0,0:0:0:0:
256,60,60839,1,8,0:0:0:0:
256,60,60941,1,0,0:0:0:0:
256,60,61147,1,0,0:0:0:0:
256,60,61250,1,0,0:0:0:0:
256,60,61352,1,8,0:0:0:0:
256,60,61558,1,8,0:0:0:0:
256,60,61661,1,0,0:0:0:0:
256,60,61763,1,0,0:0:0:0:
256,60,61969,1,0,0:0:0:0:
256,60,62174,1,8,0:0:0:0:
256,60,62380,1,0,0:0:0:0:
256,60,62483,1,8,0:0:0:0:
256,60,62585,1,0,0:0:0:0:
256,60,62791,1,0,0:0:0:0:
256,60,62893,1,0,0:0:0:0:
256,60,62996,1,8,0:0:0:0:
256,60,63202,1,8,0:0:0:0:
256,60,63304,1,8,0:0:0:0:
256,60,63407,1,0,0:0:0:0:
256,60,63510,1,0,0:0:0:0:
256,60,63613,1,8,0:0:0:0:
256,60,63818,1,8,0:0:0:0:
256,60,63921,1,0,0:0:0:0:
256,60,64024,1,8,0:0:0:0:
256,60,64126,1,8,0:0:0:0:
256,60,64229,1,0,0:0:0:0:
256,60,64435,1,0,0:0:0:0:
256,60,64537,1,0,0:0:0:0:
256,60,64640,1,8,0:0:0:0:
256,60,64846,1,0,0:0:0:0:
256,60,64948,1,0,0:0:0:0:
256,60,65051,1,8,0:0:0:0:
256,60,65154,1,8,0:0:0:0:
256,60,65256,1,0,0:0:0:0:
256,60,65462,1,8,0:0:0:0:
256,60,65667,1,8,0:0:0:0:
256,60,65770,1,8,0:0:0:0:
256,60,65873,1,0,0:0:0:0:
256,60,66078,1,0,0:0:0:0:
256,60,66181,1,0,0:0:0:0:
256,60,66284,1,8,0:0:0:0:
256,60,66489,1,8,0:0:0:0:
256,60,66592,1,8,0:0:0:0:
256,60,66695,1,0,0:0:0:0:
256,60,66798,1,8,0:0:0:0:
256,60,66900,1,0,0:0:0:0:
256,60,67003,1,0,0:0:0:0:
256,60,67106,1,8,0:0:0:0:
256,60,67311,1,0,0:0:0:0:
256,60,67414,1,8,0:0:0:0:
256,60,67517,1,0,0:0:0:0:
256,60,67825,1,0,0:0:0:0:
256,60,67928,1,8,0:0:0:0:
256,60,68133,1,8,0:0:0:0:
256,60,68236,1,8,0:0:0:0:
256,60,68339,1,0,0:0:0:0:
256,60,68544,1,0,0:0:0:0:
256,60,68750,1,8,0:0:0:0:
256,60,68955,1,8,0:0:0:0:
256,60,69058,1,8,0:0:0:0:
256,60,69161,1,0,0:0:0:0:
256,60,69469,1,0,0:0:0:0:
256,60,69572,1,8,0:0:0:0:
256,60,69777,1,8,0:0:0:0:
256,60,69880,1,8,0:0:0:0:
256,60,69983,1,0,0:0:0:0:
256,60,70085,1,8,0:0:0:0:
256,60,70188,1,0,0:0:0:0:
256,60,70393,1,8,0:0:0:0:
256,60,70599,1,8,0:0:0:0:
256,60,70702,1,8,0:0:0:0:
256,60,70804,1,0,0:0:0:0:
256,60,71010,1,0,0:0:0:0:
256,60,71113,1,0,0:0:0:0:
256,60,71215,1,8,0:0:0:0:
256,60,71421,1,0,0:0:0:0:
256,60,71524,1,0,0:0:0:0:
256,60,71626,1,8,0:0:0:0:
256,60,71729,1,8,0:0:0:0:
256,60,71832,1,0,0:0:0:0:
256,60,72037,1,8,0:0:0:0:
256,60,72243,1,8,0:0:0:0:
256,60,72448,1,4,0:0:0:0:
256,60,72756,1,0,0:0:0:0:
256,60,73065,1,8,0:0:0:0:
256,60,73167,1,8,0:0:0:0:
256,60,73270,1,0,0:0:0:0:
256,60,73476,1,0,0:0:0:0:
256,60,73578,1,0,0:0:0:0:
256,60,73681,1,8,0:0:0:0:
256,60,73887,1,0,0:0:0:0:
256,60,74092,1,4,0:0:0:0:
256,60,74503,1,8,0:0:0:0:
256,60,74709,1,0,0:0:0:0:
256,60,74811,1,0,0:0:0:0:
256,60,74914,1,8,0:0:0:0:
256,60,75120,1,0,0:0:0:0:
256,60,75188,1,0,0:0:0:0:
256,60,75257,1,0,0:0:0:0:
256,60,75325,1,8,0:0:0:0:
256,60,75736,1,4,0:0:0:0:
256,60,75942,1,0,0:0:0:0:
256,60,76044,1,0,0:0:0:0:
256,60,76147,1,8,0:0:0:0:
256,60,76353,1,8,0:0:0:0:
256,60,76455,1,8,0:0:0:0:
256,60,76558,1,0,0:0:0:0:
256,60,76661,1,8,0:0:0:0:
256,60,76764,1,0,0:0:0:0:
256,60,76969,1,8,0:0:0:0:
256,60,77175,1,8,0:0:0:0:
256,60,77277,1,8,0:0:0:0:
256,60,77380,1,0,0:0:0:0:
256,60,77585,1,0,0:0:0:0:
256,60,77688,1,8,0:0:0:0:
256,60,77791,1,8,0:0:0:0:
256,60,77894,1,0,0:0:0:0:
256,60,77996,1,8,0:0:0:0:
256,60,78305,1,8,0:0:0:0:
256,60,78407,1,0,0:0:0:0:
256,60,78613,1,8,0:0:0:0:
256,60,78818,1,0,0:0:0:0:
256,60,78921,1,8,0:0:0:0:
256,60,79024,1,0,0:0:0:0:
256,60,79229,1,0,0:0:0:0:
256,60,79332,1,0,0:0:0:0:
256,60,79435,1,8,0:0:0:0:
256,60,79640,1,0,0:0:0:0:
256,60,79846,1,8,0:0:0:0:
256,60,79949,1,8,0:0:0:0:
256,60,80051,1,0,0:0:0:0:
256,60,80257,1,8,0:0:0:0:
256,60,80462,1,0,0:0:0:0:
256,60,80565,1,8,0:0:0:0:
256,60,80668,1,0,0:0:0:0:
256,60,80873,1,0,0:0:0:0:
256,60,80976,1,0,0:0:0:0:
256,60,81079,1,8,0:0:0:0:
256,60,81181,1,8,0:0:0:0:
256,60,81284,1,0,0:0:0:0:
256,60,81490,1,4,0:0:0:0:
256,60,81798,1,4,0:0:0:0:
256,60,82106,1,12,0:0:0:0:
256,60,82722,1,4,0:0:0:0:
256,60,82928,1,0,0:0:0:0:
256,60,83031,1,0,0:0:0:0:
256,60,83133,1,8,0:0:0:0:
256,60,83339,1,0,0:0:0:0:
256,60,83544,1,8,0:0:0:0:
256,60,83750,1,8,0:0:0:0:
256,60,83853,1,8,0:0:0:0:
256,60,83955,1,0,0:0:0:0:
256,60,84161,1,0,0:0:0:0:
256,60,84264,1,8,0:0:0:0:
256,60,84366,1,8,0:0:0:0:
256,60,84469,1,8,0:0:0:0:
256,60,84572,1,0,0:0:0:0:
256,60,84880,1,8,0:0:0:0:
256,60,84983,1,0,0:0:0:0:
256,60,85188,1,8,0:0:0:0:
256,60,85291,1,0,0:0:0:0:
256,60,85394,1,0,0:0:0:0:
256,60,85496,1,0,0:0:0:0:
256,60,85599,1,8,0:0:0:0:
256,60,85804,1,8,0:0:0:0:
256,60,85907,1,0,0:0:0:0:
256,60,86010,1,8,0:0:0:0:
256,60,86216,1,0,0:0:0:0:
256,60,86318,1,0,0:0:0:0:
256,60,86421,1,8,0:0:0:0:
256,60,86524,1,8,0:0:0:0:
256,60,86627,1,0,0:0:0:0:
256,60,86832,1,8,0:0:0:0:
256,60,87037,1,0,0:0:0:0:
256,60,87140,1,0,0:0:0:0:
256,60,87243,1,0,0:0:0:0:
256,60,87346,1,8,0:0:0:0:
256,60,87448,1,0,0:0:0:0:
256,60,87654,1,8,0:0:0:0:
256,60,87859,1,0,0:0:0:0:
256,60,88065,1,12,0:0:0:0:
256,60,88373,1,12,0:0:0:0:
256,60,88681,1,4,0:0:0:0:
