osu file format v14

[General]
AudioFilename: Dog Days.mp3
AudioLeadIn: 2000
PreviewTime: 54058
Countdown: 0
SampleSet: Normal
StackLeniency: 0.7
Mode: 1
LetterboxInBreaks: 0
WidescreenStoryboard: 0

[Editor]
DistanceSpacing: 0.9
BeatDivisor: 4
GridSize: 4
TimelineZoom: 2.1

[Metadata]
Title:No Limit
TitleUnicode:No Limit
Artist:Nana Mizuki
ArtistUnicode:水樹奈々
Creator:Doyak
Version:Futsuu
Source:DOG DAYS"
Tags:opening 3rd season TV Size
BeatmapID:904995
BeatmapSetID:418019

[Difficulty]
HPDrainRate:8
CircleSize:4
OverallDifficulty:4
ApproachRate:7
SliderMultiplier:1.4
SliderTickRate:1

[Events]
//Background and Video events
0,0,"BG.jpg",0,0
//Break Periods
//Storyboard Layer 0 (Background)
//Storyboard Layer 1 (Fail)
//Storyboard Layer 2 (Pass)
//Storyboard Layer 3 (Foreground)
//Storyboard Sound Samples

[TimingPoints]
120,410.958904109589,4,1,0,40,1,0
6695,-100,4,1,0,55,0,0
11626,-100,4,1,0,70,0,0
13270,-100,4,1,0,80,0,0
26421,-100,4,1,0,60,0,0
39572,-100,4,1,0,70,0,0
53955,-100,4,1,0,90,0,0
54366,-100,4,1,0,80,0,1
67517,-100,4,1,0,70,0,1
75736,-100,4,1,0,80,0,0
88065,-100,4,1,0,90,0,0

[HitObjects]
204,40,120,5,0,0:0:0:0:
204,40,736,1,0,0:0:0:0:
204,40,1763,1,8,0:0:0:0:
204,40,2380,1,8,0:0:0:0:
204,40,2996,1,8,0:0:0:0:
204,40,3407,1,0,0:0:0:0:
204,40,4024,1,0,0:0:0:0:
204,40,5051,1,8,0:0:0:0:
204,40,5667,1,8,0:0:0:0:
204,40,6284,1,8,0:0:0:0:
204,40,6695,1,0,0:0:0:0:
204,40,7106,1,8,0:0:0:0:
204,40,7311,1,0,0:0:0:0:
204,40,7928,1,8,0:0:0:0:
204,40,8339,1,0,0:0:0:0:
204,40,8750,1,8,0:0:0:0:
204,40,8956,1,0,0:0:0:0:
204,40,9572,1,0,0:0:0:0:
204,40,9983,1,0,0:0:0:0:
204,40,10393,1,8,0:0:0:0:
204,40,10599,1,0,0:0:0:0:
204,40,11010,1,0,0:0:0:0:
204,40,11215,1,8,0:0:0:0:
204,40,11626,1,12,0:0:0:0:
204,40,12243,1,12,0:0:0:0:
204,40,13270,1,4,0:0:0:0:
204,40,13681,1,8,0:0:0:0:
204,40,14092,1,0,0:0:0:0:
204,40,14298,1,0,0:0:0:0:
204,40,14503,1,8,0:0:0:0:
204,40,14914,1,0,0:0:0:0:
204,40,15325,1,8,0:0:0:0:
204,40,15530,1,0,0:0:0:0:
204,40,15941,1,0,0:0:0:0:
204,40,16147,1,8,0:0:0:0:
204,40,16558,1,0,0:0:0:0:
204,40,17380,1,8,0:0:0:0:
204,40,17791,1,8,0:0:0:0:
204,40,17996,1,8,0:0:0:0:
204,40,18202,1,0,0:0:0:0:
204,40,18613,1,0,0:0:0:0:
204,40,19024,1,12,0:0:0:0:
204,40,19640,1,4,0:0:0:0:
204,40,20256,1,4,0:0:0:0:
204,40,20667,1,8,0:0:0:0:
204,40,20873,1,0,0:0:0:0:
204,40,21078,1,8,0:0:0:0:
204,40,21489,1,0,0:0:0:0:
204,40,21900,1,8,0:0:0:0:
204,40,22106,1,0,0:0:0:0:
204,40,22517,1,0,0:0:0:0:
204,40,22722,1,8,0:0:0:0:
204,40,23133,1,0,0:0:0:0:
204,40,23955,1,8,0:0:0:0:
204,40,24366,1,8,0:0:0:0:
204,40,24572,1,8,0:0:0:0:
204,40,24777,1,0,0:0:0:0:
204,40,25393,1,8,0:0:0:0:
204,40,25599,1,0,0:0:0:0:
204,40,26421,1,0,0:0:0:0:
204,40,27243,1,8,0:0:0:0:
204,40,27654,1,8,0:0:0:0:
204,40,28065,1,0,0:0:0:0:
204,40,28476,1,8,0:0:0:0:
204,40,28681,1,8,0:0:0:0:
204,40,28887,1,0,0:0:0:0:
204,40,29298,1,8,0:0:0:0:
204,40,29709,1,0,0:0:0:0:
204,40,30530,1,8,0:0:0:0:
204,40,30941,1,8,0:0:0:0:
204,40,31352,1,0,0:0:0:0:
204,40,31763,1,8,0:0:0:0:
204,40,32174,1,0,0:0:0:0:
204,40,32380,1,0,0:0:0:0:
204,40,32585,1,8,0:0:0:0:
204,40,32996,1,0,0:0:0:0:
204,40,33818,1,8,0:0:0:0:
204,40,34229,1,8,0:0:0:0:
204,40,34640,1,0,0:0:0:0:
204,40,35051,1,0,0:0:0:0:
204,40,35462,1,8,0:0:0:0:
204,40,35667,1,0,0:0:0:0:
204,40,35873,1,8,0:0:0:0:
204,40,36284,1,0,0:0:0:0:
204,40,37106,1,0,0:0:0:0:
204,40,37517,1,8,0:0:0:0:
204,40,37928,1,0,0:0:0:0:
204,40,38339,1,8,0:0:0:0:
204,40,38544,1,0,0:0:0:0:
204,40,38750,1,0,0:0:0:0:
204,40,39161,1,8,0:0:0:0:
204,40,39572,1,4,0:0:0:0:
204,40,40393,1,12,0:0:0:0:
204,40,41215,1,4,0:0:0:0:
204,40,41832,1,0,0:0:0:0:
204,40,42037,1,8,0:0:0:0:
204,40,42448,1,8,0:0:0:0:
204,40,42859,1,0,0:0:0:0:
204,40,43270,1,8,0:0:0:0:
204,40,43681,1,0,0:0:0:0:
204,40,43887,1,0,0:0:0:0:
204,40,44092,1,8,0:0:0:0:
204,40,44503,1,0,0:0:0:0:
204,40,44914,1,8,0:0:0:0:
204,40,45325,1,0,0:0:0:0:
204,40,45530,1,0,0:0:0:0:
204,40,45736,1,8,0:0:0:0:
204,40,46147,1,4,0:0:0:0:
204,40,46969,1,12,0:0:0:0:
204,40,47585,1,8,0:0:0:0:
204,40,47791,1,0,0:0:0:0:
204,40,48202,1,8,0:0:0:0:
204,40,48613,1,0,0:0:0:0:
204,40,48818,1,0,0:0:0:0:
204,40,49024,1,8,0:0:0:0:
204,40,49435,1,0,0:0:0:0:
204,40,49846,1,8,0:0:0:0:
204,40,50051,1,8,0:0:0:0:
204,40,50256,1,0,0:0:0:0:
204,40,50667,1,8,0:0:0:0:
256,192,51078,12,8,52311,0:0:0:0:
204,40,52722,5,0,0:0:0:0:
204,40,53133,1,8,0:0:0:0:
204,40,53339,1,8,0:0:0:0:
204,40,53544,1,0,0:0:0:0:
204,40,54366,1,4,0:0:0:0:
204,40,54777,1,8,0:0:0:0:
204,40,54983,1,0,0:0:0:0:
204,40,55188,1,0,0:0:0:0:
204,40,55599,1,8,0:0:0:0:
204,40,56010,1,0,0:0:0:0:
204,40,56421,1,8,0:0:0:0:
204,40,56626,1,8,0:0:0:0:
204,40,56832,1,0,0:0:0:0:
204,40,57243,1,8,0:0:0:0:
204,40,57654,1,0,0:0:0:0:
204,40,58065,1,8,0:0:0:0:
204,40,58270,1,0,0:0:0:0:
204,40,58476,1,0,0:0:0:0:
204,40,58681,1,0,0:0:0:0:
204,40,58887,1,8,0:0:0:0:
204,40,59298,1,0,0:0:0:0:
204,40,59709,1,8,0:0:0:0:
204,40,59914,1,8,0:0:0:0:
204,40,60119,1,0,0:0:0:0:
204,40,60941,1,4,0:0:0:0:
204,40,61352,1,8,0:0:0:0:
204,40,61558,1,0,0:0:0:0:
204,40,61763,1,0,0:0:0:0:
204,40,62174,1,8,0:0:0:0:
204,40,62380,1,0,0:0:0:0:
204,40,62585,1,0,0:0:0:0:
204,40,62996,1,8,0:0:0:0:
204,40,63202,1,8,0:0:0:0:
204,40,63613,1,0,0:0:0:0:
204,40,63818,1,8,0:0:0:0:
204,40,64229,1,0,0:0:0:0:
204,40,64640,1,8,0:0:0:0:
204,40,64846,1,0,0:0:0:0:
204,40,65051,1,8,0:0:0:0:
204,40,65462,1,8,0:0:0:0:
204,40,65873,1,0,0:0:0:0:
204,40,66284,1,8,0:0:0:0:
204,40,66489,1,8,0:0:0:0:
204,40,66695,1,0,0:0:0:0:
204,40,67517,1,0,0:0:0:0:
204,40,67928,1,8,0:0:0:0:
204,40,68339,1,0,0:0:0:0:
204,40,68544,1,0,0:0:0:0:
204,40,68750,1,8,0:0:0:0:
204,40,69161,1,0,0:0:0:0:
204,40,69572,1,8,0:0:0:0:
204,40,69983,1,0,0:0:0:0:
204,40,70188,1,0,0:0:0:0:
204,40,70393,1,8,0:0:0:0:
204,40,70804,1,0,0:0:0:0:
204,40,71215,1,8,0:0:0:0:
204,40,71421,1,0,0:0:0:0:
204,40,71626,1,8,0:0:0:0:
204,40,72037,1,8,0:0:0:0:
204,40,72448,1,4,0:0:0:0:
204,40,73065,1,8,0:0:0:0:
204,40,73270,1,0,0:0:0:0:
204,40,73887,1,0,0:0:0:0:
204,40,74092,1,4,0:0:0:0:
204,40,74503,1,8,0:0:0:0:
204,40,74709,1,0,0:0:0:0:
204,40,75120,1,0,0:0:0:0:
204,40,75325,1,8,0:0:0:0:
204,40,75736,1,4,0:0:0:0:
204,40,76147,1,8,0:0:0:0:
204,40,76558,1,0,0:0:0:0:
204,40,76764,1,0,0:0:0:0:
204,40,76969,1,8,0:0:0:0:
204,40,77380,1,0,0:0:0:0:
204,40,77791,1,8,0:0:0:0:
204,40,77996,1,0,0:0:0:0:
204,40,78407,1,0,0:0:0:0:
204,40,78613,1,8,0:0:0:0:
204,40,79024,1,0,0:0:0:0:
204,40,79846,1,8,0:0:0:0:
204,40,80257,1,8,0:0:0:0:
204,40,80462,1,8,0:0:0:0:
204,40,80668,1,0,0:0:0:0:
204,40,81079,1,8,0:0:0:0:
204,40,81490,1,4,0:0:0:0:
204,40,82106,1,12,0:0:0:0:
204,40,82722,1,4,0:0:0:0:
204,40,83133,1,8,0:0:0:0:
204,40,83339,1,0,0:0:0:0:
204,40,83544,1,8,0:0:0:0:
204,40,83955,1,0,0:0:0:0:
204,40,84366,1,8,0:0:0:0:
204,40,84572,1,0,0:0:0:0:
204,40,84983,1,0,0:0:0:0:
204,40,85188,1,8,0:0:0:0:
204,40,85599,1,0,0:0:0:0:
204,40,86421,1,8,0:0:0:0:
204,40,86832,1,8,0:0:0:0:
204,40,87038,1,8,0:0:0:0:
204,40,87243,5,0,0:0:0:0:
204,40,87654,1,8,0:0:0:0:
204,40,88065,1,12,0:0:0:0:
204,40,88681,1,4,0:0:0:0:
