osu file format v14

[General]
AudioFilename: I_Want_UR.mp3
AudioLeadIn: 0
PreviewTime: 68230
Countdown: 0
SampleSet: Soft
StackLeniency: 0.7
Mode: 0
LetterboxInBreaks: 0
WidescreenStoryboard: 0

[Editor]
DistanceSpacing: 1
BeatDivisor: 4
GridSize: 4
TimelineZoom: 2.3

[Metadata]
Title:Million Ways=One Destination
TitleUnicode:Million Ways=One Destination
Artist:Nana Mizuki
ArtistUnicode:水樹奈々
Creator:Regraz
Version:Normal
Source:乖離性ミリオンアーサー
Tags:theme song Kairisei Kai-ri-sei Million Arthur SUPERNAL LIBERTY キングレコード King Records
BeatmapID:771202
BeatmapSetID:349458

[Difficulty]
HPDrainRate:3
CircleSize:3.2
OverallDifficulty:4
ApproachRate:4.5
SliderMultiplier:1.15
SliderTickRate:1

[Events]
//Background and Video events
0,0,"20140922143535399.jpg",0,0
//Break Periods
//Storyboard Layer 0 (Background)
//Storyboard Layer 1 (Fail)
//Storyboard Layer 2 (Pass)
//Storyboard Layer 3 (Foreground)
//Storyboard Sound Samples

[TimingPoints]
14306,379.746835443038,4,2,0,75,1,0
26647,-100,4,2,0,35,0,0
38609,-100,4,2,0,55,0,0
50761,-100,4,2,0,35,0,0
59875,-100,4,2,0,55,0,0
68989,-100,4,2,0,75,0,1
80761,-100,4,2,0,75,0,0
81141,-100,4,2,0,75,0,1
96331,-100,4,2,0,75,0,0
98989,-100,4,2,0,35,0,0

[Colours]
Combo1 : 165,4,251
Combo2 : 252,53,3
Combo3 : 21,113,251
Combo4 : 63,236,13
Combo5 : 247,221,38

[HitObjects]
395,190,14305,6,0,P|437:148|421:27,2,172.5,4|4|0,0:0|0:0|1:0,0:0:0:0:
339,204,15635,2,0,P|288:182|165:219,1,172.5,4|0,0:0|1:0,0:0:0:0:
62,202,16584,2,0,L|48:70,1,115,0|0,1:0|1:0,0:0:0:0:
162,65,17343,6,0,P|235:138|320:137,2,172.5,4|4|0,0:0|0:0|1:0,0:0:0:0:
207,29,18673,2,0,L|392:20,1,172.5,4|0,0:0|0:0,0:0:0:0:
425,126,19622,2,0,P|449:183|440:239,1,115,4|0,0:3|1:0,0:0:0:0:
331,197,20381,6,0,B|214:191|214:191|163:240|89:225,1,230,4|0,0:0|0:0,0:0:0:0:
130,113,21521,1,0,1:0:0:0:
243,97,21900,2,0,L|383:104,1,115,0|0,0:0|1:0,0:0:0:0:
399,210,22660,2,0,L|284:204,1,115,0|0,1:0|1:0,0:0:0:0:
208,291,23419,6,0,P|152:288|66:140,1,230,4|0,0:0|1:0,0:0:0:0:
142,70,24559,1,4,0:0:0:0:
327,45,26647,6,0,L|508:67,2,172.5,2|2|2,0:0|0:0|0:0,0:0:0:0:
129,162,28546,2,0,P|70:241|86:335,1,172.5,2|0,0:0|0:0,0:0:0:0:
185,341,29495,6,0,L|359:330,1,172.5,2|2,0:0|0:0,0:0:0:0:
428,239,30445,2,0,P|480:184|495:130,1,115,0|2,0:0|0:0,0:0:0:0:
267,102,31584,2,0,P|202:141|161:237,1,172.5,2|0,0:0|0:0,0:0:0:0:
244,309,32533,6,0,P|305:287|407:339,2,172.5,2|2|0,0:0|0:0|0:0,0:0:0:0:
130,291,34052,2,0,L|103:111,2,172.5,0|2|2,0:0|0:0|0:0,0:0:0:0:
242,265,35571,6,0,L|215:85,2,172.5,2|2|0,0:0|0:0|0:0,0:0:0:0:
356,270,37090,2,0,P|408:209|409:111,2,172.5,0|2|2,0:0|0:0|0:0,0:0:0:0:
269,345,38609,6,0,B|154:338|154:338|61:234,1,230,0|0,1:0|1:0,0:0:0:0:
159,170,39749,1,0,1:0:0:0:
250,100,40128,2,0,L|499:127,1,230,0|0,0:0|1:0,0:0:0:0:
484,240,41268,1,0,1:0:0:0:
402,320,41647,6,0,P|320:346|214:257,1,230,0|0,1:0|0:0,0:0:0:0:
107,303,42787,1,0,1:0:0:0:
40,209,43166,2,0,L|26:80,2,115,0|0|0,1:0|1:0|1:0,1:0:0:0:
154,219,44305,1,0,1:0:0:0:
256,167,44685,6,0,P|305:97|271:2,2,172.5,4|0|0,1:2|0:0|1:0,0:0:0:0:
201,268,46204,2,0,L|21:235,2,172.5,0|0|0,1:0|0:0|1:0,0:0:0:0:
308,306,47723,6,0,P|406:344|508:272,1,230,4|0,0:0|1:0,0:0:0:0:
464,172,48862,1,0,1:0:0:0:
432,123,49052,2,0,L|244:107,1,172.5,4|4,0:0|0:3,0:0:0:0:
221,151,49812,2,0,P|156:180|121:278,1,172.5,4|2,0:0|0:0,0:0:0:0:
205,347,50761,6,0,L|445:363,1,230,4|2,0:0|0:0,0:0:0:0:
341,151,52280,2,0,L|111:135,1,230,2|2,0:0|0:0,0:0:0:0:
248,320,53799,6,0,P|337:275|361:144,1,230,2|2,0:0|0:0,0:0:0:0:
161,46,55318,2,0,P|72:91|48:222,1,230,2|2,0:0|0:0,0:0:0:0:
253,307,56837,6,0,B|405:327|405:327|487:298,1,230,2|2,0:0|0:0,0:0:0:0:
342,114,58356,2,0,B|190:94|190:94|108:123,1,230,2|2,0:0|0:0,0:0:0:0:
237,315,59875,6,0,P|193:346|117:351,2,115,4|4|4,1:2|1:2|1:2,0:0:0:0:
347,283,61014,1,4,1:2:0:0:
435,356,61394,2,0,L|457:177,2,172.5,4|4|4,0:0|0:3|0:3,0:0:0:0:
347,283,62913,6,0,L|325:104,2,172.5,4|4|0,0:0|0:0|1:0,0:0:0:0:
252,217,64432,2,0,P|188:260|75:235,2,172.5,4|4|4,0:0|0:0|0:3,0:0:0:0:
307,116,65951,6,0,L|499:149,2,172.5,4|4|4,0:0|0:0|0:3,0:0:0:0:
250,127,67280,2,0,P|190:150|127:131,1,115,4|0,1:2|1:0,0:0:0:0:
103,97,67850,1,4,1:2:0:0:
227,290,68609,1,0,1:0:0:0:
333,246,68989,6,0,P|394:229|488:291,2,172.5,4|4|0,0:0|0:3|1:0,0:0:0:0:
223,210,70508,2,0,L|36:234,2,172.5,4|4|0,0:3|0:3|1:0,0:0:0:0:
275,107,72027,6,0,L|462:131,2,172.5,4|4|0,0:3|0:3|1:0,0:0:0:0:
174,163,73546,2,0,P|137:260|188:330,1,172.5,4|4,0:3|0:0,0:0:0:0:
281,313,74495,2,0,L|470:335,1,172.5,4|4,0:0|0:0,0:0:0:0:
411,224,75445,5,0,1:0:0:0:
483,135,75824,2,0,P|513:60|497:11,2,115,4|0|4,0:3|1:0|0:3,0:0:0:0:
369,114,76964,1,0,1:0:0:0:
272,176,77343,2,0,L|134:151,1,115,4|0,0:3|1:0,0:0:0:0:
161,270,78103,6,0,P|86:292|52:373,2,172.5,4|4|0,0:3|0:3|1:0,0:0:0:0:
213,293,79432,2,0,L|396:327,1,172.5,4|4,1:2|0:3,0:0:0:0:
427,288,80192,2,0,P|470:231|461:129,1,172.5,4|0,0:0|1:0,0:0:0:0:
349,119,81141,6,0,B|301:111|301:111|250:160|161:153,2,172.5,4|4|0,0:0|0:3|1:0,0:0:0:0:
415,212,82660,2,0,P|462:269|443:369,2,172.5,0|4|0,0:0|0:3|1:0,0:0:0:0:
311,262,84179,6,0,L|114:240,2,172.5,4|4|0,0:3|0:3|1:0,0:0:0:0:
373,165,85698,2,0,P|425:106|425:56,1,115,0|4,0:0|0:3,0:0:0:0:
377,45,86268,2,0,L|243:50,2,115,4|4|4,0:0|0:0|0:0,0:0:0:0:
426,148,87407,1,0,0:0:0:0:
384,260,87787,6,0,L|518:265,2,115,4|4|4,0:0|0:0|0:0,0:0:0:0:
296,185,88926,1,0,0:0:0:0:
204,115,89305,2,0,L|70:120,1,115,4|4,0:0|0:0,0:0:0:0:
69,233,90065,6,0,P|168:293|227:280,1,172.5,4|0,0:0|1:0,0:0:0:0:
333,274,91014,2,0,P|382:224|388:155,1,115,0|0,0:0|1:0,0:0:0:0:
324,87,91774,2,0,L|140:96,2,172.5,0|4|0,0:0|0:0|1:0,0:0:0:0:
289,196,93293,6,0,L|105:205,2,172.5,4|4|4,1:2|0:0|0:3,0:0:0:0:
335,229,94622,2,0,P|411:283|416:322,2,115,4|4|4,0:0|0:0|0:3,0:0:0:0:
222,254,95761,1,0,0:0:0:0:
194,304,95951,2,0,L|72:320,1,115,0|4,1:0|0:0,0:0:0:0:
256,192,96426,12,0,98989,0:0:0:0:
