osu file format v14

[General]
AudioFilename: Kindan no Resistance.mp3
AudioLeadIn: 2000
PreviewTime: 50880
Countdown: 0
SampleSet: Soft
StackLeniency: 0.7
Mode: 0
LetterboxInBreaks: 0
WidescreenStoryboard: 0

[Editor]
DistanceSpacing: 0.7
BeatDivisor: 4
GridSize: 4
TimelineZoom: 2.2

[Metadata]
Title:Kindan no Resistance
TitleUnicode:禁断のレジスタンス
Artist:Nana Mizuki
ArtistUnicode:水樹奈々
Creator:Ichigaki
Version:Insane
Source:Cross Ange: Tenshi to Ryuu no Rondo
Tags:Opening クロスアンジュ:天使と竜の輪舞 Sunrise TV Size ichia7x Pho HabiHolic IamKwaN
BeatmapID:554554
BeatmapSetID:239879

[Difficulty]
HPDrainRate:6.5
CircleSize:4
OverallDifficulty:7
ApproachRate:9
SliderMultiplier:2
SliderTickRate:1

[Events]
//Background and Video events
0,0,"bg.jpg",0,0
//Break Periods
//Storyboard Layer 0 (Background)
//Storyboard Layer 1 (Fail)
//Storyboard Layer 2 (Pass)
//Storyboard Layer 3 (Foreground)
//Storyboard Sound Samples

[TimingPoints]
215,333.333333333333,4,2,1,60,1,0
4881,-133.333333333333,4,2,1,60,0,0
5548,-100,4,2,1,60,0,0
6214,333.333333333333,4,2,1,60,1,0
16213,-200,4,2,1,60,0,0
16880,-133.333333333333,4,2,1,50,0,0
27047,-200,4,2,1,50,0,0
27380,-100,4,2,1,50,0,0
39213,-133.333333333333,4,2,1,60,0,0
48880,-100,4,2,1,60,0,0
51547,-100,4,2,1,75,0,1
71713,-200,4,2,1,60,0,0
72547,-100,4,2,1,60,0,0
75547,-133.333333333333,4,2,1,60,0,0
75880,-86.9565217391304,4,2,1,60,0,0
76213,-133.333333333333,4,2,1,60,0,0
76547,-86.9565217391304,4,2,1,60,0,0
76880,-100,4,2,1,60,0,0
80880,-133.333333333333,4,2,1,60,0,0
81213,-86.9565217391304,4,2,1,60,0,0
81547,-133.333333333333,4,2,1,60,0,0
81880,-86.9565217391304,4,2,1,60,0,0
82213,-100,4,2,1,60,0,0
88547,-100,4,2,1,10,0,0

[Colours]
Combo1 : 108,133,191
Combo2 : 45,82,181
Combo3 : 118,48,203
Combo4 : 148,123,168

[HitObjects]
404,240,215,5,4,0:0:0:0:
276,312,381,1,0,0:0:0:0:
160,216,548,2,0,L|144:108,1,100,0|0,0:0|0:0,0:0:0:0:
316,124,881,2,2,L|376:100,1,50
272,68,1048,2,2,L|216:96,1,50
188,156,1214,5,0,0:0:0:0:
360,184,1381,1,0,0:0:0:0:
228,224,1548,1,8,0:0:0:0:
408,256,1714,1,0,0:0:0:0:
272,296,1881,1,0,0:0:0:0:
188,156,2048,2,0,L|88:152,2,100,8|0|0,0:0|0:0|0:0,0:0:0:0:
328,96,2548,1,8,0:0:0:0:
408,256,2714,2,2,L|480:244,1,50
488,176,2881,1,8,0:0:0:0:
392,44,3048,6,0,P|268:80|184:84,1,200
256,236,3548,2,2,L|208:292,1,50
296,300,3714,2,2,L|332:256,1,50
356,184,3881,1,0,0:0:0:0:
260,82,4048,1,0,0:0:0:0:
148,180,4214,5,10,0:0:0:0:
148,180,4298,1,2,0:0:0:0:
148,180,4381,1,0,0:0:0:0:
223,273,4548,1,8,0:0:0:0:
285,120,4714,1,0,0:0:0:0:
440,204,4881,1,4,0:0:0:0:
240,344,5548,5,8,0:0:0:0:
240,344,5631,1,8,0:0:0:0:
240,344,5714,1,8,0:0:0:0:
120,236,5881,1,8,0:0:0:0:
224,128,6048,6,0,L|368:152,1,100,4|0,0:0|0:0,0:0:0:0:
436,244,6381,2,0,P|434:294|414:339,1,100,0|8,0:0|0:0,0:0:0:0:
300,188,6714,1,0,0:0:0:0:
456,160,6881,2,0,L|480:48,1,100
321,88,7214,2,0,L|296:200,2,100,8|4|0,0:0|0:0|0:0,0:0:0:0:
104,80,7714,5,0,0:0:0:0:
112,232,7881,2,0,P|160:264|212:264,1,100,8|0,0:0|0:0,0:0:0:0:
280,164,8214,2,0,P|232:132|180:132,1,100,0|0,0:0|0:0,0:0:0:0:
40,166,8548,1,8,0:0:0:0:
208,224,8714,6,0,P|264:256|372:180,1,200,4|0,0:0|0:0,0:0:0:0:
352,44,9214,1,8,0:0:0:0:
212,89,9381,1,0,0:0:0:0:
212,89,9464,1,2,0:0:0:0:
212,89,9548,1,2,0:0:0:0:
208,224,9714,1,0,0:0:0:0:
76,152,9881,1,8,0:0:0:0:
352,148,10048,6,0,B|400:148|432:160|432:160|452:128|504:96,1,150,2|0,0:0|0:0,0:0:0:0:
476,64,10381,1,0,0:0:0:0:
352,44,10548,1,8,0:0:0:0:
248,156,10714,1,0,0:0:0:0:
100,101,10881,1,8,0:0:0:0:
156,240,11048,1,8,0:0:0:0:
164,264,11131,1,8,0:0:0:0:
164,288,11214,1,8,0:0:0:0:
156,312,11298,1,8,0:0:0:0:
144,332,11381,6,0,P|94:336|32:348,1,100,4|0,0:0|0:0,0:0:0:0:
64,192,11714,1,0,0:0:0:0:
180,96,11881,2,0,B|232:88|276:40,1,100,8|0,0:0|0:0,0:0:0:0:
400,116,12214,2,0,P|444:164|472:212,2,100,0|0|8,0:0|0:0|0:0,0:0:0:0:
212,88,12714,2,0,P|152:80|88:80,1,100,4|0,0:0|0:0,0:0:0:0:
20,196,13048,5,0,0:0:0:0:
96,324,13214,2,0,L|195:310,1,100,8|0,0:0|0:0,0:0:0:0:
268,180,13548,2,0,B|284:132|288:68,2,100,0|0|8,0:0|0:0|0:0,0:0:0:0:
416,188,14048,2,0,P|464:164|516:156,1,100,4|0,0:0|0:0,0:0:0:0:
388,68,14380,5,0,0:0:0:0:
364,76,14463,1,0,0:0:0:0:
340,88,14547,1,0,0:0:0:0:
324,108,14630,1,0,0:0:0:0:
320,132,14713,1,0,0:0:0:0:
316,156,14797,1,0,0:0:0:0:
304,176,14880,1,0,0:0:0:0:
288,196,14963,1,0,0:0:0:0:
268,212,15047,1,0,0:0:0:0:
244,220,15130,1,0,0:0:0:0:
220,228,15213,1,0,0:0:0:0:
48,252,15381,6,2,B|33:240|38:189|38:189|64:161|75:113,1,150,6|2,0:0|0:0,0:0:0:0:
68,92,15714,1,8,0:0:0:0:
216,204,15881,1,8,0:0:0:0:
216,204,16881,5,0,0:0:0:0:
292,256,17048,2,0,P|240:296|200:292,1,75.0000028610231
148,264,17381,2,0,L|84:284,2,37.5000014305115
128,176,17714,2,0,L|48:200,1,75.0000028610231
72,108,18048,1,0,0:0:0:0:
160,96,18214,6,0,L|256:112,1,75.0000028610231
276,28,18548,2,0,L|349:40,1,75.0000028610231
363,201,18881,2,0,L|376:128,1,75.0000028610231,0|0,0:0|0:0,0:0:0:0:
431,317,19214,2,0,L|448:232,1,75.0000028610231
344,328,19548,5,0,0:0:0:0:
256,344,19714,1,0,0:0:0:0:
184,290,19881,1,0,0:0:0:0:
188,200,20048,1,0,0:0:0:0:
244,128,20214,2,0,L|312:72,2,75.0000028610231,0|0|0,0:0|0:0|0:0,0:0:0:0:
156,116,20714,2,0,P|108:156|100:184,1,75.0000028610231
96,260,21048,6,0,L|60:248,2,37.5000014305115
184,288,21381,2,0,P|250:258|272:188,1,150.000005722046
348,144,21881,2,0,P|356:216|352:244,2,75.0000028610231,0|0|0,0:0|0:0|0:0,0:0:0:0:
268,104,22381,5,0,0:0:0:0:
348,60,22548,2,0,P|400:84|424:124,1,75.0000028610231
449,257,22881,2,0,L|436:184,1,75.0000028610231
356,217,23214,2,0,L|368:292,1,75.0000028610231
268,204,23548,6,0,P|216:188|180:152,1,75.0000028610231
137,109,23881,2,0,P|117:140|109:177,1,75.0000028610231
102,308,24214,2,0,L|45:261,1,75.0000028610231
153,242,24548,2,0,L|211:290,1,75.0000028610231
80,160,24881,5,0,0:0:0:0:
116,76,25048,1,0,0:0:0:0:
192,28,25214,1,0,0:0:0:0:
284,32,25381,1,0,0:0:0:0:
368,64,25548,1,0,0:0:0:0:
432,128,25714,2,0,P|416:168|395:193,1,75.0000028610231
308,208,26047,5,0,0:0:0:0:
220,212,26214,1,0,0:0:0:0:
216,304,26381,2,0,L|176:344,2,37.5000014305115
308,304,26714,1,0,0:0:0:0:
392,340,26881,5,8,0:0:0:0:
312,192,27048,1,8,0:0:0:0:
312,192,27381,6,0,P|264:132|288:12,1,200,4|0,0:0|0:0,0:0:0:0:
376,92,27881,2,0,L|444:200,1,100,8|0,0:0|0:0,0:0:0:0:
360,280,28214,2,0,L|312:193,1,100,0|0,0:0|0:0,0:0:0:0:
192,188,28548,1,8,0:0:0:0:
84,135,28714,2,0,P|111:93|156:73,1,100,8|0,0:0|0:0,0:0:0:0:
192,188,29048,1,0,0:0:0:0:
83,135,29214,2,0,P|68:188|75:233,1,100,8|0,0:0|0:0,0:0:0:0:
280,64,29548,6,0,L|336:68|412:60,1,100
484,152,29881,2,0,L|428:148|352:156,1,100,8|0,0:0|0:0,0:0:0:0:
268,176,30214,1,4,0:0:0:0:
241,280,30381,1,0,0:0:0:0:
347,252,30548,1,8,0:0:0:0:
142,281,30714,2,0,P|86:233|78:193,2,100
196,176,31214,1,8,0:0:0:0:
304,120,31381,6,0,P|240:60|132:72,1,200,4|0,0:0|0:0,0:0:0:0:
196,176,31881,1,8,0:0:0:0:
212,324,32048,1,4,0:0:0:0:
248,316,32131,1,2,0:0:0:0:
276,296,32214,1,2,0:0:0:0:
304,276,32298,1,2,0:0:0:0:
328,248,32381,1,2,0:0:0:0:
340,216,32464,1,2,0:0:0:0:
356,184,32548,1,10,0:0:0:0:
376,156,32631,1,2,0:0:0:0:
404,132,32714,6,0,L|448:88,2,50
292,88,33048,1,0,0:0:0:0:
196,176,33214,2,0,P|164:112|120:60,1,100,8|0,0:0|0:0,0:0:0:0:
80,232,33548,2,0,P|112:296|156:348,1,100
252,356,33881,1,8,0:0:0:0:
352,292,34048,2,0,P|416:236|428:196,1,100
304,180,34381,5,0,0:0:0:0:
180,160,34548,2,0,L|68:92,1,100,8|0,0:0|0:0,0:0:0:0:
224,32,34881,2,0,L|336:100,1,100
396,204,35214,2,0,P|368:248|348:312,1,100,8|0,0:0|0:0,0:0:0:0:
476,140,35548,1,0,0:0:0:0:
476,140,35881,6,0,B|440:84|440:84|376:72,1,100,8|0,0:0|0:0,0:0:0:0:
316,64,36214,1,2,0:0:0:0:
284,76,36298,1,2,0:0:0:0:
260,100,36381,1,2,0:0:0:0:
228,108,36464,1,2,0:0:0:0:
192,104,36548,1,10,0:0:0:0:
64,56,36714,6,0,P|49:102|56:151,1,100
144,248,37048,2,0,P|124:292|107:340,2,100,0|8|0,0:0|0:0|0:0,0:0:0:0:
236,182,37548,2,0,L|280:210,1,50
254,86,37714,2,0,L|212:60,1,50
200,182,37881,2,0,L|244:210,1,50
218,86,38047,2,0,L|176:60,1,50
100,16,38214,5,8,0:0:0:0:
33,154,38381,1,8,0:0:0:0:
175,340,38714,1,8,0:0:0:0:
312,216,39048,1,4,0:0:0:0:
424,311,39213,5,4,0:0:0:0:
396,104,39548,1,2,0:0:0:0:
260,260,39881,1,2,0:0:0:0:
232,36,40214,1,2,0:0:0:0:
212,36,40298,1,2,0:0:0:0:
192,36,40381,1,2,0:0:0:0:
172,36,40464,1,2,0:0:0:0:
156,36,40548,1,2,0:0:0:0:
52,244,40881,5,8,0:0:0:0:
236,177,41048,1,8,0:0:0:0:
316,281,41381,1,8,0:0:0:0:
428,104,41714,1,8,0:0:0:0:
228,136,41881,5,4,0:0:0:0:
144,352,42214,1,2,0:0:0:0:
280,332,42548,1,2,0:0:0:0:
296,316,42631,1,0,0:0:0:0:
300,292,42714,1,0,0:0:0:0:
316,280,42798,1,0,0:0:0:0:
316,256,42881,1,0,0:0:0:0:
332,240,42964,1,0,0:0:0:0:
328,212,43048,2,0,L|340:160,2,37.5000014305115,0|0|8,0:0|0:0|0:0,0:0:0:0:
428,164,43381,1,2,0:0:0:0:
292,72,43548,6,0,P|220:56|156:12,1,150.000005722046,4|8,0:0|0:0,0:0:0:0:
100,112,44048,1,0,0:0:0:0:
188,180,44214,2,0,P|260:196|324:240,1,150.000005722046,0|8,0:0|0:0,0:0:0:0:
356,344,44714,1,0,0:0:0:0:
244,348,44881,2,0,P|172:332|108:288,1,150.000005722046,0|8,0:0|0:0,0:0:0:0:
74,183,45381,6,0,L|110:87,1,75.0000028610231,0|0,0:0|0:0,0:0:0:0:
220,120,45714,2,0,L|300:72,2,75.0000028610231,0|8|0,0:0|0:0|0:0,0:0:0:0:
184,228,46214,5,0,0:0:0:0:
260,312,46381,1,0,0:0:0:0:
276,164,46548,1,8,0:0:0:0:
343,249,46714,1,0,0:0:0:0:
387,35,46881,6,0,L|408:108,1,75.0000028610231,8|0,0:0|0:0,0:0:0:0:
468,320,47214,2,0,L|448:248,1,75.0000028610231,8|0,0:0|0:0,0:0:0:0:
276,36,47548,1,0,0:0:0:0:
168,68,47714,1,0,0:0:0:0:
120,172,47881,6,0,L|104:264,1,75.0000028610231,4|0,0:0|0:0,0:0:0:0:
156,324,48214,1,8,0:0:0:0:
180,320,48298,1,8,0:0:0:0:
204,332,48381,1,8,0:0:0:0:
232,328,48464,1,8,0:0:0:0:
256,320,48548,1,8,0:0:0:0:
352,320,48714,1,8,0:0:0:0:
404,208,48881,5,4,0:0:0:0:
260,164,49048,1,4,0:0:0:0:
371,64,49214,2,0,L|255:28,1,100,8|0,0:0|0:0,0:0:0:0:
144,120,49548,6,2,L|118:162,1,50,8|0,0:0|0:0,0:0:0:0:
188,192,49714,2,2,L|162:234,1,50,8|0,0:0|0:0,0:0:0:0:
228,272,49881,2,0,L|202:314,2,50,8|0|8,0:0|0:0|0:0,0:0:0:0:
256,192,50131,12,0,51214,0:0:0:0:
228,272,51548,5,4,0:0:0:0:
376,96,51714,1,0,0:0:0:0:
248,148,51881,1,8,0:0:0:0:
468,168,52048,2,0,B|440:208|448:240|448:240|460:280|444:328,1,150,0|0,0:0|0:0,0:0:0:0:
420,332,52381,5,0,0:0:0:0:
300,332,52548,1,8,0:0:0:0:
268,320,52631,1,0,0:0:0:0:
232,316,52713,1,0,0:0:0:0:
200,332,52797,1,0,0:0:0:0:
168,344,52880,1,0,0:0:0:0:
136,352,52963,1,0,0:0:0:0:
100,348,53047,1,0,0:0:0:0:
68,340,53130,1,0,0:0:0:0:
36,324,53213,1,8,0:0:0:0:
24,292,53297,1,0,0:0:0:0:
24,256,53380,1,0,0:0:0:0:
40,224,53463,1,0,0:0:0:0:
68,200,53548,6,0,L|60:4,1,150,4|0,0:0|0:0,0:0:0:0:
140,24,53881,2,0,L|143:173,1,150,4|0,0:0|0:0,0:0:0:0:
148,248,54214,6,0,P|96:232|72:160,1,100,4|0,0:0|0:0,0:0:0:0:
140,60,54548,1,8,0:0:0:0:
284,92,54714,2,0,B|284:144|284:144|304:204,1,100
348,336,55048,1,0,0:0:0:0:
240,268,55214,5,8,0:0:0:0:
232,232,55298,1,0,0:0:0:0:
220,200,55381,1,0,0:0:0:0:
196,176,55464,1,0,0:0:0:0:
164,160,55547,1,0,0:0:0:0:
132,152,55630,1,0,0:0:0:0:
100,140,55713,1,0,0:0:0:0:
80,112,55797,1,0,0:0:0:0:
92,80,55881,1,8,0:0:0:0:
116,56,55964,1,0,0:0:0:0:
152,64,56048,1,0,0:0:0:0:
176,88,56131,1,0,0:0:0:0:
208,104,56214,6,0,L|358:104,1,150,4|0,0:0|0:0,0:0:0:0:
344,184,56548,2,0,L|194:184,1,150,4|0,0:0|0:0,0:0:0:0:
136,136,56880,6,0,P|136:64|168:32,1,100
292,56,57214,1,8,0:0:0:0:
432,40,57380,6,0,P|455:83|447:131,1,100
381,266,57714,1,0,0:0:0:0:
284,163,57881,1,8,0:0:0:0:
114,40,58048,6,0,P|198:52|230:100,1,100
263,250,58381,2,0,P|219:228|194:186,1,100,0|8,0:0|0:0,0:0:0:0:
356,99,58714,2,0,P|400:67|460:59,1,100
484,180,59048,5,0,0:0:0:0:
444,324,59214,1,8,0:0:0:0:
308,264,59381,1,0,0:0:0:0:
164,332,59548,6,0,B|115:308|115:308|77:265,1,100
157,160,59881,2,0,L|124:65,2,100,8|0|0,0:0|0:0|0:0,0:0:0:0:
200,276,60381,1,0,0:0:0:0:
200,276,60464,1,0,0:0:0:0:
200,276,60548,1,8,0:0:0:0:
340,212,60714,6,0,B|288:196|288:196|228:128|132:168,1,200,4|0,0:0|0:0,0:0:0:0:
52,264,61214,1,8,0:0:0:0:
200,276,61381,6,0,B|249:291|249:291|309:359|381:327,1,200,4|8,0:0|0:0,0:0:0:0:
412,308,61798,1,8,0:0:0:0:
436,280,61881,1,8,0:0:0:0:
460,252,61964,1,8,0:0:0:0:
472,220,62048,1,8,0:0:0:0:
472,184,62131,1,8,0:0:0:0:
468,148,62214,5,4,0:0:0:0:
324,76,62381,2,0,P|212:80|188:88,1,100,0|8,0:0|0:0,0:0:0:0:
104,164,62714,2,0,P|88:184|80:280,1,100
188,352,63047,1,0,0:0:0:0:
324,292,63213,1,8,0:0:0:0:
228,260,63381,5,0,0:0:0:0:
225,234,63464,1,0,0:0:0:0:
227,210,63548,1,0,0:0:0:0:
232,187,63631,1,0,0:0:0:0:
245,165,63714,1,0,0:0:0:0:
261,148,63798,1,0,0:0:0:0:
278,131,63880,1,8,0:0:0:0:
295,111,63963,1,0,0:0:0:0:
304,88,64047,1,0,0:0:0:0:
305,64,64130,1,0,0:0:0:0:
328,76,64213,6,0,P|396:120|468:84,1,150
400,40,64548,2,0,L|376:208,1,150
452,196,64881,6,0,P|412:256|348:256,2,100,4|0|8,0:0|0:0|0:0,0:0:0:0:
304,224,65381,2,0,P|300:300|280:352,1,100
136,188,65714,5,0,0:0:0:0:
116,40,65881,1,8,0:0:0:0:
232,88,66048,1,0,0:0:0:0:
240,112,66131,1,0,0:0:0:0:
252,132,66214,1,0,0:0:0:0:
272,148,66298,1,0,0:0:0:0:
296,156,66381,1,0,0:0:0:0:
320,160,66464,1,0,0:0:0:0:
344,160,66548,1,8,0:0:0:0:
368,160,66631,1,0,0:0:0:0:
392,168,66714,1,0,0:0:0:0:
412,180,66798,1,0,0:0:0:0:
428,200,66881,6,8,L|452:292,1,50
384,300,67048,2,8,L|396:352,1,50,8|8,0:0|0:0,0:0:0:0:
320,344,67214,2,0,P|312:272|396:136,1,200,0|4,0:0|0:0,0:0:0:0:
48,324,67881,5,8,0:0:0:0:
240,264,68048,1,0,0:0:0:0:
92,132,68214,1,0,0:0:0:0:
160,344,68381,5,0,0:0:0:0:
352,284,68548,1,8,0:0:0:0:
204,152,68714,1,0,0:0:0:0:
272,356,68881,1,0,0:0:0:0:
88,40,69214,5,8,0:0:0:0:
384,96,69548,1,0,0:0:0:0:
288,212,69714,1,0,0:0:0:0:
140,248,69881,1,8,0:0:0:0:
472,280,70213,1,0,0:0:0:0:
88,164,70548,5,8,0:0:0:0:
236,300,70714,1,0,0:0:0:0:
236,300,70798,1,0,0:0:0:0:
236,300,70881,1,0,0:0:0:0:
316,128,71048,2,0,L|372:100,2,50,0|0|8,0:0|0:0|0:0,0:0:0:0:
204,152,71381,1,8,0:0:0:0:
472,40,71714,1,8,0:0:0:0:
256,192,71798,12,0,72548,0:0:0:0:
156,192,72881,5,8,0:0:0:0:
356,192,73048,1,0,0:0:0:0:
185,121,73214,1,0,0:0:0:0:
326,262,73381,1,8,0:0:0:0:
256,92,73548,1,0,0:0:0:0:
256,292,73713,1,0,0:0:0:0:
326,121,73881,1,8,0:0:0:0:
185,262,74048,1,0,0:0:0:0:
356,192,74214,1,0,0:0:0:0:
155,192,74381,1,8,0:0:0:0:
354,192,74548,6,0,L|479:189,1,100
155,192,74881,2,0,L|32:194,1,100,8|0,0:0|0:0,0:0:0:0:
354,191,75214,1,4,0:0:0:0:
72,263,75548,6,0,L|185:263,1,112.500004291535,8|0,0:0|0:0,0:0:0:0:
288,260,75880,2,0,B|320:264|320:264|328:224|376:160,1,115.000002193451
88,352,76214,6,0,L|189:302,1,112.500004291535,8|0,0:0|0:0,0:0:0:0:
308,292,76547,2,0,B|276:296|276:296|268:256|220:192,1,115.000002193451
296,112,76881,5,4,0:0:0:0:
200,148,77048,1,0,0:0:0:0:
280,88,77214,1,8,0:0:0:0:
176,52,77381,1,0,0:0:0:0:
280,56,77547,6,0,L|388:40,1,100
420,180,77881,2,0,L|312:196,1,100,8|0,0:0|0:0,0:0:0:0:
180,152,78214,5,0,0:0:0:0:
80,263,78381,2,0,L|32:176,2,100,0|8|0,0:0|0:0|0:0,0:0:0:0:
148,320,78881,2,0,L|176:264,1,50
204,292,79048,2,0,L|249:248,1,50
272,272,79214,2,0,L|329:247,1,50,8|0,0:0|0:0,0:0:0:0:
352,260,79381,2,0,L|414:256,1,50
436,248,79547,6,0,P|480:196|472:128,1,100
448,52,79880,1,0,0:0:0:0:
380,152,80048,1,0,0:0:0:0:
356,176,80131,1,0,0:0:0:0:
324,188,80214,1,0,0:0:0:0:
288,196,80298,1,0,0:0:0:0:
252,200,80381,1,0,0:0:0:0:
216,204,80464,1,0,0:0:0:0:
180,200,80548,2,8,L|156:132,1,50
96,196,80714,2,8,L|120:268,1,50
124,280,80881,6,0,P|176:300|244:280,1,112.500004291535,8|0,0:0|0:0,0:0:0:0:
324,212,81214,2,0,B|352:168|352:168|384:160|408:128,1,115.000002193451,4|0,0:0|0:0,0:0:0:0:
116,140,81548,6,0,P|138:190|200:224,1,112.500004291535,8|0,0:0|0:0,0:0:0:0:
312,236,81880,2,0,B|362:224|362:224|391:241|430:235,1,115.000002193451,4|0,0:0|0:0,0:0:0:0:
248,76,82214,6,0,P|184:28|144:20,1,100,4|0,0:0|0:0,0:0:0:0:
176,172,82548,2,0,P|240:220|280:228,1,100,8|0,0:0|0:0,0:0:0:0:
400,276,82881,2,0,L|332:360,1,100
325,203,83214,2,0,L|393:119,1,100,8|0,0:0|0:0,0:0:0:0:
327,25,83548,5,0,0:0:0:0:
215,74,83714,1,0,0:0:0:0:
151,188,83881,2,0,L|93:270,1,100,8|0,0:0|0:0,0:0:0:0:
268,272,84214,2,0,L|360:336,1,100
432,204,84548,2,0,L|489:121,1,100,8|0,0:0|0:0,0:0:0:0:
280,76,84881,6,0,L|200:132,1,50
283,165,85048,2,0,L|323:230,1,50
246,248,85214,2,0,L|210:301,1,50,8|0,0:0|0:0,0:0:0:0:
287,318,85381,2,0,L|319:368,1,50,0|0,0:0|0:0,0:0:0:0:
385,335,85548,6,0,L|455:334,1,50
484,280,85714,2,0,L|515:204,1,50
432,204,85881,2,0,L|400:150,1,50,8|0,0:0|0:0,0:0:0:0:
468,120,86048,2,0,L|502:52,1,50
417,56,86214,5,8,0:0:0:0:
190,166,86548,1,8,0:0:0:0:
326,247,86714,1,0,0:0:0:0:
280,40,87048,5,8,0:0:0:0:
40,180,87381,1,4,0:0:0:0:
256,192,87464,12,0,88548,0:0:0:0:
