osu file format v5

[General]
AudioFilename: Innocent Starter LIVE FORMULA.mp3
AudioLeadIn: 0
PreviewTime: -1
Countdown: 1
SampleSet: Normal
StackLeniency: 0.7
Mode: 0

[Metadata]
Title:Innocent Starter LIVE
Artist:Nana Mizuki
Creator:James
Version:Normal
Source:
Tags:

[Difficulty]
HPDrainRate:3
CircleSize:4
OverallDifficulty:4
SliderMultiplier:1.4
SliderTickRate:2

[Events]
//Background and Video events
1,0,"live.avi"
//Break Periods
2,45988,59468
2,93033,108558
2,185987,199239
//Storyboard Layer 0 (Background)
//Storyboard Layer 1 (Failing)
//Storyboard Layer 2 (Passing)
//Storyboard Layer 3 (Foreground)
//Storyboard Sound Samples
//Background Colour Transformations
3,100,0,0,0

[TimingPoints]
334,454.545454545455,4,2,1,100
58061,454.545454545455,4,1,1,100
97151,454.545454545455,4,2,1,100
150787,454.545454545455,4,1,1,100

[Colours]
Combo1 : 37,174,226
Combo2 : 130,187,234
Combo3 : 160,221,254
Combo4 : 0,0,255

[HitObjects]
88,224,17152,1,0
200,224,17606,1,0
312,224,18061,1,2
424,224,18515,1,2
424,336,18970,1,0
312,336,19424,1,0
200,336,19879,1,2
88,336,20334,1,2
56,168,21015,6,0,B|160:64|296:56|414:113|460:244|408:352,1,560
360,320,23061,2,0,B|265:257|144:336,1,210
40,224,24424,5,2
120,144,24879,1,2
184,232,25334,1,2
224,192,25561,1,0
264,152,25788,1,2
344,72,26243,1,2
432,136,26697,1,2
328,184,27152,1,2
368,216,27379,1,0
408,248,27606,1,2
256,320,28288,6,0,B|32:320,2,210
312,320,29879,1,0
368,320,30106,1,0
440,56,31697,6,0,B|208:56,1,210
120,56,32834,1,0
64,56,33061,1,2
64,168,33515,2,0,B|296:168,1,210
384,168,34652,1,0
440,168,34879,1,2
424,280,35334,5,2
312,304,35788,1,0
296,192,36243,1,2
224,104,36697,1,0
112,120,37152,1,2
64,224,37606,1,2
112,328,38061,1,0
224,352,38515,1,2
232,240,38970,5,2
200,136,39424,1,2
96,184,39879,1,2
120,240,40106,1,0
144,288,40334,1,2
48,232,40788,1,2
136,168,41243,1,2
64,80,41697,1,2
120,64,41924,1,0
176,72,42152,1,2
256,192,42834,12,4,45788
64,72,60788,6,0,B|216:72,1,140
312,72,61697,1,2
424,72,62151,1,2
472,200,62606,2,0,B|328:256,1,140
240,296,63515,1,2
144,240,63970,1,2
216,152,64424,5,0
288,72,64879,1,0
360,160,65333,1,2
304,256,65788,1,2
200,304,66242,1,0
120,224,66697,1,0
200,152,67151,1,2
112,80,67606,1,2
112,80,67833,1,0
112,80,68061,1,2
440,80,68742,5,0
384,80,68970,1,0
328,80,69197,2,0,B|176:80,1,140
128,80,69879,1,0
72,80,70106,1,0
256,192,70561,12,0,73742
256,192,74424,1,4
256,192,74879,1,4
360,232,75333,5,2
256,272,75788,1,2
200,288,76015,2,2,B|104:328,2,70
104,152,77151,2,2,B|24:16,1,140
88,48,77833,1,2
144,56,78061,1,0
200,48,78288,1,2
352,104,78970,5,0
352,216,79424,1,0
280,304,79879,1,2
184,248,80333,1,0
248,152,80788,1,0
160,80,81242,1,2
64,144,81697,1,2
64,144,81924,1,0
64,144,82151,1,2
440,320,83288,6,0,B|56:320,1,350
136,216,84879,1,0
56,136,85333,1,0
136,56,85788,1,4
256,56,87833,5,2
256,112,88061,1,0
256,168,88288,1,2
256,280,88742,2,0,B|256:368,2,70
256,192,91470,12,4,92833
80,104,109878,1,2
216,104,110560,1,2
272,104,110787,1,0
328,104,111014,1,2
384,104,111241,1,0
448,192,111696,1,2
304,192,112378,1,2
248,192,112605,1,0
192,192,112832,1,2
136,192,113060,1,0
48,336,113741,6,0,B|496:336,2,420
112,176,117151,5,2
160,192,117378,1,0
240,224,117832,2,0,B|328:264,3,70
368,160,118969,1,2
328,120,119196,1,0
264,64,119651,2,2,B|200:8,3,70
96,136,121014,5,2
152,128,121241,1,0
176,176,121469,1,2
280,200,121923,1,0
344,288,122378,1,2
392,312,122605,1,0
448,304,122832,1,2
56,320,124423,5,2
168,320,124878,1,0
280,320,125332,2,2,B|448:320,1,140
480,224,126241,1,2
368,224,126696,1,0
256,224,127151,2,2,B|88:224,1,140
80,56,128287,6,0,B|104:136,1,70
144,152,128741,2,0,B|200:200,1,70
248,208,129196,2,0,B|352:200,1,70
368,232,129651,2,0,B|376:312,1,70
432,312,130105,2,0,B|488:240,1,70
472,200,130560,2,0,B|472:112,3,70
344,88,131696,5,2
296,184,132151,1,2
200,120,132605,1,2
168,168,132832,1,0
136,216,133060,1,2
184,312,133514,1,2
288,352,133969,1,2
384,296,134423,1,2
384,240,134651,1,0
384,184,134878,1,2
256,192,135560,12,4,138514
56,48,140105,5,0
112,40,140332,2,2,B|217:28|216:120,1,140
232,160,141014,2,0,B|248:264|328:320|408:320|464:296,1,280
72,40,143741,1,0
128,40,143968,2,2,B|280:40,1,140
304,80,144651,2,0,B|16:80,1,280
64,184,146014,2,0,B|288:184,1,210
200,272,147151,5,0
184,160,147605,1,0
104,80,148060,1,0
208,32,148514,1,0
280,112,148969,1,0
384,64,149423,2,0,B|527:179|392:320,1,280
256,192,152605,5,4
256,192,153059,1,4
176,112,153514,6,0,B|140:158|144:240,1,105
152,304,154196,1,2
152,304,154423,1,0
152,304,154650,1,2
312,344,155332,2,0,B|387:320|384:240,1,105
392,176,156014,1,2
392,176,156241,1,0
392,176,156468,1,2
264,64,157150,5,0
232,168,157605,1,0
120,168,158059,1,2
72,272,158514,1,0
176,312,158968,1,2
272,264,159423,1,0
360,328,159877,1,2
464,296,160332,1,4
296,72,161468,6,0,B|208:24,1,70
232,96,161923,2,0,B|184:170|260:246|200:320,1,210
184,344,162832,1,0
256,192,163287,12,2,166468
256,192,167150,5,4
256,192,167605,1,4
200,96,168059,6,2,B|128:136,2,70
248,112,168741,1,0
296,88,168968,1,2
344,112,169196,1,2
392,216,169650,2,2,B|416:296,3,70
360,272,170559,1,0
352,328,170786,1,2
296,312,171014,1,2
168,200,171696,5,0
328,168,172377,1,0
328,168,172605,1,0
248,88,173059,1,0
248,88,173287,1,0
248,88,173514,1,0
88,136,174196,1,0
88,136,174423,1,0
64,240,174877,1,4
336,288,176014,6,0,B|408:208|360:112|312:80,1,210
256,192,177150,1,0
128,192,177605,1,0
256,192,178059,1,0
384,192,178514,1,0
424,192,180559,5,0
368,192,180787,1,0
312,192,181014,1,0
200,192,181468,1,0
144,192,181696,1,0
88,192,181923,1,0
256,192,184423,12,0,185787
432,64,200559,2,0,B|336:64,1,70
304,64,201014,1,0
304,64,201127,1,0
168,104,201696,1,2
208,144,201923,1,0
208,144,202037,1,2
264,200,202377,2,2,B|336:264,1,70
360,280,202832,1,2
272,344,203287,2,2,B|168:336,3,70
144,336,204196,1,0
88,336,204423,1,0
32,336,204650,1,2
96,240,205105,5,0
96,240,205332,1,0
256,208,206014,1,0
256,208,206241,1,0
312,112,206696,1,0
312,112,206923,1,0
312,112,207150,1,0
152,160,207832,1,0
152,160,208059,1,0
72,80,208514,1,4
72,80,208741,1,0
72,80,208968,1,0
232,32,209650,6,0,B|389:76|296:208,1,210
248,280,210787,1,0
248,280,211014,1,0
136,304,211468,1,0
64,216,211923,1,0
104,176,212150,2,2,B|160:112|248:112,1,140
280,112,212832,2,2,B|376:128|408:200,1,140
416,232,213514,1,0
416,232,213627,1,0
416,232,213741,1,0
112,88,215105,5,0
168,88,215332,1,0
224,88,215559,1,2
224,88,215673,1,2
352,144,216241,1,2
264,208,216696,1,2
264,152,216923,1,0
264,96,217150,1,2
264,40,217377,1,0
120,128,218059,1,2
56,224,218514,1,2
112,224,218741,1,0
168,224,218968,1,2
224,224,219196,1,0
296,304,219650,6,0,B|430:308|408:152,1,210
400,112,220559,1,0
384,56,220787,1,0
336,32,221014,2,2,B|264:88|296:168,1,140
296,264,221923,2,0,B|224:336|160:272,2,140
64,96,224196,5,0
112,64,224423,1,0
168,72,224650,1,0
168,72,224764,1,0
240,104,225105,1,0
280,144,225332,1,0
296,200,225559,1,0
296,256,225787,2,0,B|289:318|248:360,2,105
296,200,226696,1,2
384,136,227150,1,2
304,56,227605,1,2
224,136,228059,1,2
120,88,228514,1,2
88,136,228741,6,0,B|60:223,1,70
112,232,229196,2,0,B|172:264|272:240,1,140
304,240,229877,1,0
360,224,230105,2,2,B|440:192,1,70
336,120,230787,1,2
232,160,231241,1,2
192,264,231696,1,2
80,296,232150,1,2
256,192,232377,12,0,233968
