osu file format v5

[General]
AudioFilename: Heartful Song.mp3
AudioLeadIn: 0
PreviewTime: -1
Countdown: 0
SampleSet: Soft
StackLeniency: 0.7
Mode: 0
LetterboxInBreaks: 1

[Editor]
DistanceSpacing: 1.39999997615814
BeatDivisor: 4
GridSize: 8

[Metadata]
Title:Heartful Song
Artist:Nana Mizuki
Creator:Alace
Version:Full Heart
Source:
Tags:

[Difficulty]
HPDrainRate:7
CircleSize:6
OverallDifficulty:6
SliderMultiplier:1.8
SliderTickRate:0.5

[Events]
//Background and Video events
0,0,"utau.jpg"
//Break Periods
2,100886,110208
//Storyboard Layer 0 (Background)
//Storyboard Layer 1 (Fail)
//Storyboard Layer 2 (Pass)
//Storyboard Layer 3 (Foreground)
//Storyboard Sound Samples
//Background Colour Transformations
3,100,0,0,0

[TimingPoints]
401,857.142857142857,4,2,1,51,1,0
7400,-100,4,2,1,60,0,0
7686,-100,4,2,1,50,0,0
7972,-100,4,2,1,41,0,0
8258,-100,4,2,1,31,0,0
8543,-100,4,2,1,40,0,0
9115,-100,4,2,1,40,0,0
9401,-100,4,2,1,49,0,0
9686,-100,4,2,1,59,0,0
9972,-100,4,2,1,65,0,0
10258,-100,4,2,1,59,0,0
10543,-100,4,2,1,49,0,0
10829,-100,4,2,1,60,0,0
11115,-100,4,2,1,52,0,0
11401,-100,4,2,1,42,0,0
11686,-100,4,2,1,31,0,0
11972,-100,4,2,1,39,0,0
12258,-100,4,2,1,60,0,0
16543,-100,4,2,1,41,0,0
16829,-100,4,2,1,41,0,0
17115,-100,4,2,1,49,0,0
17401,-100,4,2,1,60,0,0
18543,-100,4,2,1,49,0,0
18829,-100,4,2,1,39,0,0
19115,-100,4,2,1,49,0,0
19543,-100,4,2,1,41,0,0
20829,-100,4,2,1,47,0,0
21115,-100,4,2,1,55,0,0
21401,-100,4,2,1,65,0,0
21686,-100,4,2,1,44,0,0
22686,-100,4,2,1,50,0,0
23543,-100,4,2,1,41,0,0
24258,-100,4,2,1,54,0,0
24543,-100,4,2,1,47,0,0
24829,-100,4,2,1,41,0,0
25115,-100,4,2,1,50,0,0
25401,-100,4,2,1,60,0,0
25686,-100,4,2,1,46,0,0
26972,-100,4,2,1,36,0,0
27401,-100,4,2,1,43,0,0
29829,-100,4,2,1,26,0,0
30258,-100,4,2,1,35,0,0
31115,-100,4,2,1,51,0,0
32258,-100,4,2,1,47,0,0
32543,-100,4,2,1,56,0,0
32829,-100,4,2,1,49,0,0
33115,-100,4,2,1,46,0,0
34401,-100,4,2,1,41,0,0
35258,-100,4,2,1,50,0,0
35972,-100,4,2,1,35,0,0
36829,-100,4,2,1,41,0,0
37686,-100,4,2,1,70,0,0
38258,-100,4,2,1,60,0,0
38548,-100,4,2,1,51,0,0
38829,-100,4,2,1,46,0,0
39115,-100,4,2,1,51,0,0
39401,-100,4,2,1,59,0,0
39686,-100,4,2,1,51,0,0
43543,-100,4,2,1,50,0,0
44258,-100,4,2,1,46,0,0
44829,-100,4,2,1,46,0,0
45400,-100,4,2,1,40,0,0
45972,-100,4,2,1,35,0,0
47400,-100,4,2,1,36,0,0
47543,-100,4,2,1,30,0,0
47829,-100,4,2,1,45,0,0
48258,-100,4,2,1,54,0,0
49258,-100,4,2,1,50,0,0
49400,-100,4,2,1,39,0,0
49686,-100,4,2,1,36,0,0
49972,-100,4,2,1,44,0,0
50258,-100,4,2,1,51,0,0
50543,-100,4,2,1,54,0,0
50829,-100,4,2,1,61,0,0
52115,-100,4,2,1,59,0,0
52972,-100,4,2,1,71,0,0
53400,-100,4,2,1,49,0,0
54258,-100,4,2,1,46,0,0
54829,-100,4,2,1,41,0,0
55400,-100,4,2,1,35,0,0
55686,-100,4,2,1,30,0,0
56258,-100,4,2,1,41,0,0
56829,-100,4,2,1,41,0,0
57686,-100,4,2,1,16,0,0
59543,-100,4,1,1,39,0,0
59686,-100,4,1,1,50,0,0
59972,-100,4,1,1,60,0,0
60258,-100,4,2,1,60,0,0
61115,-100,4,1,1,52,0,0
61400,-100,4,2,1,70,0,0
62829,-100,4,1,1,49,0,0
63258,-100,4,2,1,67,0,0
64400,-100,4,1,1,50,0,0
64972,-100,4,2,1,71,0,0
66258,-100,4,1,1,50,0,0
66543,-100,4,2,1,70,0,0
67972,-100,4,1,1,51,0,0
68400,-100,4,2,1,70,0,0
69543,-100,4,1,1,50,0,0
70115,-100,4,2,1,70,0,0
70543,-100,4,2,1,59,0,0
71258,-100,4,1,1,51,0,0
72115,-100,4,2,1,51,0,0
72972,-100,4,1,1,51,0,0
73400,-100,4,2,1,70,0,0
73972,-100,4,2,1,57,0,0
74829,-100,4,1,1,50,0,0
75115,-100,4,2,1,70,0,0
76543,-100,4,1,1,50,0,0
76829,-100,4,2,1,70,0,0
78258,-100,4,1,1,41,0,0
78543,-100,4,2,1,70,0,0
79972,-100,4,1,1,37,0,0
80115,-100,4,1,1,50,0,0
80400,-100,4,2,1,70,0,0
81115,-100,4,2,1,61,0,0
81400,-100,4,2,1,50,0,0
81543,-100,4,2,1,41,0,0
81686,-100,4,1,1,51,0,0
82258,-100,4,2,1,70,0,0
83400,-100,4,1,1,41,0,0
83543,-100,4,1,1,50,0,0
83829,-100,4,2,1,71,0,0
84543,-100,4,2,1,61,0,0
84829,-100,4,2,1,50,0,0
84972,-100,4,2,1,40,0,0
85115,-100,4,1,1,49,0,0
85543,-100,4,2,1,71,0,0
86829,-100,4,1,1,51,0,0
87115,-100,4,1,1,46,0,0
87258,-100,4,1,1,40,0,0
87400,-100,4,1,1,35,0,0
87543,-100,4,1,1,30,0,0
87686,-100,4,2,1,71,0,0
88258,-100,4,1,1,50,0,0
89258,-100,4,2,1,71,0,0
90258,-100,4,1,1,51,0,0
90543,-100,4,2,1,71,0,0
91829,-100,4,1,1,51,0,0
92258,-100,4,2,1,71,0,0
93686,-100,4,1,1,51,0,0
93972,-100,4,2,1,59,0,0
94543,-100,4,2,1,49,0,1
94972,-100,4,2,1,49,0,0
96400,-100,4,2,1,49,0,1
96972,-100,4,2,1,49,0,0
98115,-100,4,2,1,9,0,1
100829,-100,4,2,1,19,0,0
110972,-100,4,2,1,59,0,0
111686,-100,4,2,1,45,0,0
112258,-100,4,2,1,59,0,0
112543,-100,4,1,1,41,0,0
112972,-100,4,2,1,59,0,0
114258,-100,4,2,1,40,0,0
114400,-100,4,2,1,46,0,0
114543,-100,4,2,1,50,0,0
115115,-100,4,2,1,39,0,0
115972,-100,4,1,1,42,0,0
116258,-100,4,2,1,61,0,0
116829,-100,4,2,1,41,0,0
117258,-100,4,2,1,61,0,0
117686,-100,4,1,1,40,0,0
117972,-100,4,2,1,61,0,0
118543,-100,4,2,1,40,0,0
118829,-100,4,2,1,30,0,0
119115,-100,4,2,1,20,0,0
119400,-100,4,1,1,40,0,0
120115,-100,4,2,1,60,0,0
120829,-100,4,1,1,41,0,0
121543,-100,4,2,1,51,0,0
121972,-100,4,2,1,41,0,0
122400,-100,4,2,1,30,0,0
122686,-100,4,2,1,20,0,0
122829,-100,4,1,1,40,0,0
123115,-100,4,2,1,51,0,0
123972,-100,4,2,1,41,0,0
124258,-100,4,2,1,51,0,0
124543,-100,4,1,1,40,0,0
124829,-100,4,2,1,60,0,0
125400,-100,4,2,1,45,0,0
125972,-100,4,2,1,60,0,0
126258,-100,4,1,1,40,0,0
126829,-100,4,2,1,60,0,0
127115,-100,4,2,1,50,0,0
127400,-100,4,2,1,39,0,0
127543,-100,4,2,1,30,0,0
127972,-100,4,1,1,39,0,0
128258,-100,4,2,1,61,0,0
128829,-100,4,2,1,41,0,0
129543,-100,4,1,1,40,0,0
129972,-100,4,2,1,61,0,0
130258,-100,4,2,1,51,0,0
130543,-100,4,2,1,39,0,0
131115,-100,4,2,1,49,0,0
131400,-100,4,1,1,40,0,0
131686,-100,4,2,1,59,0,0
132258,-100,4,2,1,45,0,0
132543,-100,4,2,1,34,0,0
132829,-100,4,2,1,28,0,0
133115,-100,4,1,1,40,0,0
133829,-100,4,2,1,49,0,0
134543,-100,4,1,1,39,0,0
135400,-100,4,2,1,61,0,0
136258,-100,4,2,1,39,0,0
136543,-100,4,1,1,39,0,0
136829,-100,4,2,1,59,0,0
137400,-100,4,2,1,50,0,0
137686,-100,4,2,1,40,0,0
137972,-100,4,2,1,30,0,0
138258,-100,4,1,1,49,0,0
138543,-100,4,1,1,40,0,0
138829,-100,4,1,1,31,0,0
139115,-100,4,2,1,41,0,0
139543,-100,4,2,1,59,0,0
139972,-100,4,1,1,42,0,0
140258,-100,4,2,1,59,0,0
140829,-100,4,2,1,47,0,0
141115,-100,4,2,1,40,0,0
141258,-100,4,2,1,31,0,0
141400,-100,4,2,1,50,0,0
141686,-100,4,1,1,40,0,0
141972,-100,4,2,1,50,0,0
143400,-100,4,1,1,41,0,0
143686,-100,4,2,1,40,0,0
144972,-100,4,2,1,50,0,0
145115,-100,4,1,1,30,0,0
145258,-100,4,1,1,41,0,0
145400,-100,4,2,1,36,0,0
145543,-100,4,2,1,29,0,0
145686,-100,4,2,1,41,0,0
145972,-100,4,2,1,50,0,0
146829,-100,4,1,1,39,0,0
147115,-100,4,2,1,49,0,0
147400,-100,4,2,1,59,0,0
147686,-100,4,2,1,51,0,0
147972,-100,4,2,1,52,0,0
148258,-100,4,2,1,60,0,0
148543,-100,4,1,1,40,0,0
148829,-100,4,2,1,49,0,0
149115,-100,4,2,1,60,0,0
150258,-100,4,1,1,40,0,0
150972,-100,4,2,1,60,0,0
152972,-100,4,1,1,31,0,0
153686,-100,4,1,1,41,0,0
154258,-100,4,1,1,50,0,0
154829,-100,4,1,1,55,0,0
155829,-100,4,1,1,40,0,0
156258,-100,4,1,1,50,0,0
157400,-100,4,2,1,70,0,0
158686,-100,4,1,1,50,0,0
159258,-100,4,2,1,70,0,0
159686,-100,4,2,1,39,0,0
160400,-100,4,1,1,50,0,0
160829,-100,4,2,1,70,0,0
162258,-100,4,1,1,50,0,0
162543,-100,4,2,1,70,0,0
163400,-100,4,2,1,60,0,0
163686,-100,4,2,1,50,0,0
163829,-100,4,2,1,41,0,0
163972,-100,4,1,1,51,0,0
164543,-100,4,2,1,70,0,0
165686,-100,4,1,1,50,0,0
165972,-100,4,1,1,40,0,0
166115,-100,4,1,1,31,0,0
166258,-100,4,2,1,70,0,0
167115,-100,4,1,1,50,0,0
167972,-100,4,2,1,70,0,0
168972,-100,4,1,1,49,0,0
169400,-100,4,1,1,29,0,0
169686,-100,4,1,1,40,0,0
169829,-100,4,1,1,52,0,0
169972,-100,4,2,1,70,0,0
170829,-100,4,1,1,50,0,0
171115,-100,4,2,1,70,0,0
172400,-100,4,1,1,50,0,0
172829,-100,4,2,1,51,0,0
173400,-100,4,2,1,70,0,0
173686,-100,4,2,1,49,0,0
174258,-100,4,1,1,49,0,0
174686,-100,4,2,1,70,0,0
175972,-100,4,1,1,49,0,0
176258,-100,4,2,1,68,0,0
177115,-100,4,2,1,61,0,0
177400,-100,4,2,1,50,0,0
177686,-100,4,1,1,49,0,0
178258,-100,4,2,1,70,0,0
179400,-100,4,1,1,51,0,0
179686,-100,4,1,1,41,0,0
179829,-100,4,1,1,31,0,0
179972,-100,4,2,1,70,0,0
180972,-100,4,1,1,50,0,0
181400,-100,4,2,1,61,0,0
181686,-100,4,2,1,51,0,0
181972,-100,4,2,1,59,0,0
182829,-100,4,1,1,51,0,0
183115,-100,4,1,1,46,0,0
183258,-100,4,1,1,40,0,0
183400,-100,4,1,1,35,0,0
183543,-100,4,1,1,30,0,0
183686,-100,4,2,1,70,0,0
184400,-100,4,1,1,51,0,0
185258,-100,4,2,1,70,0,0
186115,-100,4,1,1,49,0,0
186543,-100,4,1,1,43,0,0
186829,-100,4,1,1,33,0,0
187115,-100,4,1,1,51,0,0
187543,-100,4,1,1,41,0,0
187686,-100,4,1,1,34,0,0
187829,-100,4,1,1,30,0,0
187972,-100,4,1,1,51,0,0
188400,-100,4,1,1,41,0,0
188543,-100,4,1,1,35,0,0
188686,-100,4,1,1,31,0,0
188829,-100,4,1,1,51,0,0
189115,-100,4,1,1,60,0,0
189400,-100,4,1,1,71,0,0
189686,-100,4,1,1,61,0,0
189972,-100,4,1,1,55,0,0
190115,-100,4,1,1,50,0,0
190258,-100,4,1,1,45,0,0
190400,-100,4,1,1,40,0,0
190543,-100,4,1,1,36,0,0
190686,-100,4,1,1,31,0,1

[Colours]
Combo1 : 79,184,61
Combo2 : 213,23,104
Combo3 : 77,102,223
Combo4 : 216,120,63

[HitObjects]
56,296,7258,5,0
128,280,7543,1,0
200,304,7829,1,0
272,320,8115,1,0
344,336,8401,1,0
416,320,8686,1,0
464,192,8972,5,0
392,208,9258,1,0
320,184,9543,1,0
248,168,9829,1,0
176,152,10115,1,0
104,168,10401,1,0
32,56,10686,5,0
104,40,10972,1,0
176,64,11258,1,0
248,80,11543,1,0
320,96,11829,1,0
392,80,12115,1,0
472,192,12401,6,0,B|416:216|352:168|288:192,1,180,0|0
248,248,13543,5,0
192,200,13829,1,0
176,272,14115,2,0,B|128:328|64:304,1,120
56,232,14972,2,0,B|104:176|168:200,1,120
231,223,15829,2,0,B|292:173|347:225|410:183,1,180,0|2
472,184,16972,5,0
432,120,17258,1,0
384,64,17543,2,0,B|344:16|256:24|208:64,1,180
248,120,18686,1,0
176,112,18972,1,0
128,56,19258,1,0
24,224,19829,6,0,B|128:192|176:288,1,180
224,336,20972,1,0
256,272,21258,1,0
224,208,21543,1,0
168,160,21829,5,2
352,48,22686,1,0
432,248,23543,1,2
256,328,24115,5,0
192,352,24400,1,0
120,336,24686,1,0
56,296,24972,1,0
24,232,25258,1,0
32,160,25543,1,0
95,199,25829,2,0,B|160:295|239:192|312:271,1,240,0|2
368,312,27258,5,0
440,296,27543,1,0
392,240,27829,2,0,B|472:200|448:80,2,180
392,240,30115,5,2
392,240,30400,5,2
344,288,30686,5,0
280,320,30972,1,0
208,336,31258,2,0,B|128:352|112:296|32:288,1,180
0,224,32400,1,0
72,208,32686,1,0
144,224,32972,1,0
208,264,33258,1,0
272,296,33543,2,0,B|352:368|440:312,1,180
496,280,34686,1,0
256,40,35543,5,0
32,192,36400,1,2
256,344,37258,1,2
480,192,38115,1,0
408,200,38400,5,0
336,216,38686,1,0
264,224,38972,1,0
192,208,39258,1,0
120,200,39543,1,0
48,216,39829,1,0
256,288,40686,5,0
336,192,40972,1,0
176,192,41258,1,0
256,96,41543,1,2
440,328,42400,1,0
72,328,43258,1,2
320,304,43829,6,0,B|384:320,1,60
192,304,44400,2,0,B|120:320,1,60
352,232,44972,2,0,B|288:240,1,60
160,232,45543,2,0,B|224:240,1,60
256,296,46115,1,0
256,296,46400,1,0
256,296,46686,6,0,B|272:248|232:208|256:168,1,120,0|2
251,177,47400,1,0
251,177,47543,1,0
32,272,48115,5,0
80,328,48400,2,0,B|168:376|256:328,1,180
272,264,49543,1,0
328,312,49829,1,0
400,328,50115,1,0
464,288,50400,1,0
480,216,50686,1,0
464,144,50972,1,0
104,288,51543,5,0
104,216,51829,1,0
256,248,52400,5,0
256,160,52686,1,0
416,208,53258,5,0
416,112,53543,1,0
352,48,53829,6,0,B|288:64,1,60
160,48,54400,2,0,B|224:64,1,60,0|0
288,128,54972,1,0
224,128,55258,1,0
256,192,55543,1,0
256,264,55829,1,0
256,280,55972,1,0
256,296,56115,1,0
256,368,56400,1,0
176,192,56972,5,0
256,168,57258,1,0
336,192,57543,1,0
256,192,57829,12,0,59543
256,192,59829,5,0
256,192,60115,5,0
168,88,60401,6,0,B|256:40|344:88,1,180,4|0
256,192,61543,1,0
256,192,61829,1,0
340,298,62115,2,0,B|256:344|168:296,1,180,0|0
352,104,63543,5,0
352,104,63829,2,0,B|392:192|352:288,1,180
160,280,65258,1,0
159,279,65544,2,0,B|123:192|163:104,1,180
162,104,66686,5,0
224,48,66972,1,0
296,88,67258,2,0,B|360:80|400:144,1,120
392,239,68115,2,0,B|356:299|292:291,1,120
336,192,68972,2,0,B|144:192,1,180
256,336,70401,5,0
256,336,70686,1,0
112,104,71543,1,0
384,104,72400,1,0
32,296,73258,5,0
120,320,73543,1,0
208,296,73829,1,0
296,320,74115,2,0,B|352:344|400:304|480:320,1,180,4|0
440,232,75258,5,0
352,208,75543,1,0
264,232,75829,2,0,B|200:256|144:208|80:224,1,180
24,160,76972,5,0
104,120,77258,1,0
184,160,77543,2,0,B|256:136|304:176|376:152,1,180
400,72,78686,5,0
312,40,78972,1,0
224,64,79258,2,0,B|176:80|144:48|104:64,1,120
105,63,79972,1,0
105,63,80115,1,0
48,304,80686,5,0
128,336,80972,1,0
112,248,81258,2,0,B|136:208,2,30
192,280,81829,2,0,B|248:320|312:280,1,120
240,224,82686,2,0,B|296:184|360:224,1,120
352,219,83401,1,0
352,219,83543,1,0
464,80,84115,5,0
384,48,84401,1,0
400,136,84686,2,0,B|376:176,2,30
320,104,85258,2,0,B|264:64|200:104,1,120
272,160,86115,2,0,B|216:200|152:160,1,120
128,88,86972,5,0
112,88,87115,1,0
96,88,87258,1,0
80,88,87401,1,0
64,88,87543,1,0
64,168,87829,5,0
256,352,88686,1,0
448,168,89543,1,0
200,336,90115,5,0
312,336,90400,1,0
176,264,90686,1,0
336,264,90972,1,0
256,280,91258,2,0,B|232:216|272:160|256:96,1,180
296,32,92400,5,0
232,112,92686,1,0
272,184,92972,1,0
240,256,93258,1,0
256,320,93543,1,0
328,280,93829,5,0
400,232,94115,1,0
400,144,94400,1,0
328,96,94686,1,4
152,184,95258,5,0
152,184,95543,2,0,B|120:256|176:312,1,120
256,344,96400,2,0,B|256:224,1,120,4|0
360,184,97258,2,0,B|392:256|336:312,1,120
256,192,98115,12,0,100686
392,64,111258,6,0,B|320:80,1,60
272,40,111829,2,0,B|208:8|176:88,1,120,4|0
224,136,112686,2,0,B|352:136,1,120
399,183,113543,2,0,B|370:259|306:227,1,120,0|0
306,227,114258,1,0
306,227,114400,1,2
240,264,114686,5,0
248,336,114972,1,0
176,360,115258,2,0,B|112:304|184:224|104:184,1,180,0|0
48,184,116401,1,0
96,128,116686,1,0
160,88,116972,2,0,B|200:40|280:48,1,120,0|0
336,32,117829,1,0
408,48,118115,1,0
360,104,118401,1,0
336,176,118686,2,0,B|320:216|328:240,2,60,2|2|2
408,176,119543,5,0
256,328,120401,1,0
96,176,121258,1,0
256,96,121829,1,0
256,168,122115,2,0,B|256:240,2,60,2|2|2
256,96,122972,5,0
184,192,123258,1,0
256,288,123543,1,0
328,192,123829,1,0
184,192,124115,6,0,B|112:192,2,60,2|2|0
248,232,124972,5,0
248,152,125258,1,0
320,160,125543,2,0,B|360:96|432:160,1,120,4|0
421,232,126401,2,0,B|360:288|320:224,1,120
256,192,127258,1,0
240,192,127401,1,0
224,192,127543,2,0,B|96:192,1,120
32,208,128401,5,0
80,264,128686,1,0
136,312,128972,2,0,B|224:368|312:312,1,180
256,264,130115,1,0
184,264,130401,1,0
216,200,130686,2,0,B|256:160|200:128|232:80,1,120
224,16,131543,1,0
224,16,131829,1,0
288,56,132115,6,0,B|344:88,1,60,0|2
335,159,132686,2,0,B|283:189,1,60,2|2
248,120,133258,5,0
32,160,134115,1,0
184,312,134972,1,0
400,304,135829,6,0,B|456:272,1,60,0|0
408,216,136401,2,0,B|344:208,1,60
384,144,136972,2,0,B|456:128,1,60
400,72,137543,2,0,B|320:48,2,60,2|2|2
472,88,138401,5,0
488,160,138686,1,0
456,224,138972,1,0
408,280,139258,2,0,B|376:328|296:304,1,120,4|0
336,240,140115,1,0
264,216,140401,1,0
192,240,140686,1,0
144,296,140972,1,2
144,296,141115,1,0
144,296,141258,1,0
56,288,141543,6,0,B|80:224,1,60
56,96,142115,2,0,B|80:160,1,60,0|0
184,280,142686,2,0,B|128:240,1,60,0|0
184,104,143258,2,0,B|128:144,1,60
200,192,143829,1,0
200,192,144115,1,0
200,192,144400,6,0,B|328:192,1,120,0|2
320,192,145115,1,0
320,192,145258,1,0
392,176,145543,5,0
448,224,145829,1,2
400,280,146115,2,0,B|368:352|288:352,1,120
240,352,146972,1,0
168,344,147258,1,0
104,312,147543,1,0
56,264,147829,1,0
48,192,148115,5,0
56,120,148400,1,0
104,72,148686,1,0
168,40,148972,1,0
184,112,149258,6,0,B|272:64|360:120,1,180
184,272,150400,2,0,B|272:320|360:264,1,180
464,192,151543,6,0,B|368:224|288:160|160:192,1,300
112,232,153258,5,0
112,152,153543,1,0
176,264,153829,1,0
176,120,154115,1,0
240,232,154400,1,0
240,152,154686,1,0
296,192,154972,5,0
312,192,155115,1,0
328,192,155258,1,0
344,192,155400,1,0
360,192,155543,1,0
376,192,155686,1,0
392,192,155829,1,0
464,192,156115,1,0
408,264,156400,6,0,B|344:344|248:352,1,180,4|0
256,192,157543,1,0
256,192,157829,1,0
255,32,158115,2,0,B|168:40|104:120,1,180
424,192,159543,5,0
424,192,159829,2,0,B|368:240|312:136|256:192,1,180,4|0
192,240,160972,1,0
192,144,161258,1,0
256,88,161543,5,0
376,104,161829,1,0
456,192,162115,1,0
376,280,162400,1,0
256,296,162686,1,0
312,192,162972,6,0,B|248:192,1,60
168,192,163543,1,0
168,192,163686,1,0
168,192,163829,1,0
96,152,164115,2,0,B|104:80|184:64,1,120
224,128,164972,2,0,B|290:141|298:213,1,120
224,248,165829,1,0
224,248,165972,1,0
224,248,166115,1,0
272,312,166400,5,0
352,336,166686,1,0
472,112,167543,1,0
224,144,168400,1,0
16,288,169258,5,0
80,232,169543,1,0
80,232,169686,1,0
80,232,169829,1,0
88,312,170115,2,0,B|192:336|224:224,1,180
152,184,171258,1,0
224,144,171543,1,0
288,192,171829,2,0,B|376:136|472:240,1,180
480,296,172972,1,0
480,296,173115,1,0
480,296,173258,1,0
400,320,173543,5,0
328,280,173829,1,0
328,280,173972,1,0
328,280,174115,1,0
400,240,174400,2,0,B|472:240|496:160,1,120
456,96,175258,5,0
344,152,175543,1,0
256,56,175829,1,0
168,152,176115,1,0
56,96,176400,1,0
56,96,176686,5,0
16,168,176972,1,0
32,248,177258,1,0
32,248,177400,1,0
32,248,177543,1,0
88,184,177829,2,0,B|128:224|168:192|200:232,1,120
160,304,178686,1,0
240,288,178972,1,0
288,216,179258,1,0
256,136,179543,1,0
256,136,179686,1,0
256,136,179829,1,0
336,120,180115,5,0
408,160,180400,2,0,B|520:176|480:304,1,180
416,240,181543,1,0
416,240,181686,1,0
416,240,181829,1,0
376,312,182115,2,0,B|312:272|336:200,1,120
400,168,182972,5,0
411,157,183115,1,0
423,145,183258,1,0
434,134,183400,1,0
445,123,183543,1,0
376,72,183829,5,0
128,136,184686,1,0
288,328,185543,1,0
256,40,186400,5,0
216,104,186686,1,0
296,104,186972,1,0
368,144,187258,5,0
304,176,187543,1,0
288,184,187686,1,0
272,192,187829,1,0
208,224,188115,1,0
272,256,188400,1,0
288,264,188543,1,0
304,272,188686,1,0
352,224,188972,5,0
424,240,189258,1,0
496,224,189543,1,0
424,168,189829,5,0
424,152,189972,1,0
424,136,190115,1,0
424,120,190258,1,0
424,104,190400,1,0
424,88,190543,1,0
424,72,190686,1,4
