osu file format v7

[General]
AudioFilename: Discotheque.mp3
AudioLeadIn: 0
PreviewTime: 64295
Countdown: 0
SampleSet: Normal
StackLeniency: 0.7
Mode: 0
LetterboxInBreaks: 1

[Editor]
DistanceSpacing: 1
BeatDivisor: 4
GridSize: 8

[Metadata]
Title:Discotheque
Artist:Nana Mizuki
Creator:taka1235
Version:TAG
Source:Rosario to Vampire
Tags:Miccoliasms

[Difficulty]
HPDrainRate:7
CircleSize:5
OverallDifficulty:7
SliderMultiplier:1.8
SliderTickRate:1

[Events]
//Background and Video events
0,0,"Rosario_to_Vampire.jpg"
//Break Periods
2,11523,13780
2,31663,33920
2,87677,94339
2,155859,168185
//Storyboard Layer 0 (Background)
//Storyboard Layer 1 (Fail)
//Storyboard Layer 2 (Pass)
//Storyboard Layer 3 (Foreground)
//Storyboard Sound Samples
//Background Colour Transformations
3,100,163,162,255

[TimingPoints]
5030,419.58041958042,4,2,0,71,1,0
17935,-100,4,1,0,80,0,0
18354,-100,4,1,0,71,0,0
18774,-100,4,1,0,80,0,0
19193,-100,4,1,0,71,0,0
19613,-100,4,1,0,64,0,0
20452,-100,4,1,0,70,0,0
21291,-100,4,1,0,81,0,0
21711,-100,4,1,0,70,0,0
22130,-100,4,1,0,80,0,0
22550,-100,4,1,0,70,0,0
34718,-100,4,1,0,50,0,0
48144,-100,4,1,0,60,0,0
53179,-100,4,1,0,45,0,0
53599,-100,4,1,0,50,0,0
54018,-100,4,1,0,55,0,0
54438,-100,4,1,0,71,0,0
55277,-100,4,1,0,50,0,0
57795,-100,4,1,0,55,0,0
58424,-100,4,1,0,50,0,0
58634,-100,4,1,0,54,0,0
59263,-100,4,1,0,50,0,0
59473,-100,4,1,0,55,0,0
60732,-100,4,1,0,60,0,0
60942,-100,4,1,0,55,0,0
61151,-100,4,1,0,61,0,0
61571,-100,4,1,0,55,0,0
61991,-100,4,1,0,66,0,0
62410,-100,4,1,0,70,0,0
62830,-100,4,1,0,76,0,0
63249,-100,4,1,0,80,0,0
64298,-100,4,1,0,74,0,0
64928,-100,4,1,0,80,0,0
65032,-100,4,1,0,80,0,1
65347,-100,4,1,0,75,0,1
65767,-100,4,1,0,80,0,1
66186,-100,4,1,0,74,0,1
68284,-100,4,1,0,85,0,1
70592,-100,4,1,0,85,0,1
71221,-100,4,1,0,81,0,1
71641,-100,4,1,0,80,0,1
74578,-100,4,1,0,61,0,1
75417,-100,4,1,0,70,0,1
76256,-100,4,1,0,81,0,1
77095,-100,4,1,0,90,0,1
77935,-100,4,1,0,95,0,1
80032,-100,4,1,0,61,0,0
95137,-100,4,1,0,50,0,0
98284,-100,4,1,0,41,0,0
98914,-100,4,1,0,50,0,0
99123,-100,4,1,0,40,0,0
99753,-100,4,1,0,50,0,0
102040,-100,4,1,0,44,0,0
104788,-100,4,1,0,51,0,0
104998,-100,4,1,0,40,0,0
105627,-100,4,1,0,50,0,0
105837,-100,4,1,0,40,0,0
108564,-100,4,1,0,50,0,0
113599,-100,4,1,0,40,0,0
114018,-100,4,1,0,50,0,0
114438,-100,4,1,0,65,0,0
114858,-100,4,1,0,74,0,0
115697,-100,4,1,0,51,0,0
118844,-100,4,1,0,50,0,0
119263,-100,4,1,0,55,0,0
119683,-100,4,1,0,50,0,0
120102,-100,4,1,0,54,0,0
121991,-100,4,1,0,49,0,0
122410,-100,4,1,0,60,0,0
122830,-100,4,1,0,71,0,0
123249,-100,4,1,0,75,0,0
123669,-100,4,1,0,80,0,0
124718,-100,4,1,0,65,0,0
125347,-100,4,1,0,80,0,0
125452,-100,4,1,0,80,0,1
135207,-100,4,1,0,74,0,1
137935,-100,4,1,0,80,0,1
138774,-100,4,1,0,85,0,1
140452,-100,4,1,0,64,0,0
148844,-100,4,1,0,55,0,0
149263,-100,4,1,0,60,0,0
149683,-100,4,1,0,64,0,0
150102,-100,4,1,0,70,0,0
168984,-200,4,1,0,64,0,0
170242,-200,4,1,0,31,0,0
175697,-100,4,1,0,60,0,0
182410,-100,4,1,0,60,0,0
183249,-100,4,1,0,35,0,0
184088,-100,4,1,0,65,0,0
184928,-100,4,1,0,55,0,0
186186,-100,4,1,0,44,0,0
186606,-100,4,1,0,55,0,0
187025,-100,4,1,0,59,0,0
187445,-200,4,1,0,64,0,0
188704,-100,4,1,0,0,0,0
189123,-200,4,1,0,68,0,0
190382,-200,4,1,0,0,0,0
190802,-200,4,2,0,50,0,0
197515,-200,4,2,0,60,0,0
201501,-200,4,2,0,65,0,0
202340,-200,4,2,0,71,0,0
204648,-100,4,1,0,46,0,0
205067,-100,4,1,0,55,0,0
205487,-100,4,1,0,64,0,0
205907,-100,4,1,0,70,0,0
206326,-100,4,1,0,74,0,0
206746,-100,4,1,0,80,0,0
206956,-100,4,1,0,75,0,0
207585,-100,4,1,0,81,0,0
207690,-100,4,1,0,80,0,1
218494,-100,4,1,0,85,0,1
220172,-100,4,1,0,90,0,1
221011,-100,4,1,0,94,0,1
222690,-100,4,1,0,54,0,0

[Colours]
Combo1 : 166,255,166
Combo2 : 255,128,255
Combo3 : 255,255,255
Combo4 : 128,255,255

[HitObjects]
136,280,5030,1,0
136,280,5239,1,0
136,280,5449,2,0,B|72:200|144:96,1,180,2|0
296,192,6288,5,0
296,192,6498,1,0
296,192,6708,2,0,B|496:192,1,180,2|0
384,40,7547,6,0,B|432:40,2,45
296,40,7967,1,4
296,216,8386,5,0
296,216,8596,1,0
296,216,8806,2,0,B|208:272|96:200,1,180,2|0
216,56,9645,5,0
216,56,9855,1,0
216,56,10064,2,0,B|216:240,1,180,2|0
392,280,10904,6,0,B|448:280,2,45
304,280,11323,1,4
256,192,14680,12,0,17617
256,312,18036,5,0
448,192,18456,1,8
256,64,18876,1,0
80,192,19295,1,8
256,64,19715,5,0
256,64,19925,1,0
256,64,20134,1,8
256,320,20554,6,0,B|256:128,1,180,0|8
80,192,21393,5,0
80,192,21813,1,8
432,192,22232,5,0
432,192,22652,1,8
256,328,23071,5,0
256,328,23281,1,0
256,328,23491,1,8
256,328,23701,2,0,B|280:232|232:232|256:128,1,180
256,64,24330,6,0,B|256:16,2,45,8|0|0
184,120,24750,6,0,B|184:168|120:192|56:168|56:120,1,180,0|8
328,264,25589,6,0,B|328:216|392:192|456:216|456:264,1,180,0|8
392,96,26428,5,0
392,96,26638,1,0
392,96,26848,1,8
120,288,27267,5,0
120,288,27477,1,0
120,288,27687,1,8
256,192,28106,6,0,B|256:8,3,180,0|8|0|8
128,136,29785,6,0,B|128:40|256:8|392:40|392:144,2,360,0|0|4
96,288,34820,5,0
96,288,35030,1,0
96,288,35239,1,8
168,192,35659,6,0,B|352:192,1,180,0|8
440,192,36288,1,0
376,128,36498,2,0,B|376:80|440:56|504:80|504:144,2,180,0|8|0
152,128,37757,6,0,B|56:128,2,90,8|0|0
360,256,38596,6,0,B|456:256,2,90,8|0|0
256,80,39435,5,8
256,80,39645,1,0
200,152,39855,2,0,B|96:152,1,90
312,152,40274,2,0,B|408:152,1,90,8|0
256,152,40694,6,0,B|256:360,2,180,0|8|0
176,104,41743,5,0
176,104,41953,1,8
336,192,42372,2,0,B|448:192|448:48,2,180,0|8|0
256,240,43421,2,0,B|256:344,2,90,0|8|0
256,152,44050,1,0
128,280,44470,6,0,B|32:280,2,90,8|0|0
384,104,45309,6,0,B|480:104,2,90,8|0|0
256,232,46148,5,8
256,232,46358,1,0
256,232,46568,2,0,B|288:136|232:136|256:48,2,180,0|8|0
168,256,47617,5,0
104,192,47827,2,0,B|64:160|64:96,2,90,8|0|4
408,192,48666,6,0,B|448:224|448:288,2,90,8|0|4
112,296,49505,6,0,B|72:264|72:200,2,90,8|0|4
408,80,50344,6,0,B|448:112|448:176,2,90,8|0|4
160,192,51183,5,8
96,256,51393,1,0
32,192,51603,1,4
352,192,52023,5,8
416,128,52232,1,0
480,192,52442,1,4
256,320,52862,5,8
256,320,53071,1,0
256,320,53281,2,0,B|288:224|224:224|264:112,3,180,0|8|0|8
256,320,54960,5,4
256,320,55379,2,0,B|256:200,2,90,8|0|4
256,56,56218,6,0,B|256:176,2,90,8|0|4
176,216,57057,5,8
256,256,57267,1,0
336,216,57477,1,0
400,280,57687,6,0,B|432:320|480:320,2,90,0|8|4
112,104,58526,6,0,B|80:64|32:64,2,90,0|8|4
256,168,59365,5,0
256,168,59575,1,8
192,112,59785,2,0,B|192:64|256:40|320:64|320:128,2,180,4|0|0
256,168,60834,1,0
256,256,61043,1,0
256,344,61253,1,0
256,256,61463,1,0
168,192,61673,6,0,B|368:192,3,180,0|0|0|0
80,192,63351,5,0
168,192,63561,1,0
256,192,63771,1,0
344,192,63981,1,0
432,192,64190,1,0
256,192,64400,5,0
256,200,64610,1,0
256,208,64820,1,0
184,248,65030,6,0,B|64:248|64:136,1,180,4|8
328,136,65869,2,0,B|448:136|448:248,1,180,0|8
256,304,66708,1,0
256,304,66918,1,0
256,304,67127,1,8
192,112,67547,2,0,B|192:64|256:40|320:64|320:120,1,180,0|8
168,304,68386,6,0,B|360:304,3,180,0|8|0|8
256,48,70064,5,0
256,48,70274,1,0
256,48,70484,1,8
256,48,70694,2,0,B|224:128|288:128|248:264,1,180
256,312,71323,6,0,B|256:376,2,45,8|0|0
176,272,71743,6,0,B|72:272,2,90,0|0|8
256,224,72372,1,0
328,272,72582,2,0,B|440:272|440:152,1,180,0|8
440,72,73211,1,0
440,72,73421,2,0,B|256:72,2,180,0|8|0
368,240,74680,6,0,B|376:336,2,90,8|0|4
144,144,75519,6,0,B|136:48,2,90,8|0|4
392,264,76358,6,0,B|400:360,2,90,8|0|4
112,112,77197,6,0,B|104:16,2,90,8|0|4
424,336,78036,5,8
424,336,78246,1,0
424,336,78456,2,0,B|456:272|480:144,1,180,0|8
88,48,79295,2,0,B|56:112|32:240,1,180,0|8
256,304,80134,6,0,B|392:264,2,135
256,304,80974,2,0,B|120:264,2,135
256,192,81813,12,0,84750
256,192,85169,5,4
192,304,86848,6,0,B|344:304,2,135,0|0|4
136,96,95239,5,0
136,96,95449,2,0,B|40:96,2,90,0|8|0
208,152,96078,2,0,B|256:152|280:216|256:280|200:280,2,180,0|8|0
144,216,97127,2,0,B|48:216,2,90,0|8|0
144,216,97757,1,0
384,288,98176,5,8
384,288,98386,1,0
384,288,98596,1,0
128,96,99016,5,8
128,96,99225,1,0
128,96,99435,1,0
384,288,99855,5,8
384,288,100064,1,0
384,288,100274,2,0,B|456:232|456:128,2,180,0|8|0
296,288,101323,5,0
208,288,101533,1,8
120,288,101743,1,0
32,288,101953,1,4
80,208,102162,6,0,B|192:208,2,90,0|8|0
128,128,102792,2,0,B|80:128|56:64|80:0|136:0,2,180,0|8|0
192,64,103841,2,0,B|304:64,2,90,0|8|0
192,64,104470,1,0
104,224,104890,5,8
104,224,105099,1,0
104,224,105309,1,0
408,160,105729,5,8
408,160,105939,1,0
408,160,106148,1,0
256,304,106568,5,8
256,304,106778,1,0
256,304,106988,2,0,B|280:208|232:208|256:112,2,180,0|8|0
168,304,108036,6,0,B|120:304|96:256,2,90,0|8|0
168,216,108666,1,4
344,80,109085,6,0,B|392:80|416:128,2,90,8|0|0
144,104,109925,6,0,B|144:56|192:32,2,90,8|0|0
368,280,110764,6,0,B|368:328|320:352,2,90,8|0|0
96,192,111603,5,8
112,280,111813,1,0
96,192,112023,1,0
416,192,112442,5,8
400,104,112652,1,0
416,192,112862,1,0
256,320,113281,5,8
256,320,113491,1,0
192,256,113701,6,0,B|192:208|256:184|320:208|320:264,3,180,0|8|0|8
256,88,115379,5,4
152,240,115799,6,0,B|56:240,2,90,8|0|0
360,144,116638,6,0,B|456:144,2,90,8|0|0
256,296,117477,5,8
256,296,117687,1,0
256,296,117897,1,0
168,296,118106,6,0,B|152:192,2,90,0|8|4
344,88,118946,6,0,B|360:192,2,90,0|8|4
256,248,119785,5,0
256,248,119995,1,8
256,248,120204,2,0,B|256:56,2,180,4|0|0
176,288,121253,1,0
256,336,121463,1,0
336,288,121673,1,0
256,240,121883,1,0
192,176,122092,6,0,B|192:128|256:104|320:128|320:184,3,180
256,368,123771,5,0
256,280,123981,1,0
256,192,124190,1,0
256,104,124400,1,0
256,16,124610,1,0
256,192,124820,5,0
256,200,125029,1,0
256,208,125239,1,0
184,240,125449,6,0,B|0:240,2,180,4|8|0
256,72,126708,1,8
328,128,126918,1,0
392,72,127127,1,0
328,240,127547,2,0,B|520:240,2,180,8|0|8
144,240,128806,5,0
144,240,129225,1,8
368,144,129645,5,0
368,144,130064,1,8
256,312,130484,5,0
256,312,130694,1,0
256,312,130904,1,8
256,312,131113,2,0,B|272:216|232:216|264:104,1,180
256,48,131743,6,0,B|256:0,2,45,8|0|0
176,96,132162,6,0,B|72:96,2,90,0|0|8
128,176,132792,1,0
216,176,133002,2,0,B|416:176,1,180,0|8
456,248,133631,1,0
400,320,133841,2,0,B|400:368|336:392|272:368|272:312,3,180,0|8|0|8
336,256,135309,5,0
336,256,135519,1,4
176,128,135939,5,8
176,128,136148,1,4
176,128,136358,1,0
368,280,136778,5,8
368,280,136988,1,4
368,280,137197,1,0
120,80,137617,5,8
120,80,137827,1,4
120,80,138036,1,0
432,320,138456,5,8
432,320,138666,1,4
432,320,138876,1,0
256,320,139295,1,8
72,320,139715,1,0
160,168,140134,6,0,B|160:96,2,45,8|0|0
224,232,140554,6,0,B|392:232,2,135
280,296,141393,2,0,B|128:296,2,135
256,192,142232,12,0,145169
256,192,145589,5,4
192,64,147267,6,0,B|352:64,2,135,0|0|4
208,192,148946,6,0,B|216:96,1,90
288,160,149365,6,0,B|384:168,1,90
320,240,149785,6,0,B|312:336,1,90
240,280,150204,6,0,B|176:272,2,45
88,192,150624,6,0,B|88:144,1,45
200,64,151043,6,0,B|200:136,1,45
304,192,151463,6,0,B|304:136,5,45
400,320,152302,6,0,B|344:320,1,45
256,232,152617,6,0,B|320:232,1,45
400,144,152932,6,0,B|320:144,1,45
216,144,153351,6,0,B|80:144,1,90
120,56,153981,6,0,B|176:56,1,45
264,144,154295,6,0,B|200:144,1,45
120,232,154610,6,0,B|200:232,1,45
304,232,155029,6,0,B|440:232,1,90
448,64,155659,5,4
128,208,169085,6,0,B|256:208|256:168|432:168,1,270,4|0
432,256,170764,6,0,B|432:352,2,90
384,176,172442,6,0,B|256:176|256:216|80:216,1,270,4|0
80,128,174120,6,0,B|80:32,2,90
144,192,175169,6,0,B|144:240,2,45
208,128,175799,6,0,B|269:127|392:128,1,180,0|8
304,256,176638,2,0,B|120:256,1,180,0|8
64,88,177477,6,0,B|168:88,2,90,0|0|8
448,296,178316,6,0,B|344:296,2,90,0|0|8
384,128,179155,5,0
296,128,179365,1,0
208,128,179575,1,8
128,256,179995,5,0
216,256,180204,1,0
304,256,180414,1,8
192,112,180834,6,0,B|192:64|256:40|320:64|320:120,3,180,0|8|0|8
184,240,182512,6,0,B|184:152|120:152|120:48,1,180,4|8
328,240,183351,6,0,B|328:152|392:152|392:56,1,180,0|8
328,144,184190,6,0,B|328:232|392:232|392:336,1,180,4|8
184,144,185030,6,0,B|184:232|120:232|120:328,1,180,0|8
64,144,185869,5,0
152,296,186288,1,0
368,296,186708,1,0
448,144,187127,1,0
256,48,187547,6,0,B|80:280,1,270,4|0
256,48,189225,6,0,B|432:272,1,270,4|0
352,320,190904,6,0,B|256:320,1,90,2|8
208,248,191743,2,0,B|304:248,1,90,2|8
392,248,192582,1,2
392,248,192792,1,0
392,248,193002,1,8
464,192,193421,2,0,B|464:88,1,90,2|8
392,152,194260,5,2
320,104,194680,1,8
120,232,195099,5,2
192,280,195519,1,8
256,192,195939,5,2
256,192,196148,1,2
256,192,196358,1,10
256,192,196568,2,0,B|280:128|232:128|264:48,1,135,2|8
176,96,197617,6,0,B|96:144,1,90,2|8
336,288,198456,6,0,B|416:240,1,90,2|8
352,112,199295,6,0,B|304:32,1,90,2|8
160,272,200134,6,0,B|208:352,1,90,2|8
256,304,200764,6,0,B|424:304,1,135,4|0
328,224,201603,6,0,B|176:224,1,135,4|0
136,144,202442,6,0,B|296:144,1,135,4|0
352,72,203281,6,0,B|200:72,1,135,4|0
176,72,204120,2,0,B|80:72,1,90,2|0
64,112,204750,5,0
256,328,205169,1,0
440,112,205589,1,0
168,232,206009,5,0
216,112,206218,1,0
256,232,206428,1,0
296,112,206638,1,0
344,232,206848,1,0
256,232,207057,6,0,B|256:352,2,90
168,232,207687,5,4
344,232,208106,1,8
88,232,208526,1,0
424,232,208946,1,8
256,72,209365,5,0
256,160,209575,1,0
256,248,209785,1,8
128,120,210204,5,0
392,120,210624,1,8
256,320,211043,5,0
256,320,211463,1,8
256,64,211883,5,0
256,64,212302,1,8
128,192,212722,5,0
256,192,212932,1,0
376,192,213141,1,8
320,272,213351,2,0,B|320:320|256:344|192:320|192:272,1,180
256,192,213981,6,0,B|256:112,2,45
256,280,214400,5,0
176,320,214610,1,0
96,280,214820,1,8
256,104,215239,5,0
336,64,215449,1,0
416,104,215659,1,8
416,280,216078,6,0,B|480:192,2,90,0|0|8
96,104,216918,6,0,B|32:192,2,90,0|0|8
160,168,217547,5,0
160,168,217757,2,0,B|264:16,1,180,4|8
352,216,218386,5,0
352,216,218596,2,0,B|248:368,1,180,4|8
280,96,219225,5,0
280,96,219435,2,0,B|432:200,1,180,4|8
232,288,220064,5,0
232,288,220274,2,0,B|80:184,1,180,4|8
256,128,220904,5,0
256,128,221113,2,0,B|256:320,2,180,4|0|0
256,40,222162,1,0
256,40,222372,6,0,B|256:-16,2,45
200,112,222792,6,0,B|64:184,2,135
312,112,223631,2,0,B|456:176,2,135,0|0|0
256,192,224470,12,4,227827
256,264,229505,6,0,B|256:112,2,135
80,264,230554,5,0
56,176,230764,1,0
32,88,230974,1,0
432,264,231393,5,0
456,176,231603,1,0
480,88,231813,1,0
256,312,232232,5,0
256,192,232442,1,0
256,64,232652,1,0
256,312,233071,5,0
256,312,233281,1,0
256,312,233491,2,0,B|256:96,1,180
256,40,234120,5,4
