osu file format v9

[General]
AudioFilename: Discotheque.mp3
AudioLeadIn: 0
PreviewTime: 64295
Countdown: 0
SampleSet: Normal
StackLeniency: 0.5
Mode: 0
LetterboxInBreaks: 1

[Editor]
DistanceSpacing: 1
BeatDivisor: 4
GridSize: 8

[Metadata]
Title:Discotheque
Artist:Nana Mizuki
Creator:taka1235
Version:Hard
Source:Rosario to Vampire
Tags:Miccoliasms

[Difficulty]
HPDrainRate:6
CircleSize:4
OverallDifficulty:6
ApproachRate:7
SliderMultiplier:1.6
SliderTickRate:0.5

[Events]
//Background and Video events
0,0,"Rosario_to_Vampire.jpg"
//Break Periods
2,31663,33920
2,95439,101053
//Storyboard Layer 0 (Background)
//Storyboard Layer 1 (Fail)
//Storyboard Layer 2 (Pass)
//Storyboard Layer 3 (Foreground)
//Storyboard Sound Samples
//Background Colour Transformations
3,100,163,162,255

[TimingPoints]
5030,419.58041958042,4,1,0,71,1,0
17197,-80,4,1,0,71,0,0
17935,-100,4,1,0,80,0,0
18354,-100,4,1,0,71,0,0
18774,-100,4,1,0,80,0,0
19193,-100,4,1,0,71,0,0
19613,-100,4,1,0,64,0,0
20452,-100,4,1,0,70,0,0
21291,-100,4,1,0,81,0,0
21711,-100,4,1,0,70,0,0
22130,-100,4,1,0,80,0,0
22550,-100,4,1,0,70,0,0
22970,-100,4,1,0,40,0,0
23914,-100,4,1,0,70,0,0
34718,-100,4,1,0,50,0,0
48144,-100,4,1,0,60,0,0
53179,-100,4,1,0,45,0,0
53599,-100,4,1,0,50,0,0
54018,-100,4,1,0,55,0,0
54438,-100,4,1,0,71,0,0
55277,-100,4,1,0,50,0,0
57795,-100,4,1,0,55,0,0
58424,-100,4,1,0,50,0,0
58634,-100,4,1,0,54,0,0
59263,-100,4,1,0,50,0,0
59473,-100,4,1,0,55,0,0
60732,-100,4,1,0,60,0,0
60942,-100,4,1,0,55,0,0
61151,-100,4,1,0,61,0,0
61571,-100,4,1,0,55,0,0
61991,-100,4,1,0,66,0,0
62410,-100,4,1,0,70,0,0
62830,-100,4,1,0,76,0,0
63249,-100,4,1,0,80,0,0
64298,-100,4,1,0,74,0,0
64928,-100,4,1,0,80,0,0
65032,-100,4,1,0,80,0,1
65347,-100,4,1,0,75,0,1
65767,-100,4,1,0,80,0,1
66186,-100,4,1,0,74,0,1
68284,-100,4,1,0,85,0,1
69963,-100,4,1,0,40,0,1
70802,-100,4,1,0,85,0,1
71221,-100,4,1,0,81,0,1
71641,-100,4,1,0,80,0,1
74578,-100,4,1,0,61,0,1
75417,-100,4,1,0,70,0,1
76256,-100,4,1,0,81,0,1
77095,-100,4,1,0,90,0,1
77935,-100,4,1,0,95,0,1
80032,-100,4,1,0,61,0,0
95137,-100,4,1,0,50,0,0
98284,-100,4,1,0,41,0,0
98914,-100,4,1,0,50,0,0
99123,-100,4,1,0,40,0,0
99753,-100,4,1,0,50,0,0
102040,-100,4,1,0,44,0,0
104788,-100,4,1,0,51,0,0
104998,-100,4,1,0,40,0,0
105627,-100,4,1,0,50,0,0
105837,-100,4,1,0,40,0,0
108564,-100,4,1,0,50,0,0
113599,-100,4,1,0,40,0,0
114018,-100,4,1,0,50,0,0
114438,-100,4,1,0,65,0,0
114858,-100,4,1,0,74,0,0
115697,-100,4,1,0,51,0,0
118844,-100,4,1,0,50,0,0
119263,-100,4,1,0,55,0,0
119683,-100,4,1,0,50,0,0
120102,-100,4,1,0,54,0,0
121991,-100,4,1,0,49,0,0
122410,-100,4,1,0,60,0,0
122830,-100,4,1,0,71,0,0
123249,-100,4,1,0,75,0,0
123669,-100,4,1,0,80,0,0
124718,-100,4,1,0,65,0,0
125347,-100,4,1,0,80,0,0
125452,-100,4,1,0,80,0,1
130379,-100,4,1,0,40,0,1
131218,-100,4,1,0,80,0,1
135207,-100,4,1,0,74,0,1
137935,-100,4,1,0,80,0,1
138774,-100,4,1,0,85,0,1
140452,-100,4,1,0,64,0,0
148844,-100,4,1,0,55,0,0
149263,-100,4,1,0,60,0,0
149683,-100,4,1,0,64,0,0
150102,-100,4,1,0,70,0,0
168984,-200,4,1,0,64,0,0
170242,-200,4,1,0,31,0,0
175904,-100,4,1,0,60,0,0
190169,-100,4,2,0,80,0,0
200449,-100,4,1,0,80,0,0
201501,-100,4,1,0,65,0,0
202340,-100,4,1,0,71,0,0
204648,-100,4,1,0,46,0,0
205067,-100,4,1,0,55,0,0
205487,-100,4,1,0,64,0,0
205907,-100,4,1,0,70,0,0
206326,-100,4,1,0,74,0,0
206746,-100,4,1,0,80,0,0
206956,-100,4,1,0,75,0,0
207585,-100,4,1,0,81,0,0
207690,-100,4,1,0,80,0,1
212617,-100,4,1,0,39,0,1
213456,-100,4,1,0,80,0,1
218494,-100,4,1,0,85,0,1
220172,-100,4,1,0,90,0,1
221011,-100,4,1,0,94,0,1
222690,-100,4,1,0,54,0,0

[Colours]
Combo1 : 166,255,166
Combo2 : 255,128,255
Combo3 : 255,255,255
Combo4 : 128,255,255

[HitObjects]
72,192,5030,2,0,B|128:264,1,80
184,200,5449,2,0,B|280:344,2,160
136,136,6498,2,0,B|104:96,1,40
80,80,6708,2,0,B|152:40|152:40|232:88,1,160
312,120,7337,6,0,B|312:176,2,40,2|0|0
416,88,7757,2,0,B|416:48,2,40,2|0|4
440,192,8386,6,0,B|384:120,1,80
328,184,8805,2,0,B|232:40,2,160
376,248,9854,2,0,B|408:288,1,40
432,304,10064,2,0,B|360:344|360:344|280:296,1,160
200,264,10693,6,0,B|200:208,2,40,2|0|0
96,296,11113,2,2,B|96:336,1,40
56,336,11323,6,0,B|8:264|8:264|64:184,1,160,0|8
50,203,11953,1,0
208,96,12372,6,2,B|208:144,2,40
456,48,13002,6,0,B|504:120|504:120|448:200,1,160,0|8
461,180,13632,1,0
304,288,14051,6,2,B|304:240,2,40
152,328,14680,6,0,B|72:192,1,120
91,224,15099,1,0
104,64,15519,6,0,B|184:200,1,120
164,167,15938,1,0
164,167,16358,6,0,B|216:136|216:136|272:176,1,120
264,200,16778,6,0,B|216:232|216:232|152:192,1,120
152,152,17197,6,0,B|216:112|216:112|304:168,1,149.999997764826,4|0
280,200,17617,6,0,B|216:240|216:240|144:200,1,149.999997764826,4|0
120,184,18036,5,2
40,48,18456,1,8
200,48,18876,2,0,B|280:176,1,120,2|0
304,152,19295,1,8
368,104,19505,1,0
432,56,19715,2,0,B|496:0,2,80,0|0|8
496,104,20344,1,0
496,184,20554,2,0,B|392:288,1,120
384,296,20974,1,8
256,112,21393,5,0
128,264,21813,1,8
32,144,22232,2,0,B|80:32,1,120
120,32,22652,1,8
256,144,23071,5,0
312,88,23281,1,0
368,32,23491,1,0
432,80,23701,2,0,B|488:120|504:192|488:264|408:304,1,240,4|0
304,192,24750,5,0
264,256,24960,1,0
216,320,25169,1,8
136,320,25379,1,0
56,320,25589,2,0,B|96:192,1,120
48,208,26009,1,8
120,64,26428,2,0,B|24:64,2,80,0|0|8
184,112,27057,1,0
256,152,27267,2,0,B|400:152,1,120
408,120,27687,1,8
256,64,28106,5,0
184,128,28526,1,0
112,64,28946,1,0
184,8,29365,1,0
184,128,29785,5,0
184,128,30099,2,0,B|40:168,1,120
32,232,30624,1,0
32,232,30939,2,0,B|176:192,1,120
147,199,31463,1,4
128,80,34820,6,0,B|96:168,1,80
32,192,35239,1,8
144,304,35659,2,0,B|192:176,1,120
224,192,36078,1,8
256,120,36288,1,0
224,48,36498,1,0
64,48,36918,1,8
224,48,37337,1,0
368,112,37757,5,8
448,112,37967,1,0
448,112,38071,1,0
448,112,38176,1,0
152,176,38596,5,8
72,176,38806,1,0
72,176,38911,1,0
72,176,39016,1,0
256,256,39435,5,8
328,216,39645,1,0
328,216,39855,2,0,B|416:360,2,160,0|8|0
408,192,40904,6,0,B|464:192,2,40,0|0|0
352,136,41323,2,0,B|384:88,2,40,0|0|0
296,192,41743,6,0,B|240:104,1,80,0|8
104,64,42372,2,0,B|192:216,2,160,0|8|0
40,104,43421,1,0
104,152,43631,2,0,B|32:208,2,80,8|0|0
192,288,44470,5,8
192,208,44680,1,0
192,208,44785,1,0
192,208,44890,1,0
320,96,45309,5,8
320,176,45519,1,0
320,176,45624,1,0
320,176,45729,1,0
472,264,46148,5,8
472,264,46358,1,0
472,264,46568,2,0,B|472:96,2,160,0|8|0
400,304,47617,6,0,B|360:344,2,40,0|0|8
400,232,48036,2,0,B|344:232,1,40
320,232,48246,6,0,B|280:160|280:160|320:88,1,160,0|8
400,96,48876,1,0
400,96,48981,1,0
400,96,49085,1,0
320,232,49505,1,8
216,16,49925,6,0,B|256:88|256:88|216:160,1,160,0|8
136,152,50555,1,0
136,152,50660,1,0
136,152,50764,1,0
216,16,51183,1,8
344,264,51603,6,0,B|304:192|304:192|344:120,1,160,0|8
424,128,52233,1,0
424,128,52338,1,0
424,128,52442,1,0
344,264,52861,1,8
176,264,53281,5,0
344,264,53701,1,8
64,264,54120,1,0
456,264,54540,1,8
344,56,54960,5,4
168,56,55379,1,8
184,136,55589,1,0
184,136,55694,1,0
184,136,55799,2,0,B|256:168|256:168|352:120,1,160,0|8
256,288,56638,5,0
256,64,57057,1,8
256,288,57477,1,0
192,240,57687,6,0,B|104:240,1,80,0|8
48,192,58106,1,4
344,152,58526,6,0,B|440:152,1,80,0|8
488,96,58946,1,4
176,64,59365,2,0,B|96:64,1,80,0|8
16,64,59785,1,0
96,264,60204,1,0
176,64,60624,1,0
96,144,60834,5,0
96,144,61043,2,0,B|256:200,1,160
320,224,61673,1,0
96,144,62092,1,0
408,264,62512,1,0
24,104,62932,1,0
176,40,63351,5,0
176,40,63561,1,0
256,40,63771,1,0
336,40,63981,1,0
336,40,64190,1,0
256,120,64400,6,0,B|256:224,1,80
256,280,64820,1,0
184,336,65030,6,0,B|96:336,1,80
136,264,65449,2,0,B|48:264,1,80,8|0
88,192,65869,2,0,B|232:192,1,120
256,192,66288,1,8
216,112,66498,1,0
168,40,66708,1,0
120,112,66918,1,0
88,192,67127,2,0,B|56:272,1,80,8|0
128,320,67547,2,0,B|184:344|184:344|240:320,1,120
238,320,67967,1,8
408,320,68386,5,0
256,192,68806,1,8
408,48,69225,2,0,B|360:80|360:80|296:40,1,120
307,46,69645,1,8
256,104,69855,1,0
200,48,70064,5,4
128,104,70274,1,0
128,16,70484,1,4
200,48,70694,2,0,B|232:-16|296:-40|376:-16|400:72,1,240
256,192,71743,6,0,B|152:192,1,80
96,192,72162,1,8
64,264,72372,1,0
144,264,72582,2,0,B|224:264|224:264|256:296,1,120
256,336,73002,1,8
448,264,73421,1,0
256,192,73841,1,8
256,192,74050,1,0
256,192,74260,2,0,B|184:160|184:160|96:200,1,160,0|8
56,248,74890,6,0,B|56:336,1,80,0|4
152,112,75519,1,0
152,112,75729,6,0,B|152:24,1,80,0|4
320,248,76358,1,0
320,248,76568,6,0,B|320:344,1,80,0|4
448,112,77197,1,0
448,112,77407,6,0,B|448:16,1,80,0|4
144,48,78036,5,0
56,128,78246,1,0
144,216,78456,2,0,B|216:256|216:256|296:208,3,160
376,40,80134,5,0
256,96,80449,1,0
136,152,80764,1,0
136,152,80974,5,0
256,216,81288,1,0
360,296,81603,1,0
256,352,81813,5,4
256,192,81918,12,0,85169
184,80,86848,5,2
256,128,87162,1,2
328,80,87477,1,2
440,216,87897,5,0
440,296,88106,2,0,B|440:352,2,40
368,256,88526,2,0,B|296:216|296:216|200:264,1,160,0|8
40,120,89365,2,0,B|112:160|112:160|208:112,1,160,0|8
232,64,89995,2,0,B|232:16,2,40
304,96,90414,5,0
376,56,90624,2,2,B|480:56|480:160,2,160
336,208,91883,6,2,B|376:320,1,120,2|0
376,320,92302,1,0
224,280,92722,6,2,B|80:280,1,120,2|0
104,280,93141,1,0
56,128,93561,6,0,B|56:80,3,40
88,64,93981,2,0,B|88:24,1,40
184,96,94295,1,0
120,200,94610,2,0,B|144:264|216:288|288:264|320:176,1,240,0|4
144,56,101953,5,0
96,120,102162,2,0,B|16:120,2,80,0|8|0
144,184,102792,2,0,B|304:112,1,160,0|8
344,56,103421,1,0
408,104,103631,2,0,B|480:144,1,80
416,192,104050,2,0,B|496:232,2,80,8|0|0
256,192,104890,5,8
184,232,105099,1,0
112,272,105309,1,0
48,128,105729,5,8
120,176,105939,1,0
184,232,106148,1,0
48,128,106568,5,8
120,96,106778,1,0
192,128,106988,2,0,B|264:96|264:96|368:144,2,160,0|8|0
232,192,108036,2,0,B|280:264,2,80,0|8|0
192,128,108666,5,4
48,192,109085,1,8
120,216,109295,1,0
120,216,109400,1,0
120,216,109505,2,0,B|208:368,1,160,0|8
336,272,110344,6,0,B|424:272,2,80,0|0|8
280,216,110974,1,0
280,216,111078,1,0
280,216,111183,2,0,B|200:72,1,160,0|8
352,24,112023,6,0,B|264:24,2,80,0|0|8
400,88,112652,2,0,B|400:152,2,40
400,248,113281,1,8
480,248,113491,1,0
440,176,113701,5,0
360,328,114120,1,8
440,176,114540,1,0
360,328,114960,1,8
176,232,115379,5,4
72,112,115799,1,8
136,64,116009,1,0
136,64,116113,1,0
136,64,116218,2,0,B|208:104|208:104|288:56,1,160,0|8
352,64,116848,1,0
312,136,117057,1,0
384,176,117267,2,0,B|336:272,2,80,0|8|0
400,144,117792,1,0
472,256,118106,5,0
448,328,118316,1,0
392,272,118526,2,0,B|288:272|288:272|248:320,1,160,4|0
40,272,119365,2,0,B|144:272|144:272|184:224,1,160,4|0
368,128,120204,2,0,B|264:128|264:128|224:176,2,160
416,192,121253,2,0,B|480:256,2,80
456,128,121883,1,0
416,56,122092,5,0
336,56,122512,1,0
256,56,122932,1,0
176,56,123351,1,0
56,144,123771,5,2
56,144,123981,1,2
144,144,124190,1,0
224,144,124400,1,2
224,144,124610,1,2
168,208,124820,6,0,B|168:312,2,80
104,256,125449,5,6
392,256,125869,1,8
344,104,126288,2,0,B|288:72|288:72|240:104,1,120
241,102,126708,1,8
184,160,126918,1,0
240,216,127127,2,0,B|288:296,2,80,0|0|8
168,272,127757,1,0
88,240,127967,2,0,B|32:120,1,120
40,128,128386,1,8
168,32,128806,5,0
344,32,129225,1,8
472,128,129645,2,0,B|432:256,1,120
436,242,130064,1,8
288,192,130484,5,0
288,304,130694,1,0
184,304,130904,1,0
72,304,131113,2,0,B|8:272|-16:208|8:128|96:104,1,240
256,104,132162,6,0,B|216:32,2,80,0|0|8
304,168,132792,1,0
288,248,133002,2,0,B|328:312|328:312|384:312,1,120
416,312,133421,1,8
464,248,133631,1,0
504,176,133841,1,0
416,40,134260,1,8
344,80,134470,1,0
280,32,134680,2,0,B|192:32|192:32|128:72,1,160,0|8
64,112,135309,6,0,B|64:216,1,80,0|4
176,312,135939,1,0
176,312,136148,6,0,B|176:224,1,80,0|4
304,112,136778,1,0
304,112,136988,6,0,B|304:200,1,80,0|4
424,312,137617,1,0
424,312,137827,6,0,B|424:208,1,80,0|4
304,112,138456,5,0
192,48,138666,1,0
80,112,138876,2,0,B|32:184|32:184|96:264,3,160
136,344,140554,5,0
256,288,140869,1,0
376,232,141184,1,0
376,232,141394,5,0
256,168,141708,1,0
152,88,142023,1,0
256,32,142233,5,4
256,192,142338,12,0,145589
184,280,147267,5,2
256,312,147582,1,2
328,280,147897,1,2
