osu file format v9

[General]
AudioFilename: 02_-_DISCOTHEQUE_(TV-SIZE).mp3
AudioLeadIn: 0
PreviewTime: 64230
Countdown: 1
SampleSet: Normal
StackLeniency: 0.7
Mode: 0
LetterboxInBreaks: 1

[Editor]
DistanceSpacing: 0.8
BeatDivisor: 4
GridSize: 8

[Metadata]
Title:DISCOTHEQUE (TV Size)
Artist:Nana Mizuki
Creator:nadihko-chan
Version:Normal
Source:Rosario + Vampire
Tags:

[Difficulty]
HPDrainRate:4
CircleSize:4
OverallDifficulty:5
ApproachRate:5
SliderMultiplier:1.4
SliderTickRate:1

[Events]
//Background and Video events
Video,0,"Rosario+Vampire Capu2 OP - Discotheque.avi"
0,0,"Konachan.com - 64875 akashiya_moka bat green_eyes long_hair pink_hair rosario+vampire seifuku signed.jpg"
//Break Periods
2,32738,33837
2,79730,80410
//Storyboard Layer 0 (Background)
//Storyboard Layer 1 (Fail)
//Storyboard Layer 2 (Pass)
//Storyboard Layer 3 (Foreground)
//Storyboard Sound Samples
//Background Colour Transformations
3,100,255,255,255

[TimingPoints]
1070,419.58041958042,4,1,0,100,1,0
64860,-100,4,1,0,100,0,1
79965,-100,4,1,0,100,0,0
96260,-100,4,1,0,0,0,0

[Colours]
Combo1 : 164,68,187
Combo2 : 255,17,17
Combo3 : 4,4,240
Combo4 : 255,255,0
Combo5 : 103,206,0

[HitObjects]
328,288,4846,1,0
280,312,5056,1,0
224,328,5265,2,0,B|136:360|160:264,1,105
176,152,6104,5,0
216,112,6314,1,0
272,96,6524,2,0,B|360:64|336:160,1,105
186,305,8202,6,0,B|138:265|146:225,1,70
136,193,8622,2,0,B|168:129|224:97,1,105
340,125,9461,2,0,B|380:149|388:197,1,70
393,233,9881,2,0,B|385:281|313:337,1,105
88,264,11139,6,0,B|-10:310|14:243|99:285,1,140,0|8
200,304,11979,1,0
312,328,12398,1,0
424,288,12818,6,0,B|522:241|497:308|412:266,1,140,0|8
328,216,13657,1,0
224,168,14076,1,0
96,192,14496,5,0
256,352,15335,1,0
416,192,16174,1,0
352,280,16594,1,0
256,216,17014,1,0
144,216,17433,1,0
256,216,17853,6,0,B|184:232|208:336,1,140
296,264,18692,2,0,B|344:192|272:152,1,105
217,137,19321,1,0
120,112,19741,2,0,B|88:64|152:32,3,70
203,80,20685,1,0
257,208,21209,5,0
258,320,21629,1,0
156,272,22049,1,0
125,194,22363,1,0
119,53,22888,2,0,B|207:53,3,70
244,150,23937,5,8
278,193,24146,1,8
368,264,24566,5,0
448,336,24986,1,0
336,328,25405,1,0
256,304,25720,1,0
256,216,26035,1,0
152,352,26664,5,0
128,248,27083,1,0
240,248,27503,2,0,B|232:208|160:200,1,70
176,152,27923,6,0,B|176:24|336:24|336:160,1,280
216,344,29601,5,0
296,320,29916,2,0,B|360:320|360:240,1,105
352,200,30440,2,0,B|352:152|304:112|240:144,1,140
200,160,31070,1,0
256,192,31279,12,0,32538
232,336,35056,5,0
280,232,35475,1,0
360,312,35895,1,0
280,232,36314,1,0
360,160,36734,1,0
280,232,37153,1,0
256,120,37573,2,0,B|255:30,2,70
176,48,38412,5,0
128,152,38832,1,0
48,80,39251,1,0
129,151,39671,1,0
136,264,40090,1,0
128,150,40510,1,0
240,120,40930,6,0,B|320:136|328:224,1,140
256,303,41769,1,0
256,191,42188,1,0
259,78,42608,2,0,B|309:24|389:75,1,140
424,178,43447,1,0
409,289,43867,6,0,B|354:320|299:314|254:262,1,140
225,182,44706,1,0
113,172,45125,2,0,B|17:173|39:267,1,140
124,332,45965,1,0
235,334,46384,2,0,B|299:342|323:294,1,105
423,136,47433,5,0
424,136,47643,1,0
320,96,48063,2,0,B|224:96,4,70
328,152,49111,2,0,B|360:272|232:312,1,210
192,280,49951,5,0
216,232,50160,2,0,B|240:168|232:128|192:104,1,140
80,104,51000,5,0
136,200,51419,1,0
200,104,51839,1,0
256,200,52258,1,0
256,200,53097,5,0
328,112,53517,1,0
400,200,53937,1,0
328,280,54356,1,0
216,280,54776,6,0,B|152:232|84:287,1,140
24,192,55615,1,0
248,192,56454,1,0
256,80,56874,1,0
256,192,57293,5,0
312,192,57503,2,0,C|344:176|392:208,2,70
256,96,58342,2,0,C|240:64|264:16,2,70
200,192,59181,2,0,C|168:208|144:192|128:184,2,70
144,336,60440,5,0
192,360,60650,1,0
248,344,60860,1,0
296,320,61070,1,0
257,279,61279,2,0,B|351:208|410:184|306:31|250:137|250:137|160:32|94:190|149:247|262:280,1,630
256,224,63377,5,0
256,168,63587,2,0,C|256:80,2,70
256,40,64846,5,0
256,152,65265,1,0
256,264,65685,2,0,C|280:312|328:296,1,105
336,216,66314,5,0
232,168,66734,1,0
144,240,67153,2,0,B|120:280|160:312,1,70
224,344,67678,1,0
256,208,68202,5,0
256,96,68622,1,0
256,208,69042,2,0,C|232:160|184:176,1,105
304,248,69881,6,0,B|304:320,3,70
216,248,70930,5,8
160,216,71139,1,8
50,191,71559,5,0
149,139,71979,1,0
150,250,72398,1,0
246,194,72818,1,0
357,191,73237,5,0
405,291,73657,1,0
313,355,74076,1,0
201,339,74496,5,0
162,298,74706,1,0
152,240,74916,2,0,B|112:168|160:96,1,140
200,80,75545,1,8
200,80,75755,6,0,B|264:48|352:80,1,140,8|0
328,72,76384,1,0
376,104,76594,6,0,B|448:144|400:240,1,140
408,224,77223,1,8
376,272,77433,6,0,B|320:312|216:272,1,140,8|0
241,280,78063,1,0
192,248,78272,6,0,B|136:208|176:88|328:112|304:240|304:240|368:232|392:208|384:152|384:152,1,420
136,328,81629,6,0,B|200:336|240:304|240:280,1,105
168,248,82258,2,0,B|112:224|96:200|96:120,1,140
136,104,82888,1,0
240,64,83307,2,0,B|288:64|320:120|312:160,1,105
392,96,83937,2,0,B|424:152|416:208|368:240,1,140
336,248,84566,1,0
256,168,84986,5,0
176,168,85300,1,0
88,168,85615,1,0
368,168,86664,5,0
456,168,86979,1,0
376,168,87293,1,0
280,112,87713,5,0
280,112,87923,2,0,B|280:216,1,70
392,192,88552,1,0
392,192,88762,2,0,B|360:272,1,70
280,328,89391,1,0
280,328,89601,2,0,B|208:280,1,70
160,192,90230,1,0
160,192,90440,2,0,B|216:120,1,70
368,112,91279,5,0
