osu file format v9

[General]
AudioFilename: 02_-_DISCOTHEQUE_(TV-SIZE).mp3
AudioLeadIn: 0
PreviewTime: 64230
Countdown: 1
SampleSet: Normal
StackLeniency: 0.7
Mode: 0
LetterboxInBreaks: 1

[Editor]
DistanceSpacing: 0.8
BeatDivisor: 4
GridSize: 4

[Metadata]
Title:DISCOTHEQUE (TV Size)
Artist:Nana Mizuki
Creator:nadihko-chan
Version:Easy
Source:Rosario + Vampire
Tags:

[Difficulty]
HPDrainRate:3
CircleSize:3
OverallDifficulty:2
ApproachRate:3
SliderMultiplier:1.4
SliderTickRate:1

[Events]
//Background and Video events
Video,0,"Rosario+Vampire Capu2 OP - Discotheque.avi"
0,0,"Konachan.com - 43557 sample.jpg"
//Break Periods
2,10395,13037
2,29801,31079
2,79731,80170
//Storyboard Layer 0 (Background)
//Storyboard Layer 1 (Fail)
//Storyboard Layer 2 (Pass)
//Storyboard Layer 3 (Foreground)
//Storyboard Sound Samples
//Background Colour Transformations
3,100,255,255,255

[TimingPoints]
1070,419.58041958042,4,1,0,100,1,0
64860,-100,4,1,0,100,0,1
79965,-100,4,1,0,100,0,0
92309,-100,4,1,0,0,0,0
96260,-100,4,1,0,0,0,0

[Colours]
Combo1 : 164,68,187
Combo2 : 255,17,17
Combo3 : 4,4,240
Combo4 : 255,255,0
Combo5 : 103,206,0

[HitObjects]
168,232,1070,2,0,B|224:312|312:304|360:192,2,210
176,120,2748,2,0,B|232:40|320:48|368:160,2,210
256,196,4426,2,0,B|256:348,1,140
144,324,5265,1,0
84,228,5685,1,0
192,192,6104,2,0,B|232:240|280:232|328:176,1,140
364,136,6804,1,0
116,300,8202,5,0
168,280,8412,1,0
196,232,8622,1,0
236,160,8937,1,0
320,108,9251,2,0,B|424:172|384:316|280:364,1,315
256,192,14496,5,0
144,192,14916,1,0
84,288,15335,2,0,B|95:336|184:335|203:274,1,140
308,288,16174,2,0,B|332:338|423:340|436:263,1,140
372,196,17014,6,0,B|364:148|252:140|252:220,1,140
256,300,17853,1,0
256,188,18272,1,0
200,92,18692,2,0,B|256:60|320:100,1,105
356,152,19321,6,0,B|380:192|348:232,5,70,0|0|0|0|0|0
256,268,20790,5,0
256,156,21209,1,0
256,44,21629,1,0
348,108,22049,1,0
348,220,22468,1,0
256,284,22888,6,0,B|256:204,3,70
144,200,23937,2,0,B|100:176|104:112,1,70
156,44,24566,6,0,B|228:36|300:68|316:132|308:180,1,210
328,212,25405,1,0
308,324,25825,1,0
252,320,26035,2,0,B|172:312|132:240|148:160,1,210
148,84,26979,1,0
256,172,27503,5,0
256,228,27713,1,0
256,192,27923,12,0,29601
256,192,32538,5,0
148,160,32958,2,0,B|124:96|164:72|204:72|220:88,1,140
252,192,33797,2,0,B|308:168|356:192|340:272|316:272,1,140
256,340,34636,1,0
172,268,35056,1,0
256,192,35475,5,0
340,264,35895,1,0
388,164,36314,2,0,B|340:124|300:132|268:148|268:172,1,140
336,260,37153,2,0,B|288:300|232:292|200:228,1,140
264,152,37993,2,0,B|216:112|176:120|144:136|144:160,1,140
92,256,38832,5,0
204,256,39251,1,0
316,252,39671,1,0
428,248,40090,2,0,B|452:200|460:160|420:112,1,140
312,120,40930,1,0
200,124,41349,5,0
88,128,41769,2,0,B|88:280,1,140
192,312,42608,2,0,B|192:152,1,140
304,152,43447,2,0,B|304:312,1,140
416,308,44286,2,0,B|456:276|456:244,2,70
340,224,45125,6,0,B|340:168|388:144,2,70
316,336,45965,1,0
256,240,46384,2,0,B|256:96,1,140
104,64,47433,6,0,B|64:48|32:96,3,70
60,192,48482,1,0
172,192,48902,2,0,B|252:192,2,70
140,84,49741,6,0,B|228:84|296:84,1,140
392,84,50580,2,0,B|448:116|464:188|464:244|456:308|368:324,1,280
280,328,51839,5,0
168,340,52258,1,0
104,248,52678,1,0
100,192,52888,1,0
104,136,53097,2,0,B|96:80|152:48|200:40,1,140
256,132,53937,6,0,B|256:300,1,140
364,296,54776,1,0
368,184,55195,2,0,B|388:140|360:88,2,70
256,168,56035,6,0,B|256:320,1,140
364,260,56874,1,0
448,184,57293,2,0,B|448:104,2,70
448,240,57923,6,0,B|416:324|328:340|276:304,1,210
236,264,58762,2,0,B|184:204|220:124|320:72|388:116,1,280
404,276,60230,1,0
296,304,60650,1,0
240,300,60860,1,0
200,264,61070,1,0
256,192,61279,12,0,62748
260,216,63167,6,0,B|260:304,4,70
96,60,64846,5,0
48,160,65265,1,0
144,216,65685,1,0
256,212,66104,1,0
312,212,66314,2,0,B|384:212|416:180|408:116|376:84|320:68|256:68|192:76|160:76,1,350
76,72,67783,5,0
72,184,68202,2,0,B|48:248|56:304|128:320,1,140
208,312,69042,1,0
320,312,69461,1,0
324,200,69881,2,0,B|324:120,3,70
428,92,70930,5,0
428,148,71139,1,0
404,256,71559,2,0,B|372:320|284:312|268:240,1,140
256,168,72398,1,0
180,84,72818,6,0,B|100:68|68:172|148:204,1,140
212,212,73657,2,0,B|276:236|260:324|164:332,1,140
108,272,74496,1,0
92,160,74916,1,0
152,68,75335,1,0
256,116,75755,6,0,B|256:276,1,140
328,344,76594,1,0
364,240,77014,1,0
256,212,77433,6,0,B|256:60,1,140
144,68,78272,2,0,B|48:84|88:172,1,140
196,196,79111,1,0
308,196,79531,1,0
256,196,81629,5,0
368,192,82049,1,0
424,192,82258,1,0
440,304,82678,2,0,B|400:344|344:280,2,70
272,312,83727,1,0
208,312,83937,5,0
96,312,84356,1,0
88,256,84566,2,0,B|48:184|96:104,1,140
176,192,86664,5,0
344,192,87293,1,0
256,256,87713,1,0
256,200,87923,1,0
256,144,88132,1,0
168,72,88552,6,0,B|104:64|88:152,1,70
88,152,88972,1,0
112,264,89391,2,0,B|88:296|144:328,2,70
224,248,90230,5,0
256,200,90440,1,0
296,160,90650,1,0
432,56,91279,1,0
