osu file format v5

[General]
AudioFilename: Nana Kitade - Siren.mp3
AudioLeadIn: 0
PreviewTime: -1
Countdown: 3
SampleSet: Normal
StackLeniency: 0.7
Mode: 0
LetterboxInBreaks: 1
SkinPreference:Default

[Metadata]
Title:Nana Kitade - Siren
Artist:Nana Kitade
Creator:tony111ster
Version:Normal
Source:
Tags:

[Difficulty]
HPDrainRate:5
CircleSize:5
OverallDifficulty:5
SliderMultiplier:1.4
SliderTickRate:1

[Events]
//Background and Video events
//Break Periods
2,73418,73492
2,76268,76342
//Storyboard Layer 0 (Background)
//Storyboard Layer 1 (Failing)
//Storyboard Layer 2 (Passing)
//Storyboard Layer 3 (Foreground)
//Storyboard Sound Samples
//Background Colour Transformations
3,100,163,162,255

[TimingPoints]
26090.3167701863,372.670807453416,4,1,0,100,1,0

[HitObjects]
171,102,589,1,0
295,85,1081,1,0
295,155,1474,1,0
220,157,1769,1,0
214,104,2162,1,0
167,100,2555,1,0
184,224,3341,1,0
184,224,3538,1,0
263,215,3832,1,0
264,148,4226,1,0
321,152,4619,1,0
321,152,4914,1,0
388,145,5307,1,0
337,45,6191,5,0
337,45,6388,1,0
286,55,6683,1,0
229,86,7076,1,0
208,128,7469,1,0
210,220,7862,1,0
296,178,8157,1,0
316,80,9041,1,0
316,80,9140,1,0
372,100,9533,1,0
368,170,9926,1,0
316,185,10221,1,0
252,146,10614,1,0
196,89,11007,1,0
394,107,11891,5,0
392,200,12579,1,0
348,128,13955,1,0
348,128,14348,1,0
272,118,14643,1,0
272,225,15233,1,0
272,225,15331,1,0
196,148,16707,1,0
196,148,17100,1,0
271,115,17493,1,0
307,180,18083,1,0
307,180,18181,1,0
394,77,19656,5,0
403,169,19950,1,0
315,120,20343,1,0
315,120,20638,1,0
315,120,20835,1,0
315,120,21228,1,0
317,188,21523,1,0
317,188,21818,1,0
317,188,22211,1,0
317,188,22604,1,0
225,109,23095,1,0
225,109,23488,1,0
225,109,23587,1,0
228,188,24078,1,0
228,188,24373,1,0
228,188,24668,1,0
251,266,25061,1,0
363,263,25454,1,0
154,28,27420,5,0
220,75,28009,1,0
159,117,28796,1,0
200,180,29484,1,0
300,173,30171,1,0
300,173,30565,1,0
372,64,31941,1,0
372,64,32334,1,0
263,64,32628,1,0
208,81,33022,1,0
190,160,33710,1,0
292,164,34398,1,0
291,233,35085,1,0
383,229,35773,1,0
383,229,36265,1,0
374,100,37641,1,0
374,100,37936,1,0
323,72,38329,1,0
294,20,38722,1,0
240,60,39410,1,0
258,172,40196,5,0
372,190,40687,1,0
365,84,41375,1,0
365,84,41769,1,0
193,73,43243,1,0
193,73,43538,1,0
184,165,43931,1,0
248,162,44324,1,0
260,84,44717,1,0
311,117,45012,1,0
324,175,45405,1,0
324,175,45601,1,0
386,167,45995,1,0
388,80,47076,1,0
388,80,47469,1,0
348,76,47862,1,0
281,72,48157,1,0
237,70,48452,1,0
172,69,48746,1,0
248,156,49926,5,0
248,156,50122,1,0
336,158,50515,1,0
334,78,50909,1,0
252,61,51203,1,0
252,61,51597,1,0
219,176,51990,1,0
322,193,52776,1,0
322,193,52972,1,0
344,116,53267,1,0
336,60,53759,1,0
270,43,54054,1,0
214,66,54447,1,0
159,133,54840,1,0
366,164,55724,1,0
366,164,55921,1,0
372,83,56314,1,0
276,88,56609,1,0
223,99,57100,1,0
148,120,57493,1,0
137,205,57690,1,0
322,207,58476,5,0
360,114,58968,1,0
282,84,59262,1,0
218,83,59656,1,0
185,141,60147,1,0
151,220,60343,1,0
286,233,61326,1,0
286,233,61523,1,0
278,164,61916,1,0
199,149,62211,1,0
169,208,62604,1,0
192,269,62997,1,0
271,284,63587,1,0
348,223,64078,1,0
338,154,64471,1,0
338,154,64668,1,0
306,96,65061,1,0
242,88,65356,1,0
164,171,66928,1,0
164,171,67125,1,0
225,220,67420,1,0
243,150,67813,1,0
296,132,68304,5,0
352,140,68599,1,0
429,176,68894,1,0
384,242,69385,1,0
384,242,69484,1,0
384,242,69680,1,0
308,240,70466,1,0
211,235,71154,1,0
366,51,72530,5,0
401,122,73218,1,0
323,80,74692,5,0
323,80,74987,1,0
324,155,75380,1,0
248,158,75872,1,0
248,158,76068,1,0
316,220,77542,5,0
316,220,77837,1,0
316,220,78230,1,0
409,248,78722,1,0
409,248,78918,1,0
433,155,80294,1,0
379,65,80982,1,0
295,58,81474,1,0
214,56,81867,1,0
157,92,82260,1,0
132,163,82555,1,0
132,224,82948,1,0
187,279,83341,1,0
312,280,83931,1,0
385,212,84422,1,0
396,124,84717,1,0
370,67,85405,1,0
287,48,85700,1,0
168,35,86093,1,0
106,136,86584,5,0
144,209,87076,1,0
236,255,87469,1,0
316,256,87960,1,0
381,223,88255,1,0
382,128,88746,1,0
316,57,89434,1,0
215,47,89926,1,0
141,74,90614,1,0
114,135,91105,1,0
112,215,91400,1,0
160,268,91695,1,0
250,198,93660,5,0
359,149,94348,1,0
164,127,95135,1,0
240,275,95921,1,0
368,170,96609,1,0
368,170,96904,1,0
285,79,98378,1,0
285,79,98673,1,0
207,82,98968,1,0
139,144,99361,1,0
230,229,100049,1,0
354,204,100737,1,0
349,104,101425,1,0
264,165,102211,1,0
264,165,102506,1,0
322,68,103980,5,0
322,68,104275,1,0
199,68,104668,1,0
176,156,105061,1,0
176,264,105749,1,0
272,267,106437,1,0
369,265,107027,1,0
380,105,107813,1,0
380,105,108206,1,0
221,148,109582,5,0
221,148,109975,1,0
196,51,110270,1,0
136,68,110663,1,0
128,153,111056,1,0
128,153,111351,1,0
200,264,111744,1,0
289,264,112039,1,0
343,92,113415,1,0
343,92,113808,1,0
347,174,114201,1,0
405,196,114496,1,0
445,93,114791,1,0
396,45,115282,1,0
312,36,115577,1,0
268,72,115872,1,0
102,98,116756,5,0
177,178,118034,1,0
272,203,118427,1,0
324,146,118820,1,0
310,68,119115,1,0
216,57,119803,1,0
198,192,121081,1,0
325,259,121965,1,0
346,170,122260,1,0
353,56,123144,1,0
298,76,124127,1,0
176,88,125208,1,0
216,172,126093,1,0
302,172,126977,1,0
374,167,127665,1,0
444,209,128353,1,0
408,270,129041,1,0
316,279,129631,5,0
229,268,130319,1,0
202,163,131007,1,0
200,92,131793,1,0
278,86,132481,1,0
365,92,133267,1,0
372,181,133955,1,0
304,187,134643,1,0
230,180,135331,1,0
152,166,136019,1,0
144,236,136805,1,0
237,254,137493,1,0
321,256,138181,1,0
346,138,138869,1,0
339,60,139557,1,0
250,53,140245,1,0
197,49,140540,1,0
112,80,141031,1,0
230,189,142407,1,0
329,196,143095,1,0
392,193,143783,1,0
363,70,144471,1,0
280,70,144864,1,0
197,87,145159,1,0
187,181,145847,1,0
112,159,146240,1,0
109,70,146633,1,0
248,52,146928,1,0
333,108,147321,1,0
385,144,147714,1,0
345,206,148009,1,0
260,196,148402,1,0
204,114,148796,1,0
131,148,149189,1,0
140,212,149484,1,0
232,248,149877,1,0
351,244,150171,1,0
340,152,150565,1,0
324,84,151056,1,0
324,84,151351,1,0
324,84,151547,1,0
230,92,151941,1,0
325,204,152825,5,0
387,167,153513,1,0
352,104,153808,1,0
300,100,154398,1,0
169,116,154692,1,0
138,187,155085,1,0
209,221,155380,1,0
296,228,155872,1,0
321,165,156265,1,0
321,165,156363,1,0
325,82,156756,1,0
253,81,157149,1,0
145,115,158722,1,0
145,115,158918,1,0
145,115,159213,1,0
226,180,159606,1,0
291,182,159901,1,0
309,126,160393,1,0
353,82,160687,1,0
207,64,161179,1,0
207,64,161375,1,0
207,64,161474,1,0
201,179,162260,1,0
299,161,162948,1,0
167,68,164324,5,0
167,68,164520,1,0
228,158,164815,1,0
259,222,165208,1,0
181,251,165601,1,0
60,188,165995,1,0
61,124,166388,1,0
101,68,166683,1,0
227,97,167174,1,0
233,196,167567,1,0
233,196,167764,1,0
297,235,168058,1,0
312,145,168452,1,0
222,92,169926,1,0
222,92,170122,1,0
113,132,170417,1,0
97,216,170909,1,0
156,260,171203,1,0
229,244,171597,1,0
220,152,171891,1,0
352,105,172383,1,0
352,105,172579,1,0
352,105,172678,1,0
342,222,173464,1,0
140,125,174250,1,0
140,125,174643,1,0
140,125,175233,1,0
140,125,175626,1,0
140,125,176216,1,0
140,125,176904,1,0
271,191,177395,5,0
274,115,177690,1,0
256,66,178083,1,0
356,59,178378,1,0
355,184,179164,1,0
287,298,179852,1,0
195,225,180540,1,0
248,94,181228,1,0
248,94,181621,1,0
251,209,182997,1,0
251,209,183390,1,0
309,165,183685,1,0
321,87,184078,1,0
239,85,184766,1,0
142,93,185454,1,0
143,169,186142,1,0
156,252,186830,1,0
246,220,187223,1,0
356,68,188697,1,0
362,146,188992,1,0
350,217,189484,1,0
350,217,189778,1,0
158,154,190368,1,0
192,56,191056,1,0
280,80,191842,1,0
271,190,192432,5,0
388,188,192727,1,0
167,92,194004,1,0
193,144,194398,1,0
284,197,194791,1,0
308,142,195085,1,0
288,89,195773,1,0
288,89,196068,1,0
220,88,196461,1,0
147,126,196658,1,0
210,210,196953,1,0
308,128,198525,1,0
225,191,199213,1,0
324,270,199508,1,0
330,207,199901,1,0
314,65,200982,5,0
184,62,201769,1,0
262,152,202358,1,0
186,224,203144,1,0
333,230,203734,1,0
323,110,204127,1,0
187,72,205601,1,0
187,72,205896,1,0
187,72,206289,1,0
184,172,206683,1,0
284,184,207371,1,0
284,73,208058,1,0
230,138,208746,1,0
220,227,209434,1,0
220,227,209828,1,0
315,126,211203,1,0
315,126,211597,1,0
315,126,211891,1,0
192,116,212285,1,0
204,228,212972,1,0
358,238,213660,1,0
355,108,214348,1,0
248,212,215135,1,0
248,212,215429,1,0
248,212,216019,1,0
319,128,216805,5,0
319,128,217199,1,0
226,95,217592,1,0
136,121,217886,1,0
178,229,218280,1,0
305,229,218673,1,0
307,116,219262,1,0
307,116,219656,1,0
183,127,220737,1,0
183,127,221130,1,0
273,220,221523,1,0
358,176,221818,1,0
349,108,222113,1,0
337,56,222407,1,0
209,98,223587,5,0
209,98,223783,1,0
308,175,224078,1,0
311,97,224471,1,0
276,146,224864,1,0
276,146,225159,1,0
217,187,225454,1,0
389,182,226437,1,0
389,182,226633,1,0
384,92,226928,1,0
324,111,227223,1,0
308,194,227714,1,0
210,204,228009,1,0
175,115,228402,1,0
281,104,229287,5,0
281,104,229385,1,0
304,179,229778,1,0
376,144,230171,1,0
364,89,230466,1,0
287,72,230859,1,0
185,116,231253,1,0
288,220,232039,5,0
288,220,232235,1,0
214,208,232530,1,0
217,144,232923,1,0
306,160,233316,1,0
392,200,233710,1,0
352,268,234004,1,0
