osu file format v5

[General]
AudioFilename: Nana Kitade - Kibou no Kakera.mp3
AudioLeadIn: 0
AudioHash: 2d81641efed971d39364a9fc6295d39c
PreviewTime: -1
Countdown: 1
SampleSet: Normal
EditorBookmarks: 1049,67926,119934,160600,226718

[Metadata]
Title:Kibou no Kakera
Artist:Nana Kitade
Creator:Ozitiho
Version:Normal

[Difficulty]
HPDrainRate:5
CircleSize:5
OverallDifficulty:4
SliderMultiplier:1.4
SliderTickRate:1

[Events]
//Background and Video events
1,0,"Nana Kitade_ Kibo no Kakera.AVI"
//Break Periods
2,103802,111499
2,194587,208047
//Storyboard Layer 0 (Background)
//Storyboard Layer 1 (Failing)
//Storyboard Layer 2 (Passing)
//Storyboard Layer 3 (Foreground)
//Storyboard Sound Samples
//Background Colour Transformations
3,100,163,162,255

[TimingPoints]
330,480.340000000002,4,1,0,100

[Colours]
Combo1 : 255,150,0
Combo2 : 255,128,192
Combo3 : 128,0,64
Combo4 : 64,0,64

[HitObjects]
224,336,8015,2,0,C|224:336|224:56,3,280
224,56,11377,1,0
136,64,11858,6,0,C|136:64|296:208|144:344,2,420
136,64,14980,1,0
136,64,15220,1,0
136,64,15460,1,4
208,128,15700,6,0,C|208:128|280:128,2,70
208,128,16421,2,0,C|208:128|128:128,2,70
208,128,17141,2,0,C|208:128|280:128,2,70
208,128,17862,2,0,C|208:128|136:128,2,70
208,128,18582,2,0,C|208:128|280:128,2,70
208,128,19303,2,0,C|208:128|136:128,1,70
136,192,20023,5,0
160,120,20504,1,0
184,192,20984,1,0
208,120,21464,1,0
232,192,21945,1,0
256,120,22425,1,0
280,192,22905,1,0
304,120,23386,1,0
328,192,23866,1,0
352,120,24347,1,0
376,192,24827,1,0
400,120,25307,1,0
208,192,27709,5,0
208,192,27949,1,0
288,192,28670,5,0
288,192,28910,1,0
360,192,29630,5,0
360,192,29870,1,0
432,192,30351,5,0
432,192,30591,1,0
432,192,30831,1,0
432,192,31071,2,0,B|432:192|431:32|384:48,4,140
264,288,35394,5,0
264,288,35634,1,0
184,288,36355,5,0
184,288,36595,1,0
104,288,37316,5,0
104,288,37556,1,0
48,288,38036,6,0,C|48:288|48:216,10,70
48,288,40918,1,0
376,272,42119,5,0
376,272,42359,1,0
376,272,42599,1,0
320,272,43080,5,0
296,272,43320,1,0
216,272,44040,5,0
192,272,44281,1,0
112,264,45001,5,0
88,264,45241,1,0
88,192,45722,6,0,C|88:192|88:120,3,70
88,128,47643,2,0,C|88:128|88:200,3,70
184,192,50165,6,0,B|184:192|432:192,1,245
429,192,51246,2,0,C|429:192|504:192,5,70
504,192,52566,1,0
328,200,54128,6,0,B|328:200|256:95|192:199|255:280|328:200,1,210
328,216,55088,6,0,C|328:216|402:211,5,70
394,211,56409,1,4
264,272,57970,6,0,B|264:272|264:200,4,70
264,304,59171,1,0
264,336,59411,1,0
264,368,59651,1,0
232,368,59892,2,0,C|232:368|160:368,2,70
232,368,60612,2,0,B|232:368|318:267|200:264,1,140
224,264,61333,1,0
224,264,61573,2,0,B|224:264|16:179|233:-42|446:174|224:264,1,490
224,264,63494,1,0
224,264,63734,2,0,B|224:264|224:344|65:351|80:232,1,210
79,259,64695,2,0,C|79:259|80:176,3,70
80,192,65656,2,0,B|80:192|80:104|199:104|200:224,1,210
200,216,66616,1,4
208,192,68538,5,2
288,192,69018,1,2
256,184,69498,6,0,B|256:184|256:32,2,140
256,184,70939,2,0,B|256:184|256:344,2,140
296,216,72381,6,0,B|296:216|336:248|376:208,4,70
296,216,73822,2,0,B|296:216|264:200|264:152,5,70
256,112,75503,1,0
232,160,76223,5,0
232,168,76463,1,0
232,176,76704,1,0
232,184,76944,1,0
232,192,77184,2,0,B|232:192|136:192,4,70
224,224,78625,5,0
240,224,78865,1,0
256,224,79105,1,0
272,224,79345,1,0
288,224,79586,1,0
368,232,80066,2,0,B|368:232|424:288,2,70
368,232,80786,2,0,B|368:232|296:192|232:240,1,140
312,168,82227,6,0,B|312:168|312:240,2,70
312,112,83188,2,0,B|312:112|312:40,5,70
256,136,84869,5,0
248,136,85110,1,0
240,136,85350,1,0
232,136,85590,1,0
224,136,85830,1,0
224,176,86310,1,0
232,176,86551,1,0
240,176,86791,1,0
248,176,87031,1,0
256,176,87271,1,0
256,224,87751,5,0
256,216,87992,1,0
256,216,88232,1,0
256,208,88472,1,0
256,200,88712,2,0,B|256:200|256:112|360:112,1,140
352,112,89433,1,2
360,112,89673,1,2
368,112,89913,1,2
376,112,90153,1,2
384,112,90393,2,6,B|384:112|384:256,1,140
296,288,91594,6,0,B|296:288|208:216|296:152,1,140
304,136,92315,2,0,B|304:136|352:136|352:184,1,70
352,176,92795,2,0,B|352:176|288:176|312:120,1,70
304,136,93275,2,0,B|304:136|264:112|224:144,1,70
200,216,93996,6,0,B|200:216|184:248|232:280,1,70
224,272,94476,2,0,B|224:272|264:264|264:216,1,70
263,221,94956,2,2,C|263:221|256:176|216:160,1,70
232,160,95437,1,6
296,64,95917,1,6
296,64,96157,2,6,B|296:64|416:64|417:290|274:290|128:288,1,420
112,272,97839,5,6
112,264,98079,1,0
112,256,98319,2,6,B|112:256|112:112|256:112,1,210
240,112,99280,1,6
248,112,99520,1,0
256,112,99760,1,6
264,112,100000,1,0
264,112,100240,2,0,C|264:112|360:112,14,70
256,184,112249,5,0
256,184,112489,1,0
256,104,113209,5,0
256,104,113449,1,0
256,24,114170,5,0
256,24,114410,1,0
320,24,114891,5,2
320,32,115131,1,2
320,40,115371,1,2
320,48,115611,2,0,C|320:48|320:136,6,70
320,48,117292,2,0,B|320:48|168:48,1,140
304,192,119934,5,0
304,192,120174,1,0
224,192,120895,5,0
224,192,121135,1,0
152,192,121855,5,0
152,192,122095,1,0
72,192,122576,5,0
72,184,122816,1,0
72,176,123056,1,0
72,168,123297,2,0,B|72:168|72:11,4,140
248,288,127620,5,0
248,288,127860,1,0
328,288,128581,5,0
328,288,128821,1,0
400,288,129541,5,0
400,288,129782,1,0
392,224,130261,2,0,C|392:224|351:225|352:176,10,70
464,208,133144,1,0
104,144,134344,5,0
120,136,134585,1,0
136,128,134825,1,0
200,96,135305,1,0
200,96,135545,1,0
280,64,136266,1,0
280,64,136506,1,0
336,120,137226,1,0
336,120,137466,1,0
328,240,137947,5,0
320,232,138187,1,0
312,240,138427,1,0
304,232,138667,1,0
264,168,139868,1,0
272,160,140108,1,0
280,168,140349,1,0
288,160,140589,1,0
288,192,142510,6,0,B|288:192|48:192,1,210
80,192,143471,2,0,C|80:192|80:272,5,70
80,264,144791,1,4
184,248,146353,6,0,B|184:248|256:289|320:185|257:104|152:136,1,245
184,128,147314,2,0,C|184:128|88:128,5,70
112,128,148634,1,4
248,112,150195,6,0,B|248:112|248:184,4,70
248,104,151396,1,0
248,96,151636,1,0
256,96,151876,1,0
264,96,152117,1,0
272,96,152357,1,0
280,96,152597,1,0
288,96,152837,2,0,B|288:96|374:197|296:240,1,140
312,224,153558,1,0
304,224,153798,2,0,B|304:224|174:293|120:120,2,245
312,216,155719,1,0
320,208,155959,2,0,B|320:208|320:120|479:113|464:232,1,210
463,200,156920,2,0,C|463:200|464:256|424:256,3,70
448,264,157881,2,0,B|448:264|208:264,1,210
232,264,158841,1,4
224,192,160763,5,0
304,192,161243,1,0
264,128,161724,5,0
264,256,162204,1,0
184,168,162684,6,0,B|184:168|112:168,4,70
184,168,164125,2,0,B|184:168|256:168,4,70
184,168,165566,2,0,B|184:168|184:96,4,70
296,160,167007,2,0,C|296:160|296:240,5,70
296,296,168689,1,0
216,208,169409,6,0,B|216:208|248:184|280:144,3,70
272,152,170370,2,0,B|272:152|309:124|328:72,4,70
240,184,171811,2,0,B|240:184|144:296,2,140
208,152,173252,1,0
200,152,173492,1,0
192,152,173732,1,0
192,88,173972,1,0
128,88,174453,1,0
120,80,175413,6,0,B|120:80|175:83|272:80,1,140
272,80,176374,2,0,B|272:80|294:100|320:152,5,70
256,192,178055,6,0,B|256:192|416:192,2,140
256,192,179496,2,0,B|256:192|104:192,2,140
256,160,180937,2,0,C|256:160|256:88,4,70
256,200,182378,6,0,C|256:200|256:272,5,70
256,328,184060,1,0
320,160,184780,6,0,B|320:160|351:123|304:96,8,70
208,240,187182,6,0,C|208:240|160:176,6,70
240,296,189103,2,0,B|240:296|423:298|448:368,2,210
288,192,191024,5,0
280,192,191265,1,0
272,192,191505,1,0
208,192,192225,2,2,C|208:192|104:192,5,70
128,192,194147,1,4
120,192,194387,1,4
136,128,208797,5,0
200,128,209277,1,0
264,128,209758,1,0
328,128,210238,1,0
392,128,210718,1,0
456,128,211199,2,0,B|456:128|488:208|384:256|480:328|376:360|336:280,1,280
296,256,212640,5,0
256,208,213120,1,0
216,256,213600,1,0
176,208,214081,1,0
136,256,214561,1,0
104,208,215041,1,0
256,304,216483,6,0,B|256:304|208:240|216:152,1,140
216,120,217443,1,0
264,72,217924,1,0
304,120,218404,1,0
304,184,218884,1,0
304,192,219124,2,0,B|304:192|312:264|192:224,1,140
184,224,219845,1,0
168,224,220085,1,0
256,192,221766,5,0
232,192,222006,1,0
208,192,222247,1,0
112,224,222967,1,0
128,224,223207,1,0
144,224,223447,1,0
160,224,223688,1,0
176,224,223928,1,0
192,224,224168,1,0
264,224,224888,1,0
264,224,225129,2,0,B|264:224|427:224|424:112,2,210
192,192,227050,5,0
312,192,227530,1,0
256,184,228011,6,0,B|256:184|256:32,2,140
256,184,229452,2,0,B|256:184|256:344,2,140
216,216,230894,6,0,B|216:216|176:248|136:208,4,70
216,216,232335,2,0,B|216:216|248:200|248:152,5,70
256,112,234016,1,0
408,232,234736,5,0
344,232,235217,1,0
280,232,235697,6,0,B|280:232|104:232,2,140
280,184,237137,1,0
280,128,237618,1,0
328,128,238099,1,0
368,88,238579,6,0,B|368:88|386:-7|264:32,1,140
264,32,239299,2,0,B|264:32|128:96,1,140
200,168,240740,6,0,B|200:168|200:240,2,70
200,112,241701,2,0,B|200:112|200:40,5,70
256,136,243382,5,0
320,136,243863,1,0
392,136,244343,1,0
392,216,244823,1,0
320,216,245304,1,0
256,216,245784,1,0
256,312,246264,5,0
256,256,246745,1,0
256,200,247225,2,0,B|256:200|256:112|152:112,1,140
120,112,248185,1,2
72,112,248665,1,2
72,128,248905,2,6,B|72:128|72:280,1,140
216,288,250107,6,0,B|216:288|304:216|216:152,1,140
208,136,250828,2,0,B|208:136|160:136|160:184,5,70
312,216,252509,6,0,B|312:216|312:272|264:272,6,70
216,64,254430,1,6
216,64,254670,2,6,B|216:64|96:64|95:290|238:290|384:288,1,420
400,272,256351,5,6
400,216,256831,1,0
256,192,257552,12,0,261755
