osu file format v5

[General]
AudioFilename: Nana Kitade - Kibou no Kakera.mp3
AudioLeadIn: 0
AudioHash: 2d81641efed971d39364a9fc6295d39c
PreviewTime: -1
Countdown: 1
SampleSet: Normal
EditorBookmarks: 1049,67926,119934,160600,226718

[Metadata]
Title:Kibou no Kakera
Artist:Nana Kitade
Creator:Ozitiho
Version:Hard

[Difficulty]
HPDrainRate:7
CircleSize:6
OverallDifficulty:8
SliderMultiplier:1.4
SliderTickRate:1

[Events]
//Background and Video events
1,0,"Nana Kitade_ Kibo no Kakera.AVI"
//Break Periods
2,103322,111499
2,194587,208047
//Storyboard Layer 0 (Background)
//Storyboard Layer 1 (Failing)
//Storyboard Layer 2 (Passing)
//Storyboard Layer 3 (Foreground)
//Storyboard Sound Samples
//Background Colour Transformations
3,100,163,162,255

[TimingPoints]
330,480.340000000002,4,1,0,100

[Colours]
Combo1 : 0,0,64
Combo2 : 255,128,192
Combo3 : 128,0,64
Combo4 : 64,0,64

[HitObjects]
64,224,8015,1,0
56,192,8255,1,0
64,160,8495,1,0
48,128,8735,1,0
72,104,8976,1,0
48,80,9216,1,0
72,56,9456,1,0
104,72,9696,1,0
128,48,9936,1,0
144,72,10176,1,0
168,48,10417,1,0
184,80,10657,1,0
160,104,10897,1,0
184,128,11137,1,0
152,144,11377,1,0
152,208,11858,5,0
184,192,12098,1,0
216,208,12338,1,0
248,184,12578,1,0
272,208,12818,1,0
304,176,13059,1,0
336,208,13299,1,0
360,168,13539,1,0
392,208,13779,1,0
424,176,14019,1,0
448,208,14259,1,0
472,168,14500,1,0
448,128,14740,1,0
472,88,14980,5,0
440,64,15220,1,0
408,96,15460,1,4
376,136,15700,5,0
352,160,15941,1,0
328,184,16181,1,0
304,208,16421,1,0
280,232,16661,1,0
256,256,16901,1,0
232,280,17141,1,0
208,304,17382,1,0
184,328,17622,1,0
152,352,17862,1,0
128,328,18102,1,0
104,304,18342,1,0
80,280,18582,1,0
56,256,18823,1,0
80,232,19063,1,0
104,208,19303,1,0
128,184,19543,1,0
208,192,27709,5,0
208,192,27949,1,0
288,192,28670,5,0
288,192,28910,1,0
360,192,29630,5,0
360,192,29870,1,0
432,192,30351,5,0
424,160,30591,1,0
400,144,30831,1,0
368,152,31071,2,0,B|368:152|368:-5|231:-8|231:275|84:274|80:40,1,490
264,288,35394,5,0
264,288,35634,1,0
184,288,36355,5,0
184,288,36595,1,0
112,288,37316,5,0
112,288,37556,1,0
112,224,38036,5,0
136,224,38276,1,0
160,224,38517,1,0
192,224,38757,1,0
216,224,38997,1,0
240,224,39237,1,0
264,224,39477,1,0
288,224,39717,1,0
312,224,39958,1,0
336,224,40198,1,0
360,224,40438,1,0
408,224,40918,1,0
376,272,42119,5,0
336,272,42359,1,0
296,272,42599,1,0
224,256,43080,5,0
200,248,43320,1,0
152,264,44040,5,0
152,264,44281,1,0
152,80,45001,5,0
152,80,45241,1,0
256,80,45722,5,0
256,104,45962,1,0
256,128,46202,1,0
256,160,46442,1,0
144,192,47643,5,2
192,232,47883,1,2
256,232,48123,1,2
304,192,48364,1,6
184,192,50165,6,0,B|184:192|432:192,1,245
432,160,51246,1,2
432,136,51486,1,2
432,112,51726,1,2
432,88,51966,1,2
432,64,52206,1,2
432,40,52446,1,4
432,40,52566,1,4
328,200,54128,6,0,B|328:200|256:95|192:199|255:280|328:200,1,210
328,200,55088,1,0
344,168,55328,1,0
336,136,55569,1,0
304,120,55809,1,0
264,128,56049,1,0
232,144,56289,1,4
232,144,56409,1,4
264,272,57970,6,0,B|264:272|264:200,4,70
264,304,59171,1,0
264,336,59411,1,0
232,336,59651,1,0
200,336,59892,1,0
200,304,60132,1,0
200,272,60372,1,0
208,256,60612,2,0,B|208:256|122:155|240:224,1,140
264,224,61333,1,0
288,224,61573,2,0,B|288:224|496:139|279:-82|66:134|288:224,1,490
312,240,63494,1,0
336,264,63734,2,0,B|336:264|336:352|177:359|192:240,1,210
192,240,64695,1,0
192,208,64935,1,0
192,176,65175,1,0
192,144,65416,1,0
192,112,65656,2,0,B|192:112|192:24|311:24|312:144,1,210
312,160,66616,1,4
144,184,68538,5,2
352,192,69018,1,2
256,160,69498,5,0
272,128,69739,1,0
256,96,69979,1,0
224,88,70219,1,0
200,112,70459,1,0
208,192,70939,1,0
200,224,71180,1,0
216,256,71420,1,0
248,248,71660,1,0
272,224,71900,1,0
288,144,72381,5,0
288,104,72621,1,0
288,144,72861,1,0
288,104,73101,1,0
288,144,73341,1,0
288,200,73822,1,0
288,248,74062,1,0
288,200,74302,1,0
288,248,74542,1,0
288,200,74782,1,0
288,248,75022,1,0
288,312,75503,1,0
232,160,76223,5,0
208,184,76463,1,0
248,200,76704,1,0
224,224,76944,1,0
192,256,77184,6,0,B|192:256|128:328,4,70
224,224,78625,1,0
240,192,78865,1,0
248,160,79105,1,0
240,128,79345,1,0
216,96,79586,1,0
184,152,80066,6,0,B|184:152|128:208,2,70
232,112,80786,6,0,B|232:112|304:72|368:120,1,140
200,192,82227,5,0
240,152,82468,1,0
272,112,82708,1,0
360,168,83188,1,0
328,208,83428,1,0
296,248,83668,1,0
264,288,83909,1,0
232,328,84149,1,0
200,368,84389,1,0
256,136,84869,5,0
216,136,85110,1,0
176,136,85350,1,0
136,136,85590,1,0
96,136,85830,1,0
96,216,86310,5,0
136,216,86551,1,0
176,216,86791,1,0
216,216,87031,1,0
256,216,87271,1,0
256,328,87751,5,0
256,296,87992,1,0
256,264,88232,1,0
256,232,88472,1,0
256,192,88712,2,0,B|256:192|256:104|360:104,1,140
376,104,89433,1,2
408,104,89673,1,2
440,104,89913,1,2
440,136,90153,1,2
440,176,90393,2,6,B|440:176|264:176,1,140
296,288,91594,6,0,B|296:288|208:216|296:152,1,140
304,136,92315,2,0,B|304:136|352:136|352:184,1,70
336,200,92795,2,0,B|336:200|272:200|272:144,1,70
256,144,93275,2,0,B|256:144|216:120|176:152,1,70
200,216,93996,6,0,B|200:216|184:248|232:280|224:280,1,70
256,288,94476,2,0,B|256:288|296:280|296:232,1,70
296,200,94956,1,2
296,168,95197,1,2
296,136,95437,1,6
296,64,95917,1,6
296,64,96157,2,6,B|296:64|416:64|417:290|274:290|128:288,1,420
112,272,97839,5,6
112,248,98079,1,6
112,216,98319,2,6,B|112:216|112:120,3,70
112,120,99279,1,6
112,96,99520,1,6
112,72,99760,1,6
112,48,100000,1,6
120,24,100240,2,0,B|120:24|520:0|474:20|488:341|24:346|130:118|88:40,1,840
256,184,112249,5,0
256,184,112489,1,0
256,104,113209,5,0
256,104,113449,1,0
256,24,114170,5,0
256,24,114410,1,0
320,24,114891,5,2
320,48,115131,1,2
320,72,115371,1,2
320,104,115611,1,0
320,136,115851,1,0
320,168,116091,1,0
320,192,116332,1,0
320,224,116572,1,0
320,256,116812,1,0
320,288,117052,1,0
320,320,117292,2,0,B|320:320|168:320,1,140
304,192,119934,5,0
304,192,120174,1,0
224,192,120895,5,0
224,192,121135,1,0
152,192,121855,5,0
152,192,122095,1,0
80,192,122576,5,0
88,160,122816,1,0
112,144,123056,1,0
144,152,123296,2,0,B|144:152|144:-5|281:-8|281:275|428:274|432:40,1,490
248,288,127620,5,0
248,288,127860,1,0
328,288,128581,5,0
328,288,128821,1,0
400,288,129542,5,0
400,288,129782,1,0
400,224,130262,5,0
376,224,130502,1,0
352,224,130743,1,0
320,224,130983,1,0
296,224,131223,1,0
272,224,131463,1,0
248,224,131703,1,0
224,224,131943,1,0
200,224,132184,1,0
176,224,132424,1,0
152,224,132664,1,0
88,224,133144,1,0
104,144,134344,5,0
136,128,134585,1,0
168,104,134825,1,0
240,104,135305,1,0
264,128,135545,1,0
352,128,136266,1,0
384,96,136506,1,0
432,160,137226,1,0
400,192,137466,1,0
328,240,137947,5,0
312,224,138187,1,0
296,208,138427,1,0
280,192,138667,1,0
320,160,139868,1,0
336,176,140108,1,0
352,192,140349,1,0
368,208,140589,1,0
288,192,142510,6,0,B|288:192|48:192,1,210
80,224,143471,1,2
80,248,143711,1,2
80,272,143951,1,2
80,296,144191,1,2
80,320,144431,1,2
80,344,144671,1,4
80,344,144791,1,4
184,184,146353,6,0,B|184:184|256:289|320:185|257:104|184:184,1,210
184,184,147313,1,0
168,216,147553,1,0
176,248,147794,1,0
208,264,148034,1,0
248,256,148274,1,0
280,240,148514,1,4
280,240,148634,1,4
248,112,150195,6,0,B|248:112|248:184,4,70
248,80,151396,1,0
248,48,151636,1,0
280,48,151876,1,0
312,48,152117,1,0
312,80,152357,1,0
312,112,152597,1,0
304,128,152837,2,0,B|304:128|390:229|272:160,1,140
248,160,153558,1,0
224,160,153798,2,0,B|224:160|16:245|233:466|446:250|224:160,1,490
200,144,155719,1,0
176,120,155959,2,0,B|176:120|176:32|335:25|320:144,1,210
320,144,156920,1,0
320,176,157160,1,0
320,208,157400,1,0
320,240,157641,1,0
320,272,157881,2,0,B|320:272|320:360|201:360|200:240,1,210
200,224,158841,1,4
128,192,160763,5,0
368,192,161243,1,0
256,80,161724,5,0
256,280,162204,1,0
184,168,162684,6,0,B|184:168|112:168,4,70
184,168,164125,2,0,B|184:168|256:168,4,70
184,168,165566,2,0,B|184:168|184:96,4,70
184,168,167007,5,0
184,200,167248,1,0
184,232,167488,1,0
184,264,167728,1,0
184,296,167968,1,0
184,328,168208,1,0
256,328,168689,1,0
256,256,169409,6,0,B|256:256|288:232|240:200,3,70
242,201,170370,2,0,B|242:201|200:168|240:136,4,70
248,200,171811,2,0,B|248:200|344:88,2,140
248,200,173252,1,0
224,224,173492,1,0
200,248,173732,1,0
176,272,173972,1,0
128,320,174453,1,0
112,144,175413,6,0,B|112:144|56:124|112:104,2,70
112,144,176374,2,0,B|112:144|168:164|112:184,5,70
144,192,178055,6,0,B|144:192|304:192,2,140
288,192,179496,2,0,B|288:192|136:192,2,140
144,184,180937,1,0
160,168,181178,1,0
192,160,181418,1,0
224,168,181658,1,0
240,184,181898,1,0
248,240,182378,5,0
240,272,182619,1,0
208,288,182859,1,0
168,280,183099,1,0
160,248,183339,1,0
184,216,183579,1,0
256,184,184060,1,0
320,160,184780,6,0,B|320:160|351:123|304:96,3,70
280,88,185741,1,0
240,80,185981,1,0
208,88,186221,1,0
184,112,186461,1,0
168,136,186701,1,0
224,240,187182,5,0
248,184,187422,1,0
272,240,187662,1,0
296,184,187902,1,0
320,240,188142,1,0
344,184,188383,1,0
368,128,188623,1,0
400,72,189103,1,0
400,72,189343,2,0,B|400:72|217:74|218:319|424:312,1,420
416,192,191024,5,0
376,192,191265,1,0
336,192,191505,1,0
248,192,192225,5,0
208,200,192466,1,0
176,224,192706,1,0
160,256,192946,1,0
152,296,193186,1,0
168,336,193426,1,0
256,360,194147,1,4
288,360,194387,1,4
136,128,208797,5,0
256,128,209638,1,0
288,128,209878,1,0
312,128,210118,1,0
336,128,210358,1,0
368,128,210598,1,0
400,128,210839,2,0,B|400:128|432:208|328:256|424:328|320:360|280:280,1,280
120,280,212640,5,0
120,200,213360,1,0
136,184,213600,1,0
152,168,213841,1,0
168,152,214081,1,0
184,136,214321,1,0
200,120,214561,1,0
216,104,214801,1,0
232,88,215041,1,0
256,304,216483,6,0,B|256:304|208:240|312:192|192:104,1,210
176,96,217443,1,0
136,96,217683,1,0
112,120,217924,1,0
96,152,218164,1,0
104,184,218404,1,0
128,200,218644,1,0
160,184,218884,1,0
192,160,219124,2,0,B|192:160|184:88|304:128,1,140
328,136,219845,1,0
360,152,220085,1,0
256,192,221766,5,0
216,184,222006,1,0
176,176,222247,1,0
112,224,222967,1,0
128,272,223207,1,0
152,224,223447,1,0
168,272,223688,1,0
192,224,223928,1,0
216,184,224168,1,0
256,104,224888,1,0
256,104,225129,2,0,B|256:104|391:192|257:369|104:192|168:32,1,420
192,192,227050,5,0
312,192,227530,1,0
256,184,228011,6,0,B|256:184|256:32,2,140
256,184,229452,2,0,B|256:184|256:344,2,140
208,224,230893,5,0
176,232,231133,1,0
144,240,231373,1,0
176,232,231613,1,0
216,216,231853,1,0
288,184,232334,1,0
320,168,232574,1,0
352,152,232814,1,0
384,136,233054,1,0
352,112,233294,1,0
320,104,233535,1,0
248,88,234015,1,0
280,160,234736,5,0
304,184,234976,1,0
264,200,235217,1,0
288,224,235457,1,0
320,256,235697,2,0,B|320:256|384:328,4,70
288,224,237138,1,0
272,192,237378,1,0
264,160,237618,1,0
272,128,237858,1,0
296,96,238099,1,0
328,152,238579,6,0,B|328:152|384:208,2,70
280,112,239299,2,0,B|280:112|208:72|144:120,1,140
200,168,240740,6,0,B|200:168|200:240,2,70
200,112,241701,2,0,B|200:112|200:40,5,70
256,136,243382,5,0
288,136,243623,1,0
320,136,243863,1,0
352,136,244103,1,0
392,136,244343,1,0
392,216,244823,5,0
360,216,245064,1,0
320,216,245304,1,0
288,216,245544,1,0
256,216,245784,1,0
256,304,246264,5,0
256,280,246505,1,0
256,256,246745,1,0
256,232,246985,1,0
256,200,247224,2,0,B|256:200|256:112,2,70
256,232,247945,1,2
256,256,248185,1,2
256,280,248425,1,2
256,304,248665,1,2
256,328,248905,2,6,B|256:328|432:328,1,140
216,288,250107,6,0,B|216:288|304:216|216:152,1,140
208,136,250828,2,0,B|208:136|160:136|160:184,1,70
176,200,251308,2,0,B|176:200|240:200|240:144,1,70
256,144,251788,2,0,B|256:144|296:120|336:152,1,70
312,216,252509,6,0,B|312:216|328:248|280:280|288:280,1,70
256,288,252989,2,0,B|256:288|216:280|216:232,1,70
216,200,253469,1,2
216,168,253710,1,2
216,136,253950,1,6
216,64,254430,1,6
216,64,254670,2,6,B|216:64|96:64|95:290|238:290|384:288,1,420
400,272,256351,5,6
400,248,256591,1,6
400,216,256830,1,0
256,192,257552,12,0,261755
