osu file format v7

[General]
AudioFilename: Full Metal Alchemist ending 1.mp3
AudioLeadIn: 1489
PreviewTime: 39615
Countdown: 1
SampleSet: Soft
StackLeniency: 0.7
Mode: 0
LetterboxInBreaks: 1

[Editor]
Bookmarks: 39599,67795
DistanceSpacing: 0.800000011920929
BeatDivisor: 4
GridSize: 8

[Metadata]
Title:Kesenai Tsumi (TV Size)
Artist:Nana Kitade
Creator:Androws
Version:Hard
Source:Full Metal Alchemist
Tags:fma full metal alchemist edward elric alphonse roxkyuubi roxkyuubiforever

[Difficulty]
HPDrainRate:6
CircleSize:4
OverallDifficulty:6
SliderMultiplier:1.4
SliderTickRate:1

[Events]
//Background and Video events
Video,-1500,"full metal alchemist ending 1 full HQ.avi"
0,0,"bg.jpg"
//Break Periods
//Storyboard Layer 0 (Background)
//Storyboard Layer 1 (Fail)
//Storyboard Layer 2 (Pass)
//Storyboard Layer 3 (Foreground)
//Storyboard Sound Samples
//Background Colour Transformations
3,100,64,0,64

[TimingPoints]
1720,379.746835443038,4,2,0,70,1,0
41213,-100,4,1,0,80,0,1
52226,-100,4,2,0,70,0,0
77194,-100,4,2,0,17,0,0

[Colours]
Combo1 : 255,128,0
Combo2 : 5,240,5
Combo3 : 5,5,240
Combo4 : 240,5,5

[HitObjects]
256,192,201,12,0,1340
104,72,1720,5,8
368,72,2099,1,8
368,192,2479,1,8
104,192,2859,1,8
104,320,3238,1,8
368,312,3618,1,8
104,48,3998,5,0
256,184,4378,1,0
400,48,4757,1,0
400,160,5137,2,0,B|256:160,2,140,8|0|8
88,160,6276,2,0,B|240:160,2,140,0|8|0
256,264,7416,1,8
408,192,7795,5,0
392,136,7985,1,0
352,96,8175,1,8
312,64,8365,1,2
232,144,8745,5,2
144,72,9125,1,0
96,96,9314,5,0
72,144,9504,1,0
80,200,9694,1,8
104,248,9884,1,2
216,272,10264,5,0
216,272,10454,1,8
472,336,10833,5,4
384,264,11213,1,8
384,208,11403,1,0
328,208,11593,2,0,B|248:208,2,70,0|0|8
216,208,12352,1,0
176,176,12542,1,0
232,160,12732,1,8
184,128,12922,5,0
232,104,13112,1,0
184,80,13302,1,0
240,64,13492,2,0,B|312:64,1,70,8|0
200,32,14061,1,2
48,96,14631,6,0,B|96:152,1,70
152,152,15011,2,0,B|232:152,1,70
272,176,15390,2,0,B|328:224,2,70,0|0|8
248,232,15960,2,0,B|248:304,1,70
136,304,16530,1,0
136,304,16720,1,2
104,160,17289,6,0,B|152:104|168:104,1,70,8|0
153,110,17669,1,0
208,112,17859,2,0,B|288:112,1,70
336,112,18238,1,2
336,224,18618,1,0
336,224,18808,1,8
112,112,19188,6,0,B|184:112,1,70
184,168,19568,2,0,B|184:240,1,70
240,240,19947,2,0,B|320:240,1,70
368,240,20327,2,0,B|368:168,2,70,8|0|0
368,170,20897,1,0
368,170,21087,1,2
368,112,21276,6,0,B|336:80|288:72,1,70
256,72,21656,1,0
200,80,21846,2,0,B|160:96|136:112,1,70,8|0
32,184,22226,5,0
88,184,22416,1,0
88,128,22606,1,0
144,128,22795,1,0
200,128,22985,2,0,B|248:136|288:168|256:200|200:216,1,140,0|8
216,210,23555,1,2
312,152,23935,5,0
368,176,24125,1,0
368,232,24314,2,0,B|288:232,1,70,0|2
256,72,25074,5,0
256,128,25264,1,0
200,128,25454,2,0,B|200:208,1,70,0|2
200,88,26023,1,4
312,72,26403,5,8
352,112,26593,1,0
384,160,26783,1,0
384,216,26973,1,0
328,232,27163,2,0,B|248:232,1,70,0|2
216,200,27542,1,0
168,176,27732,1,0
112,176,27922,1,8
184,88,28302,6,0,B|264:120|280:192,1,140
278,184,28871,2,0,B|328:120|392:88,1,140,0|2
272,112,29821,1,0
272,112,30011,1,0
272,112,30201,1,2
272,168,30390,2,0,B|272:256,1,70
384,256,30960,1,8
272,256,31340,2,0,B|192:216|128:200,2,140,0|0|2
256,144,32479,5,8
256,144,32669,1,0
256,144,32859,1,2
256,256,33238,2,0,B|328:224,1,70,0|8
400,152,33808,1,0
400,208,33998,1,2
304,152,34378,2,0,B|224:152,1,70
184,184,34757,2,0,B|136:240,2,70,0|0|8
392,96,35897,5,0
392,96,36087,1,0
392,96,36276,1,2
280,96,36656,2,0,B|232:152,1,70
232,208,37036,1,8
280,240,37226,1,0
336,240,37416,2,0,B|368:224|376:184,1,70
328,152,37795,5,0
272,152,37985,1,0
216,152,38175,1,0
168,184,38365,2,0,B|152:224|152:264,2,70,0|8|0
256,72,39694,5,2
256,72,39884,1,0
256,72,40074,1,8
256,184,40454,5,0
256,240,40644,2,0,B|328:272,1,70
360,224,41023,1,0
392,272,41213,1,2
360,104,41783,5,0
304,104,41973,1,0
248,104,42163,2,0,B|184:144,1,70
184,200,42542,1,0
224,240,42732,1,2
280,240,42922,2,0,B|352:240,1,70,0|8
376,128,43492,6,0,B|296:128,1,70
272,168,43871,2,0,B|232:232,1,70
272,264,44251,1,0
272,264,44441,1,2
328,272,44631,2,0,B|408:280,1,70,8|2
432,240,45011,1,0
440,184,45201,1,0
400,144,45390,2,0,B|304:144,3,70,0|0|0|2
168,104,46530,6,0,B|168:176,1,70
168,232,46909,2,0,B|256:232,2,70,0|0|2
256,48,47859,5,0
256,48,48049,1,0
256,48,48238,1,0
256,104,48428,2,0,B|192:168,1,70
256,104,48808,2,0,B|320:168,1,70,0|2
256,184,49188,2,0,B|256:264,1,70,8|0
256,312,49568,6,0,B|336:272|320:272,1,70,0|2
360,240,49947,1,0
368,184,50137,2,0,B|368:136|336:112,1,70,0|2
288,104,50517,1,0
232,120,50707,1,8
192,160,50897,2,0,B|168:192|192:232,1,70
216,272,51276,1,0
272,280,51466,2,0,B|320:272|352:256|376:232|384:192,1,140,0|4
192,88,52606,6,0,B|216:128|256:144|288:136|320:136,1,140
416,184,53365,1,2
336,256,53745,2,0,B|312:296|272:312|240:304|208:304,2,140,8|0|0
248,184,54884,2,0,B|216:168|200:128|232:96|272:80,1,140,8|0
384,88,55644,5,0
272,104,56023,2,0,B|232:136|208:168|192:200|192:232,1,140,8|2
256,320,56783,5,0
256,320,56973,1,0
256,208,57352,2,0,B|224:232|200:264,1,70,0|0
256,208,57732,2,0,B|287:232|311:263,1,70,0|8
256,40,58682,6,0,B|200:96,1,70
240,136,59061,2,0,B|296:192,1,70,8|0
336,152,59441,2,0,B|392:96,1,70,0|0
344,64,59821,2,0,B|296:64|240:104|216:144,1,140,0|0
152,216,60580,2,0,B|184:240|216:248|256:256|288:256,1,140,8|4
256,80,61720,5,0
256,80,61909,1,0
256,136,62099,2,0,B|208:144|176:184,1,70,8|0
192,224,62479,1,0
232,264,62669,1,0
288,256,62859,2,0,B|328:248|360:224|392:192|408:160,1,140,0|0
392,120,63428,1,0
344,88,63618,1,8
288,96,63808,2,0,B|256:104|208:128|192:152|168:176|96:104,1,210,2|8
184,40,64757,5,0
184,96,64947,1,0
184,152,65137,1,2
256,192,65517,12,0,67036
200,80,67795,6,0,B|256:160,1,70
280,80,68175,2,0,B|240:152,1,70,0|8
248,200,68555,1,0
248,256,68745,1,0
136,256,69125,2,0,B|136:216|168:184,1,70
200,152,69504,1,0
256,152,69694,2,0,B|304:144|336:128|360:104|368:64|352:32|288:32|240:32|208:32,1,280
48,80,70833,5,0
104,80,71023,1,0
160,80,71213,1,2
256,192,71593,12,2,73112
192,80,73871,5,0
248,80,74061,1,0
304,80,74251,2,0,B|304:160,1,70,8|0
248,144,74631,1,2
192,144,74821,1,0
192,200,75011,1,8
248,200,75201,2,0,B|320:200,1,70
320,256,75580,1,0
264,256,75770,2,0,B|224:272|192:296|192:336|224:360,1,140,8|4
256,192,76720,6,0,B|200:248,1,70
256,192,77099,2,0,B|304:248,2,70
