osu file format v9

[General]
AudioFilename: Shinkai Shoujo.mp3
AudioLeadIn: 0
PreviewTime: 172834
Countdown: 0
SampleSet: Normal
StackLeniency: 0.7
Mode: 0
LetterboxInBreaks: 1

[Editor]
DistanceSpacing: 1
BeatDivisor: 4
GridSize: 4

[Metadata]
Title:Shinkai Shoujo
Artist:Namine Ritsu
Creator:ertyukjh010
Version:Insane
Source:Yuuyu
Tags:vocaloid vocaloid2 utau deep sea girl Hatsune Miku NicoNicoDouga nicovideo Rein0527

[Difficulty]
HPDrainRate:7
CircleSize:4
OverallDifficulty:7
ApproachRate:8
SliderMultiplier:1.80000000596046
SliderTickRate:2

[Events]
//Background and Video events
0,0,"BG.jpg"
//Break Periods
2,63326,65442
2,140407,154785
//Storyboard Layer 0 (Background)
//Storyboard Layer 1 (Fail)
//Storyboard Layer 2 (Pass)
//Storyboard Layer 3 (Foreground)
//Storyboard Sound Samples
//Background Colour Transformations
3,100,255,255,255

[TimingPoints]
1813,437.956204379562,4,2,1,40,1,0
3126,-133.333333333333,4,2,1,40,0,0
16922,-100,4,1,1,40,0,0
31594,-100,4,2,1,60,0,0
38601,-100,4,1,1,40,0,0
45608,-100,4,1,1,50,0,1
63126,-100,4,1,1,50,0,0
66192,-100,4,2,1,40,0,0
66630,-100,4,1,1,40,0,0
80645,-100,4,2,1,60,0,0
87652,-100,4,1,1,40,0,0
94659,-100,4,1,1,50,0,1
111740,-100,4,2,1,60,0,0
112177,-100,4,1,1,50,0,0
118747,-100,4,2,1,60,0,0
119185,-100,4,1,1,40,0,0
129696,-100,4,2,1,60,0,0
133199,-100,4,1,1,40,0,0
139659,-100,4,1,1,45,0,0
139915,-100,4,1,1,50,0,0
140207,-100,4,2,1,50,0,0
155535,-200,4,2,1,30,0,0
155973,-200,4,2,1,60,0,0
162542,-200,4,2,1,50,0,0
162980,-133.333333333333,4,2,1,50,0,0
168236,-100,4,2,1,40,0,0
169331,-100,4,1,1,30,0,0
169988,-100,4,1,1,40,0,0
171740,-100,4,1,1,45,0,0
173491,-100,4,1,1,50,0,1
191010,-100,4,1,1,45,0,0
208090,-100,4,2,1,5,0,0
208528,-100,4,1,1,65,0,0
211813,-100,4,2,1,5,0,0

[Colours]
Combo1 : 255,255,91
Combo2 : 255,77,77
Combo3 : 248,179,16

[HitObjects]
120,112,3564,2,0,B|32:112|-4:192|32:272|120:272,1,269.999992847442,2|0
256,288,4878,1,0
392,272,5316,2,0,B|480:272|516:192|480:112|392:112,1,269.999992847442,2|0
120,112,7068,6,0,B|120:192|72:240,1,134.999996423721,0|2
176,320,7944,2,0,B|176:240|224:192,1,134.999996423721,0|2
248,64,8820,2,0,B|328:64|376:112,1,134.999996423721,0|2
408,240,9696,1,0
280,280,10134,2,0,B|264:344,2,67.4999982118605,2|0|0
296,144,11010,5,2
192,64,11448,1,0
64,96,11885,1,2
24,224,12323,1,0
112,328,12761,1,2
248,344,13199,2,0,B|324:352|364:288,1,134.999996423721,0|2
496,304,14075,6,0,B|444:256|476:180,1,134.999996423721,0|2
440,52,14951,2,0,B|408:116|324:108,1,134.999996423721,0|2
260,224,15827,2,0,B|184:212|140:272,2,134.999996423721,0|2|0
348,240,16922,1,0
348,240,17031,1,0
348,240,17141,1,2
420,184,17360,1,0
400,104,17579,6,0,B|312:80,1,90.000000298023,4|0
232,40,18017,1,2
160,96,18236,1,0
168,184,18455,2,0,B|180:300|88:344,1,180.000000596046,0|2
344,184,19331,6,0,B|332:300|424:344,2,180.000000596046,0|2|0
272,112,20426,1,0
244,212,20645,1,2
344,184,20864,1,0
182,59,21083,6,0,B|124:32|52:56|39:124,1,180.000000596046,4|2
112,192,21740,1,0
39,262,21958,2,0,B|52:328|124:352|182:324,1,180.000000596046,0|2
256,240,22615,1,0
364,168,22834,5,0
148,168,23053,1,0
328,296,23272,1,2
256,84,23491,1,0
192,296,23710,1,0
256,184,23929,5,0
256,184,24039,1,0
256,184,24148,2,0,B|256:280,2,90.000000298023,2|0|0
192,76,24805,1,0
320,76,25024,1,2
256,184,25243,1,0
192,76,25462,1,0
320,76,25681,1,0
320,76,25791,1,0
320,76,25900,2,0,B|412:76,1,90.000000298023,2|0
432,208,26338,6,0,B|456:324|356:348,1,180.000000596046,0|2
256,264,26995,1,0
80,208,27214,2,0,B|56:324|156:348,1,180.000000596046,0|2
256,192,27871,5,0
256,192,27980,1,0
256,192,28090,2,0,B|256:100,2,90.000000298023,0|0|2
256,336,28747,1,0
136,264,28966,5,0
328,312,29185,1,0
376,120,29404,1,2
184,72,29623,1,0
256,336,29842,6,0,B|256:156,1,180.000000596046,0|2
168,44,30499,1,0
344,44,30718,1,0
256,92,30937,1,0
256,92,31046,1,0
256,92,31156,2,0,B|256:184,1,90.000000298023,2|0
124,188,31594,6,0,B|96:276|144:328|204:336,1,180.000000596046,4|2
256,232,32250,1,0
388,188,32469,2,0,B|416:276|368:328|323:332,1,180.000000596046,0|2
256,232,33126,1,0
256,68,33345,2,0,B|256:184|188:232,2,180.000000596046,0|2|0
344,76,34440,1,0
332,164,34659,1,2
300,248,34878,1,0
228,304,35097,6,0,B|136:344|56:292,1,180.000000596046,4|2
68,112,35973,2,0,B|160:72|240:124,1,180.000000596046,0|2
276,228,36630,1,0
304,332,36849,6,0,B|376:356|432:312|436:244,2,180.000000596046,0|2|0
196,320,37944,1,0
84,228,38163,1,2
84,80,38382,1,0
168,52,38601,6,0,B|256:40,1,90.000000298023,4|0
240,84,38929,2,0,B|376:80,1,135.000000447034,0|0
468,136,39477,1,0
484,180,39586,1,0
464,288,39805,1,0
428,316,39915,1,2
320,296,40134,1,0
260,204,40353,6,0,B|172:188,1,90.000000298023
224,72,40791,2,0,B|136:88,1,90.000000298023,2|0
36,132,41229,2,0,B|-44:224|8:340|104:380|196:328,1,360.000001192092,0|4
256,140,42542,6,0,B|256:48,2,90.000000298023,2|0|0
256,232,43199,2,0,B|256:324,2,90.000000298023,0|2|0
336,192,43856,5,0
172,192,44075,1,0
336,352,44294,1,0
336,192,44513,1,0
172,352,44732,2,0,B|96:372|44:332|40:268,2,180.000000596046,0|0|4
236,288,45827,5,0
256,200,46046,1,2
256,112,46265,1,0
256,200,46484,1,0
324,260,46703,1,0
412,244,46922,1,2
456,164,47141,1,0
440,80,47360,6,0,B|396:60|352:80,1,90.000000298023
324,348,47798,2,0,B|344:304|324:260,1,90.000000298023,2|0
36,224,48236,2,0,B|80:244|124:224,1,90.000000298023,0|0
212,216,48674,6,0,B|240:160|228:112,2,90.000000298023,2|0|0
212,216,49550,2,0,B|184:272|196:320,2,90.000000298023,2|0|0
256,136,50207,1,0
340,108,50426,1,2
412,164,50645,1,0
432,252,50864,6,0,B|412:324|340:352|280:332,1,180.000000596046,0|2
256,196,51521,1,0
219,48,51740,2,0,B|172:32|100:60|80:132,1,180.000000596046,0|2
80,220,52396,5,0
112,304,52615,2,0,B|204:348|284:304,1,180.000000596046,4|2
400,80,53491,2,0,B|308:36|228:80,1,180.000000596046,0|2
180,156,54148,1,0
216,240,54367,2,0,B|204:304|160:340,2,90.000000298023,0|0|2
304,228,55024,2,0,B|316:164|360:128,2,90.000000298023
336,312,55681,6,0,B|424:328,2,90.000000298023,2|0|4
136,132,56557,2,0,B|48:116,2,90.000000298023,2|0|0
180,212,57214,1,0
268,228,57433,1,2
336,168,57652,1,0
336,80,57871,6,0,B|424:56,1,90.000000298023
336,168,58309,2,0,B|424:192,1,90.000000298023,2|0
268,228,58747,2,0,B|312:308,1,90.000000298023
180,212,59185,2,0,B|128:284,1,90.000000298023,2|0
136,132,59623,6,0,B|48:156,1,90.000000298023,4|0
36,244,60061,1,2
92,316,60280,1,0
176,348,60499,1,0
264,356,60718,1,0
348,328,60937,1,2
412,264,61156,1,0
440,180,61375,6,0,B|352:156,1,90.000000298023,4|0
288,96,61812,1,2
200,96,62031,1,0
144,168,62250,1,0
168,256,62469,1,0
248,296,62688,1,2
328,256,62907,1,0
348,168,63126,1,4
256,100,66192,6,0,B|256:192,1,90.000000298023,2|0
256,280,66630,2,0,B|176:336|84:288,2,180.000000596046,4|2|0
256,100,67944,2,0,B|336:44|428:92,2,180.000000596046,2|0|2
224,184,69039,1,0
256,268,69258,1,0
340,304,69477,2,0,B|392:312|420:276,1,90.000000298023,0|2
440,188,69915,5,0
428,100,70134,2,0,B|360:40|256:48,1,180.000000596046,4|2
172,64,70791,1,0
100,120,71010,1,0
168,180,71229,1,0
168,180,71338,1,0
168,180,71448,1,2
100,240,71667,1,0
168,300,71885,6,0,B|248:356|340:324,1,180.000000596046,0|2
312,192,72542,1,0
260,68,72761,2,0,B|351:36|431:92,1,180.000000596046,0|2
456,180,73418,5,0
456,216,73528,1,0
456,252,73637,2,0,B|400:320|288:280,1,180.000000596046,4|2
240,164,74294,1,0
152,76,74513,2,0,B|144:168,1,90.000000298023
40,112,74951,2,0,B|52:200,1,90.000000298023,2|0
52,292,75389,5,0
136,320,75608,1,0
192,248,75827,1,2
280,272,76046,1,0
308,188,76265,1,0
316,56,76484,1,0
316,56,76594,1,0
316,56,76703,1,2
432,116,76922,5,0
444,136,77031,1,0
456,156,77141,2,0,B|488:260|424:328,1,180.000000596046,0|2
256,260,77798,1,0
56,156,78017,2,0,B|24:260|88:328,1,180.000000596046,0|2
256,260,78674,1,0
256,168,78893,2,0,B|256:32,2,135.000000447034
368,224,79769,2,0,B|372:276|348:312,1,90.000000298023
144,224,80207,2,0,B|140:276|164:312,1,90.000000298023,2|0
368,224,80645,6,0,B|368:124|428:56,1,180.000000596046,4|2
256,52,81302,1,0
144,224,81521,2,0,B|144:124|84:56,1,180.000000596046,0|2
256,168,82177,1,0
212,340,82396,2,0,B|256:352|300:340,1,90.000000298023
256,256,82834,1,2
320,112,83053,1,0
320,112,83163,1,0
320,112,83272,2,0,B|412:112,1,90.000000298023
192,112,83710,2,0,B|100:112,1,90.000000298023,2|0
56,192,84148,5,4
64,280,84367,1,0
136,336,84586,1,2
224,328,84805,1,0
280,256,85024,2,0,B|320:172|432:184,1,180.000000596046,0|2
464,268,85681,1,0
380,300,85900,2,0,B|296:260|308:148,1,180.000000596046,0|2
264,72,86557,1,0
180,40,86776,1,0
180,40,86885,1,0
180,40,86995,1,0
180,40,87104,1,0
180,40,87214,1,2
108,96,87433,5,0
108,96,87542,1,0
108,96,87652,1,4
100,184,87871,2,0,B|120:224,1,45.0000001490115
64,296,88199,2,0,B|88:340|136:348,1,90.000000298023
176,320,88528,1,0
224,308,88637,1,0
268,316,88747,1,0
312,320,88856,1,0
352,300,88966,2,0,B|384:260|384:216,1,90.000000298023,2|0
392,92,89404,5,4
124,56,89732,1,0
224,308,90061,1,0
284,240,90280,6,0,B|312:156,1,90.000000298023
224,164,90718,2,0,B|212:76,1,90.000000298023,2|0
124,56,91156,6,0,B|48:60|24:164|88:216,1,180.000000596046,4|2
192,272,91812,2,0,B|268:268|292:164|228:112,1,180.000000596046
304,64,92469,2,0,B|396:64,1,90.000000298023,2|0
408,152,92907,5,4
384,276,93126,1,0
256,336,93345,1,0
128,276,93564,1,0
104,152,93783,1,0
256,56,94221,6,0,B|264:128|216:180,1,135.000000447034
260,196,94659,2,0,B|260:244|292:284,1,90.000000298023,4|0
480,224,95097,2,0,B|480:176|448:136,1,90.000000298023,2|0
384,76,95535,1,0
296,52,95754,1,0
296,52,95864,1,0
296,52,95973,2,0,B|248:36|212:64,1,90.000000298023,2|0
156,136,96411,6,0,B|68:116,1,90.000000298023
224,292,96849,2,0,B|312:312,1,90.000000298023,2|0
400,284,97287,5,0
396,124,97506,1,0
244,68,97725,1,2
116,164,97944,1,0
148,324,98163,6,0,B|248:316|272:208,1,180.000000596046,0|2
276,120,98820,1,0
204,64,99039,2,0,B|116:44,1,90.000000298023
372,100,99477,2,0,B|460:120,1,90.000000298023,2|0
452,208,99915,5,0
400,304,100134,1,0
276,332,100353,1,2
140,284,100572,1,0
100,128,100791,1,0
276,84,101229,6,0,B|344:116|408:80,1,135.000000447034
424,120,101667,2,0,B|384:152|392:200,1,90.000000298023,4|0
312,288,102104,1,2
116,216,102323,1,0
276,84,102542,1,0
240,320,102761,1,0
240,320,102871,1,0
240,320,102980,2,0,B|224:274|256:236,1,90.000000298023,2|0
336,200,103418,5,0
172,260,103637,2,0,B|140:292,2,45.0000001490115,0|0|2
192,88,104075,2,0,B|160:52,2,45.0000001490115,0|0|0
336,200,104513,1,0
304,96,104732,6,0,B|244:28,2,90.000000298023,2|0|0
384,256,105608,2,0,B|456:316,2,90.000000298023,2|0|0
360,168,106265,1,0
272,140,106484,1,2
196,188,106703,1,0
180,276,106922,6,0,B|92:288,1,90.000000298023,4|0
196,188,107360,2,0,B|120:140,1,90.000000298023,2|0
272,140,107798,2,0,B|264:48,1,90.000000298023
360,168,108236,2,0,B|416:92,1,90.000000298023,2|0
384,256,108674,6,0,B|472:248,1,90.000000298023,4|0
452,160,109112,1,2
396,88,109331,1,0
312,56,109550,1,0
224,48,109769,1,0
140,76,109988,1,2
76,140,110207,1,0
48,224,110426,6,0,B|136:248,1,90.000000298023,4|0
136,340,110864,2,0,B|224:304,1,90.000000298023,2|0
219,305,111192,1,0
219,305,111302,1,0
256,228,111521,5,0
260,200,111630,1,0
268,172,111740,1,2
280,148,111849,1,0
296,128,111958,1,0
320,112,112068,1,0
344,104,112177,2,0,B|436:100,1,90.000000298023,4|0
256,228,112615,2,0,B|164:232,1,90.000000298023,2|0
166,231,112944,1,0
166,231,113053,1,0
148,132,113272,5,0
256,36,113491,1,2
364,132,113710,1,0
256,228,113929,2,0,B|256:324,2,90.000000298023,0|0|2
364,132,114586,1,0
256,36,114805,1,0
256,36,114915,1,0
256,36,115024,1,0
148,132,115243,5,2
148,132,115353,1,0
148,132,115462,1,0
148,132,115572,1,0
148,132,115681,2,0,B|60:148,1,90.000000298023,4|0
256,232,116119,2,0,B|344:216,1,90.000000298023
344,215,116448,1,0
344,215,116557,1,2
416,160,116776,5,0
316,308,116995,1,2
240,144,117214,1,0
156,304,117433,2,0,B|196:352|268:356|316:308,1,180.000000596046,4|2
240,144,118090,2,0,B|280:96|352:92|400:140,1,180.000000596046,4|2
472,276,118747,5,2
452,288,118856,1,0
432,300,118966,1,0
412,312,119075,1,0
392,324,119185,2,0,B|304:360|220:304,1,180.000000596046,4|10
256,220,119842,1,0
204,128,120061,1,0
308,128,120280,1,0
308,128,120389,1,0
308,128,120499,1,10
256,220,120718,1,0
184,48,120937,5,4
384,136,121156,1,0
128,136,121375,1,10
328,48,121594,1,0
256,256,122031,2,0,B|256:348,2,90.000000298023,0|10|0
120,192,122688,5,4
52,108,122907,1,0
208,164,123126,5,2
180,60,123345,1,0
304,164,123564,5,0
332,60,123783,1,0
392,192,124002,5,2
460,108,124221,1,0
120,192,124440,6,0,B|96:312|184:348,1,180.000000596046,4|2
392,192,125097,2,0,B|416:312|328:348,1,180.000000596046
256,300,125754,1,2
256,208,125973,5,0
256,208,126083,1,0
256,208,126192,2,0,B|220:124,1,90.000000298023,4|0
400,132,126630,2,0,B|436:216,1,90.000000298023,2|0
364,340,127068,6,0,B|328:256,1,90.000000298023
148,232,127506,2,0,B|184:316,1,90.000000298023,2|0
340,172,127944,6,0,B|256:208,1,90.000000298023
80,120,128382,2,0,B|164:84,1,90.000000298023,2|0
340,172,128820,5,2
332,260,129039,1,0
256,308,129258,1,2
256,308,129367,1,0
256,308,129477,1,0
168,292,129696,5,4
156,104,129915,1,0
344,92,130134,1,2
356,280,130353,1,0
356,280,130791,5,0
344,92,131010,1,2
156,104,131229,1,0
168,292,131448,2,0,B|80:300,1,90.000000298023,0|0
344,92,131885,2,0,B|432:84,1,90.000000298023,2|0
156,104,132323,1,0
356,280,132761,1,0
156,104,133199,5,4
52,132,133418,1,0
80,236,133637,1,2
184,208,133856,1,0
312,244,134075,5,0
312,352,134294,1,0
204,352,134513,1,2
204,244,134732,1,0
328,208,134951,5,0
432,236,135170,1,0
460,132,135389,1,2
356,104,135608,1,0
256,40,135827,5,0
256,140,136046,1,0
256,240,136265,1,2
256,340,136484,1,0
160,288,136703,6,0,B|80:248,1,90.000000298023
352,288,137141,2,0,B|432:248,1,90.000000298023,2|0
168,128,137579,1,0
344,128,137798,1,0
256,84,138017,2,0,B|256:40,2,45.0000001490115,2|0|0
256,176,138455,5,0
176,312,138674,1,0
176,312,138783,1,0
336,312,139002,1,0
336,312,139111,1,0
172,216,139331,6,0,B|112:216,2,60.000000198682
224,248,139769,1,2
284,252,139915,1,2
332,216,140061,1,2
348,156,140207,1,0
444,168,155535,6,0,B|352:168,1,90.000000298023,0|2
340,80,156411,1,0
256,44,156849,1,0
176,84,157287,1,0
156,172,157725,6,0,B|164:228|128:260,1,90.000000298023,0|2
224,248,158601,2,0,B|216:304|252:336,1,90.000000298023,0|2
336,352,159477,5,0
412,308,159915,1,2
428,220,160353,1,0
372,152,160791,1,2
284,144,161229,2,0,B|192:136,1,90.000000298023,0|2
56,248,162104,2,0,B|148:256,1,90.000000298023,0|10
256,332,162980,6,0,B|256:196,1,134.999996423721,4|8
256,60,163856,1,0
132,116,164294,1,8
128,252,164732,1,0
256,324,165170,1,8
384,252,165608,1,0
380,116,166046,1,0
256,60,166484,6,0,B|120:60,2,134.999996423721,4|2|0
392,128,167798,6,0,B|428:68,2,67.4999982118605,2|0|0
336,200,168455,1,0
376,280,168674,1,2
468,280,168893,1,0
376,280,169112,5,0
336,200,169331,1,0
256,160,169550,1,2
176,200,169769,1,0
136,280,169988,6,0,B|44:280,1,90.000000298023,4|0
336,200,170426,2,0,B|416:156,1,90.000000298023,2|0
176,200,170864,2,0,B|96:156,1,90.000000298023
376,280,171302,2,0,B|468:280,1,90.000000298023,2|0
284,48,171740,6,0,B|304:136,1,90.000000298023,4|0
256,132,172068,2,0,B|256:224,1,90.000000298023
216,196,172396,2,0,B|188:288,1,90.000000298023
288,332,172834,5,0
316,308,172944,1,0
340,280,173053,1,0
356,248,173163,1,0
368,212,173272,1,0
376,176,173382,1,0
380,140,173491,2,0,B|384:92|368:52,1,90.000000298023,4|0
208,132,173929,2,0,B|204:180|220:220,1,90.000000298023,2|0
368,216,174367,5,0
304,148,174586,1,0
304,148,174696,1,0
304,148,174805,1,2
208,132,175024,1,0
120,156,175243,6,0,B|28:156,1,90.000000298023
144,316,175681,2,0,B|236:316,1,90.000000298023,2|0
324,328,176119,1,0
324,328,176229,1,0
392,268,176448,1,0
392,268,176557,1,2
368,180,176776,1,0
256,64,176995,6,0,B|256:200,1,135.000000447034
220,172,177433,2,0,B|200:260,1,90.000000298023,2|0
136,324,177871,5,0
52,204,178090,1,0
104,72,178309,1,2
256,64,178528,1,0
324,192,178747,6,0,B|368:212|416:192,1,90.000000298023
192,72,179185,2,0,B|148:52|100:72,1,90.000000298023,2|0
52,204,179623,5,0
136,324,179842,1,0
296,296,180061,1,2
336,120,180280,1,0
428,64,180499,6,0,B|456:152,1,90.000000298023,4|0
455,149,180827,1,0
455,149,180937,1,2
440,292,181156,1,0
296,296,181375,2,0,B|268:208,1,90.000000298023
269,211,181703,1,0
269,211,181812,1,2
152,128,182031,1,0
56,208,182250,5,0
100,308,182469,1,0
100,308,182579,1,0
100,308,182688,2,0,B|184:336,1,90.000000298023,2|0
220,220,183126,2,0,B|308:204,1,90.000000298023
344,88,183564,2,0,B|424:128,1,90.000000298023,2|0
448,216,184002,6,0,B|456:280|440:344|364:352,1,180.000000596046,4|2
64,216,184878,2,0,B|56:280|72:344|148:352,1,180.000000596046,0|2
224,292,185535,1,0
256,196,185754,5,4
156,44,185973,1,0
256,196,186192,1,2
404,92,186411,1,0
256,196,186630,1,0
356,340,186849,1,0
256,196,187068,1,2
108,292,187287,1,0
256,196,187506,6,0,B|280:104,1,90.000000298023,4|0
316,136,187834,2,0,B|304:224|344:268,1,135.000000447034
456,192,188382,1,0
456,156,188491,1,0
452,120,188601,1,0
440,84,188710,1,0
424,52,188820,2,0,B|376:24|328:40,1,90.000000298023,2|0
212,56,189258,5,4
108,124,189477,1,0
108,124,189586,1,0
104,248,189805,1,0
104,248,189915,1,0
208,344,190134,5,0
244,352,190243,1,0
280,348,190353,1,0
312,332,190462,1,0
332,300,190572,1,2
340,264,190681,1,0
340,228,190791,1,0
328,196,190900,1,0
304,168,191010,6,0,B|284:124|308:80,1,90.000000298023,4|0
468,88,191448,2,0,B|488:132|464:176,1,90.000000298023,2|0
332,300,191885,1,0
160,244,192104,1,0
160,244,192214,1,0
160,244,192323,2,0,B|128:160,1,90.000000298023,2|0
212,124,192761,6,0,B|224:36,2,90.000000298023,0|0|2
160,244,193418,1,0
264,332,193637,1,0
380,264,193856,1,0
380,264,193966,1,0
380,264,194075,2,0,B|444:200,1,90.000000298023,2|0
364,48,194513,6,0,B|360:140,1,90.000000298023
216,64,194951,2,0,B|256:144,1,90.000000298023,2|0
96,144,195389,2,0,B|168:200,1,90.000000298023
36,276,195827,2,0,B|132:296,1,90.000000298023,2|0
256,320,196265,5,4
256,64,196703,1,4
256,320,197141,1,4
256,64,197579,1,0
432,104,198017,6,0,B|464:192|432:280,1,180.000000596046,4|2
224,280,198674,2,0,B|192:192|224:104,1,180.000000596046
376,228,199331,2,0,B|368:280|320:288,1,90.000000298023,2|0
136,168,199769,6,0,B|148:68|232:24,1,180.000000596046,4|2
396,140,200426,2,0,B|384:240|300:284,1,180.000000596046
212,120,201083,2,0,B|256:92|300:120,1,90.000000298023,2|0
256,184,201521,2,0,B|256:48,2,134.999996423721,4|0|0
96,196,202396,5,0
144,304,202615,1,0
256,340,202834,1,2
368,304,203053,1,0
416,196,203272,1,0
72,100,203710,5,2
64,196,203929,1,0
96,284,204148,2,0,B|116:328|168:340,1,90.000000298023
172,292,204477,2,0,B|224:336|300:320,1,135.000000447034
360,252,205024,1,4
256,192,205134,12,0,208090
256,192,208528,12,0,211812
