osu file format v12

[General]
AudioFilename: Meltdown.mp3
AudioLeadIn: 0
PreviewTime: 67900
Countdown: 0
SampleSet: Normal
StackLeniency: 0.7
Mode: 0
LetterboxInBreaks: 1
WidescreenStoryboard: 0

[Editor]
DistanceSpacing: 1.2
BeatDivisor: 4
GridSize: 4

[Metadata]
Title:Meltdown
TitleUnicode:Meltdown
Artist:Namine Ritsu
ArtistUnicode:Namine Ritsu
Creator:ertyukjh010
Version:Insane
Source:iroha
Tags:vocaloid vocaloid2 utau kuma Kagamine Rin niconicodouga nicovideo
BeatmapID:264714
BeatmapSetID:99538

[Difficulty]
HPDrainRate:7
CircleSize:4
OverallDifficulty:7
ApproachRate:8
SliderMultiplier:1.6
SliderTickRate:2

[Events]
//Background and Video events
0,0,"Meltdown.jpg",0,0
//Break Periods
2,92180,101412
2,164180,185776
2,233998,258503
//Storyboard Layer 0 (Background)
//Storyboard Layer 1 (Fail)
//Storyboard Layer 2 (Pass)
//Storyboard Layer 3 (Foreground)
//Storyboard Sound Samples
//Background Colour Transformations
3,100,163,162,255

[TimingPoints]
6890,363.636363636364,4,1,1,40,1,0
19980,-100,4,2,1,50,0,0
28708,-100,4,1,1,30,0,0
31435,-100,4,1,1,30,0,0
31617,-100,4,1,1,40,0,0
54344,-100,4,1,1,20,0,0
54890,-100,4,1,1,40,0,0
67071,-100,4,2,1,10,0,0
67980,-100,4,1,1,30,0,0
68708,363.636363636364,4,1,1,40,1,0
68708,-100,4,1,1,50,0,1
91980,-100,4,2,1,60,0,0
102162,-100,4,1,1,20,0,0
103071,-100,4,1,1,30,0,0
103617,-100,4,1,1,40,0,0
126344,-100,4,1,1,20,0,0
126889,-100,4,1,1,40,0,0
139071,-100,4,2,1,10,0,0
139980,-100,4,1,1,30,0,0
140708,363.636363636364,4,1,1,40,1,0
140708,-100,4,1,1,50,0,1
163980,-100,4,2,1,60,0,0
186526,-100,4,2,1,40,0,0
187253,-200,4,2,1,40,0,0
233798,-200,4,2,1,50,0,0
259253,-100,4,1,1,40,0,0
272162,-100,4,2,1,10,0,0
273798,363.636363636364,4,1,1,40,1,0
273798,-100,4,1,1,50,0,1
308707,-100,4,1,1,40,0,0
320343,-100,4,1,1,60,0,0

[Colours]
Combo1 : 255,255,151
Combo2 : 187,255,255
Combo3 : 255,66,66

[HitObjects]
84,128,6890,1,4,0:0:0:0:
172,88,7071,1,8,0:0:0:0:
248,148,7253,2,0,L|268:184,2,40,0|0|8,0:0|0:0|0:0,0:0:0:0:
312,76,7617,1,0,0:0:0:0:
396,120,7799,2,0,L|420:84,4,40,8|0|8|0|8,0:0|0:0|0:0|0:0|0:0,0:0:0:0:
468,184,8344,6,0,P|456:260|392:308,1,160,4|8,0:0|0:0,0:0:0:0:
216,228,9071,2,0,L|296:244,1,80
364,176,9435,2,0,L|284:160,1,80,8|0,0:0|0:0,0:0:0:0:
192,140,9799,1,0,0:0:0:0:
104,180,9980,5,0,0:0:0:0:
104,180,10071,1,0,0:0:0:0:
104,180,10162,2,0,P|100:220|112:260,1,80,8|0,0:0|0:0,0:0:0:0:
256,292,10526,2,0,P|260:248|272:212,1,80
408,160,10890,2,0,P|416:200|436:236,1,80,8|0,0:0|0:0,0:0:0:0:
512,292,11253,5,0,0:0:0:0:
336,216,11617,1,8,0:0:0:0:
472,80,11980,2,0,P|432:76|392:88,1,80
380,96,12253,1,0,0:0:0:0:
364,104,12344,2,0,P|324:108|284:96,1,80,8|0,0:0|0:0,0:0:0:0:
204,48,12708,6,0,L|120:64,2,80,0|0|8,0:0|0:0|0:0,0:0:0:0:
248,196,13253,2,0,L|328:212,2,80
132,284,13799,6,0,L|96:304,3,40,8|0|0|0,0:0|0:0|0:0|0:0,0:0:0:0:
112,276,14162,2,0,P|144:208|132:124,1,160,0|8,0:0|0:0,0:0:0:0:
56,68,14708,1,0,0:0:0:0:
40,164,14890,1,0,0:0:0:0:
224,80,15071,2,0,L|192:56,2,40,0|0|8,0:0|0:0|0:0,0:0:0:0:
316,112,15435,1,0,0:0:0:0:
444,200,15617,6,0,P|412:220|372:232,1,80
252,344,15980,2,0,P|264:308|284:272,1,80,8|0,0:0|0:0,0:0:0:0:
241,97,16344,2,0,P|264:124|283:164,1,80
312,272,16708,5,8,0:0:0:0:
284,256,16799,1,0,0:0:0:0:
252,248,16890,1,0,0:0:0:0:
220,252,16980,1,0,0:0:0:0:
188,264,17071,2,0,P|156:276|112:268,1,80
132,96,17435,2,0,L|140:176,1,80,8|0,0:0|0:0,0:0:0:0:
260,144,17799,2,0,L|268:64,1,80
388,88,18162,1,8,0:0:0:0:
432,196,18344,5,0,0:0:0:0:
432,196,18435,1,0,0:0:0:0:
432,196,18526,2,0,P|392:200|356:216,1,80
236,232,18890,2,0,P|260:200|272:160,1,80,8|0,0:0|0:0,0:0:0:0:
280,68,19253,5,0,0:0:0:0:
164,148,19435,1,0,0:0:0:0:
344,228,19617,1,8,0:0:0:0:
232,320,19799,1,0,0:0:0:0:
152,288,19980,6,0,P|180:256|192:216,1,80,4|2,2:0|0:0,0:0:0:0:
280,68,20526,2,0,P|284:108|304:144,1,80,0|2,0:0|0:0,0:0:0:0:
380,200,20890,1,2,0:0:0:0:
232,320,21253,1,2,0:0:0:0:
108,176,21617,1,2,0:0:0:0:
256,56,21980,1,2,0:0:0:0:
292,144,22162,2,0,P|288:188|300:228,1,80
172,180,22526,2,0,P|136:160|96:156,1,80,2|0,0:0|0:0,0:0:0:0:
4,180,22890,5,2,0:0:0:0:
4,180,23071,1,2,0:0:0:0:
128,328,23435,1,0,0:0:0:0:
216,288,23617,2,0,P|208:248|212:208,1,80,2|2,0:0|0:0,0:0:0:0:
316,48,24162,1,2,0:0:0:0:
492,120,24526,1,2,0:0:0:0:
452,308,24890,1,2,0:0:0:0:
360,284,25071,2,0,P|348:244|348:200,1,80
236,116,25435,2,0,P|236:160|228:196,1,80,2|0,0:0|0:0,0:0:0:0:
164,268,25799,5,2,0:0:0:0:
164,268,25980,1,2,0:0:0:0:
52,112,26344,2,0,L|128:144,2,80,0|2|2,0:0|0:0|0:0,0:0:0:0:
236,52,27071,1,2,0:0:0:0:
308,228,27435,1,2,0:0:0:0:
496,184,27799,1,2,0:0:0:0:
468,92,27980,2,0,P|428:104|400:128,1,80
304,148,28344,2,0,P|264:144|228:124,1,80,2|0,0:0|0:0,0:0:0:0:
172,48,28708,5,0,0:0:0:0:
172,48,28890,1,0,0:0:0:0:
172,48,29071,1,8,0:0:0:0:
56,200,29435,2,0,P|64:244|80:276,1,80
164,320,29799,1,8,0:0:0:0:
252,280,29980,2,0,P|252:192|284:128,1,160
356,64,30526,1,8,0:0:0:0:
448,88,30708,1,0,0:0:0:0:
484,176,30890,1,0,0:0:0:0:
200,216,31435,5,0,0:0:0:0:
268,284,31617,2,0,P|308:220|304:136,1,160,4|8,0:0|0:0,0:0:0:0:
168,52,32162,2,0,L|212:120,1,80
200,216,32526,1,0,0:0:0:0:
268,284,32708,1,8,0:0:0:0:
360,256,32890,1,0,0:0:0:0:
456,248,33071,6,0,P|456:288|448:328,1,80
296,208,33435,2,0,P|300:168|296:128,1,80,8|0,0:0|0:0,0:0:0:0:
112,64,33799,1,0,0:0:0:0:
56,140,33980,1,0,0:0:0:0:
120,212,34162,2,0,L|200:192,1,80,8|0,0:0|0:0,0:0:0:0:
418,224,34526,6,0,L|264:264,1,160,0|8,0:0|0:0,0:0:0:0:
188,324,35071,1,0,0:0:0:0:
92,312,35253,2,0,P|56:244|68:164,1,160,0|8,0:0|0:0,0:0:0:0:
216,44,35799,6,0,P|228:124|192:192,1,160
96,208,36344,1,8,0:0:0:0:
156,284,36526,1,0,0:0:0:0:
252,292,36708,1,0,0:0:0:0:
332,240,36890,1,0,0:0:0:0:
352,148,37071,2,0,P|352:108|340:68,1,80,8|0,0:0|0:0,0:0:0:0:
456,180,37435,6,0,P|440:256|480:328,1,160,0|8,0:0|0:0,0:0:0:0:
332,240,37980,1,0,0:0:0:0:
240,200,38162,2,0,L|160:200,1,80
228,100,38526,2,0,L|308:100,1,80,8|0,0:0|0:0,0:0:0:0:
437,127,38890,5,0,0:0:0:0:
343,300,39071,1,0,0:0:0:0:
260,140,39253,1,8,0:0:0:0:
208,264,39435,1,0,0:0:0:0:
140,180,39617,1,0,0:0:0:0:
208,264,39799,1,0,0:0:0:0:
304,260,39980,1,8,0:0:0:0:
352,176,40162,1,0,0:0:0:0:
284,28,40344,6,0,P|244:88|252:176,1,160,0|8,0:0|0:0,0:0:0:0:
324,236,40890,1,0,0:0:0:0:
400,176,41071,2,0,L|376:100,2,80,0|0|8,0:0|0:0|0:0,0:0:0:0:
392,268,41617,2,0,P|312:264|264:200,1,160
356,180,42162,6,0,L|336:216,3,40,8|0|0|0,0:0|0:0|0:0|0:0,0:0:0:0:
316,240,42526,2,0,L|312:284,3,40,0|0|0|0,0:0|0:0|0:0|0:0,0:0:0:0:
296,308,42890,1,8,0:0:0:0:
204,276,43071,1,0,0:0:0:0:
132,340,43253,2,0,P|108:260|148:196,1,160,4|8,0:0|0:0,0:0:0:0:
236,172,43799,1,0,0:0:0:0:
184,92,43980,6,0,L|256:56,2,80,0|0|8,0:0|0:0|0:0,0:0:0:0:
124,168,44526,2,0,B|180:232|156:316|92:340|16:308|8:208|92:168|152:204|188:284,1,400
276,320,45617,5,0,0:0:0:0:
368,288,45799,1,8,0:0:0:0:
284,240,45980,1,0,0:0:0:0:
376,208,46162,2,0,L|396:48,2,160,0|8|0,0:0|0:0|0:0,0:0:0:0:
468,184,47071,5,0,0:0:0:0:
408,108,47253,1,8,0:0:0:0:
312,108,47435,1,0,0:0:0:0:
252,180,47617,2,0,P|256:260|296:328,1,160,0|8,0:0|0:0,0:0:0:0:
156,296,48162,2,0,P|116:288|80:300,1,80
108,184,48526,2,0,P|144:156|156:124,1,80,0|8,0:0|0:0,0:0:0:0:
116,36,48890,1,0,0:0:0:0:
92,196,49071,6,0,L|252:168,2,160,4|8|0,0:0|0:0|0:0,0:0:0:0:
40,296,49980,1,0,0:0:0:0:
120,348,50162,1,8,0:0:0:0:
204,300,50344,1,0,0:0:0:0:
200,204,50526,2,0,P|232:144|308:96,1,160,0|8,0:0|0:0,0:0:0:0:
364,184,51071,2,0,P|376:256|444:308,1,160
472,204,51617,1,8,0:0:0:0:
472,204,51799,1,0,0:0:0:0:
256,68,51980,5,4,0:0:0:0:
256,316,52344,1,8,0:0:0:0:
256,68,52708,1,0,0:0:0:0:
184,132,52890,2,0,L|236:196,2,80,0|8|0,0:0|0:0|0:0,0:0:0:0:
332,208,53435,2,0,P|292:272|212:284,1,160,0|8,0:0|0:0,0:0:0:0:
140,224,53980,1,0,0:0:0:0:
68,288,54162,1,0,0:0:0:0:
216,328,54344,5,0,0:0:0:0:
232,324,54435,1,0,0:0:0:0:
248,320,54526,1,0,0:0:0:0:
264,316,54617,1,0,0:0:0:0:
280,312,54708,1,0,0:0:0:0:
296,308,54799,1,0,0:0:0:0:
312,304,54890,2,0,P|352:244|332:164,1,160,4|8,0:0|0:0,0:0:0:0:
205,163,55435,2,0,P|225:198|256:224,1,80
348,248,55799,1,0,0:0:0:0:
436,208,55980,1,8,0:0:0:0:
452,112,56162,1,0,0:0:0:0:
352,44,56344,6,0,L|272:44,1,80
316,152,56708,1,8,0:0:0:0:
400,280,56890,1,0,0:0:0:0:
284,344,57071,2,0,P|236:296|244:208,1,160,0|8,0:0|0:0,0:0:0:0:
316,152,57617,1,0,0:0:0:0:
324,260,57799,6,0,L|168:300,2,160,0|8|0,0:0|0:0|0:0,0:0:0:0:
428,232,58708,1,0,0:0:0:0:
316,152,58890,1,8,0:0:0:0:
436,52,59071,1,0,0:0:0:0:
480,184,59253,6,0,P|488:224|492:268,1,80
320,340,59617,2,0,P|334:302|338:263,1,80,8|0,0:0|0:0,0:0:0:0:
288,96,59980,1,0,0:0:0:0:
216,232,60162,1,0,0:0:0:0:
168,112,60344,1,8,0:0:0:0:
76,160,60526,1,0,0:0:0:0:
96,64,60708,6,0,L|252:28,2,160,0|8|0,0:0|0:0|0:0,0:0:0:0:
76,160,61617,1,0,0:0:0:0:
140,232,61799,1,8,0:0:0:0:
236,244,61980,1,0,0:0:0:0:
312,184,62162,2,0,L|312:104,1,80
416,148,62526,2,0,L|416:228,1,80,8|0,0:0|0:0,0:0:0:0:
328,320,62890,5,0,0:0:0:0:
236,296,63071,1,0,0:0:0:0:
236,296,63162,1,0,0:0:0:0:
236,296,63253,1,8,0:0:0:0:
192,212,63435,1,0,0:0:0:0:
224,120,63617,2,0,L|384:120,2,160,0|8|0,0:0|0:0|0:0,0:0:0:0:
164,64,64526,2,0,L|92:104,1,80,0|8,0:0|0:0,0:0:0:0:
0,76,64890,1,4,2:0:0:0:
256,192,64980,12,0,67071,0:0:0:0:
148,232,67980,5,4,0:0:0:0:
228,180,68162,1,8,0:0:0:0:
228,180,68253,1,0,0:0:0:0:
228,180,68344,1,0,0:0:0:0:
308,124,68526,1,8,0:0:0:0:
388,72,68708,6,0,P|396:152|344:208,1,160,4|8,0:0|0:0,0:0:0:0:
224,216,69253,1,0,0:0:0:0:
124,144,69435,2,0,P|60:184|56:264,1,160,0|8,0:0|0:0,0:0:0:0:
148,340,69980,1,0,0:0:0:0:
392,276,70162,6,0,B|316:216|316:216|252:232,1,160,0|8,0:0|0:0,0:0:0:0:
80,96,70708,2,0,B|156:156|156:156|220:140,1,160
344,88,71253,1,8,0:0:0:0:
400,212,71435,1,0,0:0:0:0:
312,316,71617,6,0,P|272:296|248:272,1,80,4|0,0:0|0:0,0:0:0:0:
200,68,71980,2,0,P|240:88|264:112,1,80,8|0,0:0|0:0,0:0:0:0:
308,224,72344,1,0,0:0:0:0:
192,156,72526,1,0,0:0:0:0:
132,280,72708,1,8,0:0:0:0:
68,136,72889,1,0,0:0:0:0:
212,316,73071,6,0,P|252:264|248:172,1,160,4|8,0:0|0:0,0:0:0:0:
155,37,73617,2,0,P|160:80|176:116,1,80
264,196,73980,1,0,0:0:0:0:
384,196,74162,1,8,0:0:0:0:
460,104,74344,1,0,0:0:0:0:
316,36,74526,5,4,0:0:0:0:
232,120,74708,1,0,0:0:0:0:
232,120,74798,1,0,0:0:0:0:
232,120,74889,2,0,P|254:151|288:176,1,80,8|0,0:0|0:0,0:0:0:0:
396,208,75253,1,0,0:0:0:0:
352,328,75435,1,0,0:0:0:0:
200,352,75617,1,8,0:0:0:0:
96,200,75798,1,0,0:0:0:0:
244,16,75980,6,0,P|244:80|180:148,1,160,0|8,0:0|0:0,0:0:0:0:
268,368,76526,2,0,P|268:304|332:236,1,160
448,204,77071,5,8,0:0:0:0:
456,300,77253,1,0,0:0:0:0:
364,332,77435,2,0,P|308:288|296:200,1,160,4|8,0:0|0:0,0:0:0:0:
348,124,77980,1,0,0:0:0:0:
320,32,78162,5,0,0:0:0:0:
200,52,78344,1,0,0:0:0:0:
200,52,78435,1,0,0:0:0:0:
200,52,78526,1,8,0:0:0:0:
144,156,78708,1,0,0:0:0:0:
168,272,78889,2,0,L|248:272,1,80,4|0,0:0|0:0,0:0:0:0:
344,112,79253,2,0,L|264:112,1,80,8|0,0:0|0:0,0:0:0:0:
136,68,79617,5,0,0:0:0:0:
376,316,79798,1,0,0:0:0:0:
144,248,79980,1,8,0:0:0:0:
368,136,80162,1,0,0:0:0:0:
280,332,80344,6,0,P|240:272|256:188,1,160,4|8,0:0|0:0,0:0:0:0:
344,112,80889,2,0,L|424:112,1,80
480,220,81253,2,0,L|400:220,1,80,0|8,0:0|0:0,0:0:0:0:
308,296,81617,1,0,0:0:0:0:
440,320,81798,6,0,B|380:268|380:268|364:188,1,160,0|8,0:0|0:0,0:0:0:0:
168,108,82344,2,0,B|228:160|228:160|244:240,1,160
180,340,82889,1,8,0:0:0:0:
64,304,83071,1,0,0:0:0:0:
44,184,83253,6,0,P|80:168|124:172,1,80,4|0,0:0|0:0,0:0:0:0:
312,248,83617,2,0,P|276:264|232:260,1,80,8|0,0:0|0:0,0:0:0:0:
204,184,83980,1,0,0:0:0:0:
296,116,84162,1,0,0:0:0:0:
172,80,84344,1,8,0:0:0:0:
344,220,84526,1,0,0:0:0:0:
192,212,84708,6,0,P|168:284|212:352,1,160,4|8,0:0|0:0,0:0:0:0:
340,296,85253,2,0,L|260:276,1,80
80,228,85617,1,0,0:0:0:0:
60,112,85798,1,8,0:0:0:0:
144,28,85980,1,0,0:0:0:0:
264,44,86162,5,4,0:0:0:0:
252,164,86344,1,0,0:0:0:0:
252,164,86435,1,0,0:0:0:0:
252,164,86526,2,0,L|184:212,1,80,8|0,0:0|0:0,0:0:0:0:
208,304,86889,1,0,0:0:0:0:
368,296,87071,1,0,0:0:0:0:
408,116,87253,1,8,0:0:0:0:
232,8,87435,1,0,0:0:0:0:
60,176,87617,6,0,P|132:176|184:108,1,160,0|8,0:0|0:0,0:0:0:0:
452,208,88162,2,0,P|380:208|328:276,1,160
420,296,88708,5,8,0:0:0:0:
328,152,88889,1,0,0:0:0:0:
208,276,89071,2,0,P|284:292|344:240,1,160,4|8,0:0|0:0,0:0:0:0:
344,120,89617,1,0,0:0:0:0:
196,40,89798,2,0,P|200:80|224:112,1,80
240,128,90071,1,0,0:0:0:0:
248,152,90162,2,0,P|248:196|232:232,1,80,8|0,0:0|0:0,0:0:0:0:
140,304,90526,5,4,0:0:0:0:
80,108,90708,1,0,0:0:0:0:
276,48,90889,1,8,0:0:0:0:
336,244,91071,1,0,0:0:0:0:
208,176,91253,1,0,0:0:0:0:
392,96,91435,1,0,0:0:0:0:
504,264,91617,1,8,0:0:0:0:
336,244,91980,5,4,0:0:0:0:
232,52,102162,5,0,0:0:0:0:
180,132,102344,1,0,0:0:0:0:
128,212,102526,1,0,0:0:0:0:
76,292,102708,1,0,0:0:0:0:
76,292,103071,6,0,L|116:308,1,40,0|0,0:0|0:0,0:0:0:0:
160,296,103253,1,8,0:0:0:0:
268,252,103435,1,0,0:0:0:0:
360,340,103617,6,0,P|344:264|388:196,1,160,4|8,0:0|0:0,0:0:0:0:
480,196,104162,1,0,0:0:0:0:
436,280,104344,2,0,L|284:228,1,160,0|8,0:0|0:0,0:0:0:0:
192,248,104889,1,0,0:0:0:0:
96,264,105071,6,0,L|44:204,1,80
128,84,105435,2,0,L|156:160,1,80,8|0,0:0|0:0,0:0:0:0:
264,120,105798,2,0,L|280:40,2,80,0|0|8,0:0|0:0|0:0,0:0:0:0:
288,236,106344,1,0,0:0:0:0:
388,296,106526,2,0,P|440:232|432:160,1,160,0|8,0:0|0:0,0:0:0:0:
352,108,107071,1,0,0:0:0:0:
288,180,107253,6,0,L|320:256,2,80,0|0|8,0:0|0:0|0:0,0:0:0:0:
204,52,107798,2,0,P|192:124|120:160,1,160
32,120,108344,1,8,0:0:0:0:
116,68,108526,1,0,0:0:0:0:
208,92,108708,1,0,0:0:0:0:
264,168,108889,1,0,0:0:0:0:
248,264,109071,1,8,0:0:0:0:
52,260,109253,5,0,0:0:0:0:
112,188,109435,2,0,P|180:164|260:196,1,160,0|8,0:0|0:0,0:0:0:0:
384,312,109980,1,0,0:0:0:0:
324,252,110162,2,0,P|308:180|352:108,1,160,0|8,0:0|0:0,0:0:0:0:
440,72,110708,1,0,0:0:0:0:
480,192,110889,6,0,L|400:192,1,80
320,280,111253,2,0,L|400:280,1,80,8|0,0:0|0:0,0:0:0:0:
500,168,111617,1,0,0:0:0:0:
336,256,111798,1,0,0:0:0:0:
388,176,111980,1,8,0:0:0:0:
440,256,112162,1,0,0:0:0:0:
388,332,112344,6,0,P|304:344|252:292,1,160,0|8,0:0|0:0,0:0:0:0:
236,200,112889,1,0,0:0:0:0:
292,116,113071,2,0,L|368:140,2,80,0|0|8,0:0|0:0|0:0,0:0:0:0:
212,60,113617,2,0,P|128:72|80:128,1,160
100,220,114162,6,0,L|136:236,3,40,8|0|0|0,0:0|0:0|0:0|0:0,0:0:0:0:
168,236,114526,2,0,L|204:220,3,40
236,224,114889,1,8,0:0:0:0:
324,276,115071,1,0,0:0:0:0:
408,228,115253,2,0,P|400:148|344:96,1,160,4|8,0:0|0:0,0:0:0:0:
252,128,115798,1,0,0:0:0:0:
236,224,115980,5,0,0:0:0:0:
324,276,116162,1,0,0:0:0:0:
408,228,116344,1,8,0:0:0:0:
396,132,116526,2,0,P|232:48|104:188,1,400
160,264,117617,5,0,0:0:0:0:
220,188,117798,1,8,0:0:0:0:
252,280,117980,1,0,0:0:0:0:
308,200,118162,2,0,L|464:244,2,160,0|8|0,0:0|0:0|0:0,0:0:0:0:
216,224,119071,5,0,0:0:0:0:
240,132,119253,1,8,0:0:0:0:
332,108,119435,1,0,0:0:0:0:
408,164,119617,2,0,P|408:236|348:296,1,160,0|8,0:0|0:0,0:0:0:0:
224,272,120162,2,0,L|184:200,1,80
327,94,120526,2,0,L|308:172,1,80,0|8,0:0|0:0,0:0:0:0:
208,60,120889,1,0,0:0:0:0:
328,200,121071,6,0,P|400:176|472:212,2,160,0|8|0,0:0|0:0|0:0,0:0:0:0:
300,292,121980,1,0,0:0:0:0:
376,348,122162,1,8,0:0:0:0:
460,304,122344,1,0,0:0:0:0:
484,156,122526,6,0,P|404:160|348:212,1,160,0|8,0:0|0:0,0:0:0:0:
284,284,123071,2,0,P|204:280|148:228,1,160
132,132,123617,1,8,0:0:0:0:
204,72,123798,1,0,0:0:0:0:
296,96,123980,5,4,0:0:0:0:
96,316,124344,1,8,0:0:0:0:
332,184,124708,1,0,0:0:0:0:
228,168,124889,2,0,L|176:108,2,80,0|8|0,0:0|0:0|0:0,0:0:0:0:
264,260,125435,6,0,P|248:300|224:332,1,80
52,260,125798,2,0,P|92:248|124:228,1,80,8|0,0:0|0:0,0:0:0:0:
132,132,126162,1,0,0:0:0:0:
264,56,126344,5,0,0:0:0:0:
280,52,126435,1,0,0:0:0:0:
296,48,126526,1,8,0:0:0:0:
312,44,126617,1,0,0:0:0:0:
328,40,126708,1,0,0:0:0:0:
344,36,126798,1,0,0:0:0:0:
360,32,126889,2,0,P|368:112|320:176,1,160,4|8,0:0|0:0,0:0:0:0:
228,156,127435,1,0,0:0:0:0:
140,88,127617,6,0,L|84:144,1,80
137,328,127980,2,0,L|160:252,1,80,8|0,0:0|0:0,0:0:0:0:
276,128,128344,2,0,P|284:208|344:252,1,160,0|8,0:0|0:0,0:0:0:0:
440,232,128889,1,0,0:0:0:0:
384,76,129071,2,0,L|372:156,1,80
300,320,129435,1,8,0:0:0:0:
264,232,129617,1,0,0:0:0:0:
228,144,129798,6,0,L|68:144,2,160,0|8|0,0:0|0:0|0:0,0:0:0:0:
320,168,130708,1,0,0:0:0:0:
408,248,130889,1,8,0:0:0:0:
496,164,131071,1,0,0:0:0:0:
384,44,131253,6,0,P|380:88|392:124,1,80
300,264,131617,2,0,P|304:220|292:184,1,80,8|0,0:0|0:0,0:0:0:0:
200,164,131980,1,0,0:0:0:0:
344,60,132162,1,0,0:0:0:0:
236,64,132344,1,8,0:0:0:0:
392,164,132526,1,0,0:0:0:0:
292,124,132708,6,0,P|224:96|196:20,1,160,0|8,0:0|0:0,0:0:0:0:
292,28,133253,1,0,0:0:0:0:
412,184,133435,1,0,0:0:0:0:
348,256,133617,1,0,0:0:0:0:
252,244,133798,1,8,0:0:0:0:
208,160,133980,2,0,P|132:144|72:192,1,160
140,312,134526,2,0,L|152:232,1,80,8|0,0:0|0:0,0:0:0:0:
172,92,134889,5,0,0:0:0:0:
260,128,135071,1,0,0:0:0:0:
260,128,135162,1,0,0:0:0:0:
260,128,135253,1,8,0:0:0:0:
348,164,135435,1,0,0:0:0:0:
292,252,135617,6,0,P|368:268|432:220,2,160,0|8|0,0:0|0:0|0:0,0:0:0:0:
260,160,136526,2,0,L|308:96,1,80,0|8,0:0|0:0,0:0:0:0:
400,68,136889,1,4,2:0:0:0:
256,192,136980,12,0,139071,0:0:0:0:
368,188,139980,5,4,0:0:0:0:
284,232,140162,1,8,0:0:0:0:
284,232,140253,1,0,0:0:0:0:
284,232,140344,1,0,0:0:0:0:
200,276,140526,1,8,0:0:0:0:
148,356,140708,6,0,P|108:288|128:212,1,160,4|8,0:0|0:0,0:0:0:0:
240,176,141253,1,0,0:0:0:0:
288,68,141435,2,0,P|224:20|148:28,1,160,0|8,0:0|0:0,0:0:0:0:
48,92,141980,1,0,0:0:0:0:
124,244,142162,6,0,B|184:196|184:196|196:112,1,160,0|8,0:0|0:0,0:0:0:0:
400,44,142708,2,0,B|340:92|340:92|328:176,1,160
364,288,143253,1,8,0:0:0:0:
484,284,143435,1,0,0:0:0:0:
483,136,143617,6,0,P|445:148|417:176,1,80,4|0,0:0|0:0,0:0:0:0:
249,237,143980,2,0,P|287:225|315:197,1,80,8|0,0:0|0:0,0:0:0:0:
352,116,144344,1,0,0:0:0:0:
420,224,144526,1,0,0:0:0:0:
288,164,144708,1,8,0:0:0:0:
500,212,144889,1,0,0:0:0:0:
348,356,145071,6,0,P|276:332|248:256,1,160,4|8,0:0|0:0,0:0:0:0:
368,188,145617,2,0,L|340:264,1,80
252,344,145980,1,0,0:0:0:0:
180,248,146162,1,8,0:0:0:0:
60,252,146344,1,0,0:0:0:0:
132,348,146526,5,4,0:0:0:0:
236,168,146708,1,0,0:0:0:0:
236,168,146798,1,0,0:0:0:0:
236,168,146889,1,8,0:0:0:0:
376,260,147071,1,0,0:0:0:0:
468,128,147253,2,0,P|464:88|456:48,1,80
344,228,147617,2,0,P|332:268|312:308,1,80,8|0,0:0|0:0,0:0:0:0:
152,140,147980,6,0,P|76:120|16:168,1,160,0|8,0:0|0:0,0:0:0:0:
360,244,148526,2,0,P|436:264|496:216,1,160
452,40,149071,5,8,0:0:0:0:
360,68,149253,1,0,0:0:0:0:
324,156,149435,2,0,P|340:232|416:264,1,160,4|8,0:0|0:0,0:0:0:0:
420,168,149980,1,0,0:0:0:0:
300,316,150162,1,0,0:0:0:0:
188,268,150344,1,0,0:0:0:0:
188,268,150435,1,0,0:0:0:0:
188,268,150526,1,8,0:0:0:0:
176,148,150708,1,0,0:0:0:0:
252,56,150889,6,0,L|332:72,1,80,4|0,0:0|0:0,0:0:0:0:
248,216,151253,2,0,L|172:252,1,80,8|0,0:0|0:0,0:0:0:0:
360,296,151617,1,0,0:0:0:0:
200,88,151798,1,0,0:0:0:0:
392,184,151980,1,8,0:0:0:0:
168,192,152162,1,0,0:0:0:0:
508,72,152344,6,0,P|512:148|460:212,1,160,4|8,0:0|0:0,0:0:0:0:
344,192,152889,1,0,0:0:0:0:
272,80,153071,2,0,L|192:60,1,80
88,188,153435,2,0,L|168:176,1,80,8|0,0:0|0:0,0:0:0:0:
324,211,153798,6,0,B|297:126|297:126|320:59,1,160,0|8,0:0|0:0,0:0:0:0:
189,208,154344,2,0,B|216:293|216:293|193:360,1,160
34,337,154889,1,8,0:0:0:0:
96,234,155071,1,0,0:0:0:0:
204,182,155253,6,0,P|201:138|186:106,1,80,4|0,0:0|0:0,0:0:0:0:
28,28,155617,2,0,P|31:72|46:104,1,80,8|0,0:0|0:0,0:0:0:0:
120,168,155980,1,0,0:0:0:0:
216,80,156162,1,0,0:0:0:0:
276,204,156344,1,8,0:0:0:0:
372,56,156526,1,0,0:0:0:0:
416,220,156708,6,0,P|340:200|312:128,1,160,4|8,0:0|0:0,0:0:0:0:
232,40,157253,2,0,L|156:68,1,80
108,180,157617,1,0,0:0:0:0:
212,240,157798,1,8,0:0:0:0:
316,184,157980,1,0,0:0:0:0:
212,120,158162,5,4,0:0:0:0:
120,308,158344,1,0,0:0:0:0:
120,308,158435,1,0,0:0:0:0:
120,308,158526,1,8,0:0:0:0:
292,280,158708,1,0,0:0:0:0:
344,148,158889,2,0,P|336:108|316:72,1,80
116,160,159253,1,8,0:0:0:0:
308,336,159435,1,0,0:0:0:0:
472,80,159617,6,0,P|396:60|332:104,1,160,0|8,0:0|0:0,0:0:0:0:
40,304,160162,2,0,P|116:324|180:280,1,160
220,168,160708,5,8,0:0:0:0:
100,232,160889,1,0,0:0:0:0:
252,312,161071,2,0,P|316:268|392:288,1,160,4|8,0:0|0:0,0:0:0:0:
476,372,161617,1,0,0:0:0:0:
336,360,161798,1,0,0:0:0:0:
360,184,161980,1,0,0:0:0:0:
360,184,162071,1,0,0:0:0:0:
360,184,162162,2,0,P|324:168|284:168,1,80,8|0,0:0|0:0,0:0:0:0:
164,172,162526,5,4,0:0:0:0:
260,332,162708,1,0,0:0:0:0:
420,236,162889,1,8,0:0:0:0:
324,76,163071,1,0,0:0:0:0:
132,76,163253,1,0,0:0:0:0:
268,248,163435,1,0,0:0:0:0:
480,192,163617,1,8,0:0:0:0:
324,76,163980,5,4,0:0:0:0:
119,93,186526,5,0,0:0:0:0:
295,167,187253,6,0,P|285:209|257:235,1,80,4|0,0:0|0:0,0:0:0:0:
183,259,187980,2,0,P|204:292|245:310,1,80,2|0,0:0|0:0,0:0:0:0:
318,292,188526,1,0,0:0:0:0:
385,147,188889,5,0,0:0:0:0:
311,114,189071,2,0,L|286:144,1,40,0|0,0:0|0:0,0:0:0:0:
212,110,189435,2,0,L|200:153,1,40,2|0,0:0|0:0,0:0:0:0:
121,143,189798,2,0,L|120:189,1,40,0|0,0:0|0:0,0:0:0:0:
92,258,190162,2,0,P|143:292|192:269,1,120,0|0,0:0|0:0,0:0:0:0:
239,205,190889,2,0,P|281:200|313:217,1,80,2|0,0:0|0:0,0:0:0:0:
353,286,191435,1,0,0:0:0:0:
454,157,191617,5,0,0:0:0:0:
353,286,191980,1,0,0:0:0:0:
282,165,192344,1,2,0:0:0:0:
213,253,192708,1,0,0:0:0:0:
284,334,193071,6,0,P|312:286|302:224,1,120,0|0,0:0|0:0,0:0:0:0:
332,150,193798,2,0,P|365:178|404:182,1,80,2|0,0:0|0:0,0:0:0:0:
463,132,194344,1,0,0:0:0:0:
323,53,194708,2,0,L|286:66,1,40,0|0,0:0|0:0,0:0:0:0:
217,159,195253,2,0,L|173:146,2,40,2|0|0,0:0|0:0|0:0,0:0:0:0:
306,243,195980,2,0,L|344:219,2,40
200,301,196708,1,2,0:0:0:0:
123,203,197071,6,0,L|165:202,1,40
171,121,197435,2,0,L|210:138,1,40
253,71,197798,2,0,L|308:129,1,80,0|2,0:0|0:0,0:0:0:0:
348,249,198526,1,0,0:0:0:0:
433,113,198889,6,0,P|376:87|320:93,1,120,4|0,0:0|0:0,0:0:0:0:
293,168,199617,2,0,L|293:249,1,80,2|0,0:0|0:0,0:0:0:0:
241,309,200162,1,0,0:0:0:0:
99,233,200526,5,0,0:0:0:0:
146,168,200708,2,0,P|189:176|220:193,1,80,0|2,0:0|0:0,0:0:0:0:
330,283,201435,2,0,P|373:270|401:244,1,80
437,176,201980,1,0,0:0:0:0:
416,98,202162,1,0,0:0:0:0:
256,79,202526,6,0,P|270:117|304:137,1,80,2|0,0:0|0:0,0:0:0:0:
382,142,203071,1,0,0:0:0:0:
440,196,203253,2,0,P|431:240|408:274,1,80
306,334,203980,2,0,P|293:289|274:263,1,80,2|0,0:0|0:0,0:0:0:0:
195,245,204526,1,0,0:0:0:0:
117,263,204708,2,0,L|180:160,1,120
222,92,205435,1,2,0:0:0:0:
380,112,205798,5,0,0:0:0:0:
309,150,205980,2,0,L|265:159,1,40
357,214,206344,2,0,L|392:232,1,40
435,300,206708,1,0,0:0:0:0:
369,345,206889,2,0,P|313:320|294:266,1,120,2|0,0:0|0:0,0:0:0:0:
240,207,207617,6,0,L|202:226,1,40,0|0,0:0|0:0,0:0:0:0:
68,139,208162,2,0,L|108:151,1,40,0|2,0:0|0:0,0:0:0:0:
177,113,208526,1,0,0:0:0:0:
253,88,208708,2,0,L|276:124,1,40
350,95,209071,2,0,L|357:138,1,40
430,166,209435,1,0,0:0:0:0:
433,325,209798,6,0,P|376:297|352:248,1,120,2|0,0:0|0:0,0:0:0:0:
369,169,210526,1,4,0:0:0:0:
141,94,211071,1,0,0:0:0:0:
135,173,211253,2,0,P|175:169|206:145,1,80,2|0,0:0|0:0,0:0:0:0:
220,66,211798,2,0,L|299:80,1,80
348,142,212344,1,0,0:0:0:0:
312,298,212708,1,2,0:0:0:0:
152,303,213071,1,0,0:0:0:0:
197,149,213435,6,0,L|197:110,2,40
307,265,214162,2,0,L|265:265,2,40,2|0|0,0:0|0:0|0:0,0:0:0:0:
425,156,214889,2,0,L|448:120,2,40
359,203,215435,1,0,0:0:0:0:
280,220,215617,2,0,P|273:197|271:175,1,40,2|0,0:0|0:0,0:0:0:0:
211,128,215980,2,0,P|197:149|181:162,1,40
46,110,216344,5,4,0:0:0:0:
185,158,216708,1,0,0:0:0:0:
65,211,217071,1,2,0:0:0:0:
150,257,217435,2,0,P|112:208|110:151,1,120
150,83,218162,2,0,L|228:65,1,80,0|2,0:0|0:0,0:0:0:0:
354,113,218889,1,0,0:0:0:0:
309,266,219253,6,0,P|345:307|408:317,1,120,0|0,0:0|0:0,0:0:0:0:
392,230,219980,2,0,L|419:154,1,80,2|0,0:0|0:0,0:0:0:0:
445,78,220526,1,0,0:0:0:0:
487,231,220889,5,0,0:0:0:0:
411,203,221071,1,0,0:0:0:0:
289,98,221435,5,2,0:0:0:0:
222,143,221617,1,0,0:0:0:0:
154,185,221798,1,0,0:0:0:0:
85,226,221980,1,0,0:0:0:0:
20,273,222162,2,0,P|76:258|132:282,1,120,4|0,0:0|0:0,0:0:0:0:
158,356,222889,1,2,0:0:0:0:
251,254,223253,1,0,0:0:0:0:
383,307,223617,6,0,L|394:228,1,80,0|0,0:0|0:0,0:0:0:0:
372,150,224162,1,0,0:0:0:0:
294,169,224344,2,0,P|254:168|223:142,1,80,2|0,0:0|0:0,0:0:0:0:
183,28,225071,1,0,0:0:0:0:
80,140,225435,6,0,L|157:113,1,80,0|2,0:0|0:0,0:0:0:0:
208,228,226162,1,0,0:0:0:0:
208,228,226344,2,0,L|288:216,1,80
297,297,226889,2,0,L|377:313,1,80,0|2,0:0|0:0,0:0:0:0:
442,267,227435,1,0,0:0:0:0:
438,187,227617,1,0,0:0:0:0:
376,136,227798,1,0,0:0:0:0:
296,139,227980,2,0,P|278:177|278:218,1,80
193,322,228708,2,0,P|186:277|165:248,1,80,2|0,0:0|0:0,0:0:0:0:
46,215,229435,5,0,0:0:0:0:
135,135,229798,1,0,0:0:0:0:
253,236,230162,1,2,0:0:0:0:
316,89,230526,1,0,0:0:0:0:
256,192,230617,12,0,233435,0:0:0:0:
256,192,233798,5,4,0:0:0:0:
125,121,259253,5,0,0:0:0:0:
125,121,259344,1,0,0:0:0:0:
125,121,259435,1,0,0:0:0:0:
210,164,259617,1,8,0:0:0:0:
292,212,259798,1,0,0:0:0:0:
374,260,259980,6,0,P|416:189|409:114,1,160,4|8,0:0|0:0,0:0:0:0:
340,46,260526,1,0,0:0:0:0:
254,104,260708,2,0,L|173:93,1,80
270,211,261071,2,0,L|347:183,1,80,8|0,0:0|0:0,0:0:0:0:
497,200,261435,5,0,0:0:0:0:
492,295,261617,1,0,0:0:0:0:
416,353,261798,1,8,0:0:0:0:
320,341,261980,1,0,0:0:0:0:
262,263,262162,2,0,P|263:178|293:110,1,160,0|8,0:0|0:0,0:0:0:0:
373,56,262708,1,0,0:0:0:0:
465,79,262889,5,0,0:0:0:0:
220,138,263253,1,8,0:0:0:0:
497,168,263617,1,0,0:0:0:0:
418,223,263798,1,0,0:0:0:0:
306,170,263980,1,8,0:0:0:0:
302,36,264162,1,0,0:0:0:0:
407,127,264344,6,0,L|408:207,1,80
270,292,264708,2,0,L|270:213,1,80,8|0,0:0|0:0,0:0:0:0:
212,133,265071,1,0,0:0:0:0:
188,310,265253,1,0,0:0:0:0:
378,329,265435,1,8,0:0:0:0:
361,197,265617,1,0,0:0:0:0:
265,200,265798,6,0,P|259:276|301:347,1,160,4|8,0:0|0:0,0:0:0:0:
396,341,266344,1,0,0:0:0:0:
483,233,266526,2,0,P|441:237|408:258,1,80
274,346,266889,1,8,0:0:0:0:
180,323,267071,2,0,P|144:300|110:192,1,160
230,146,267617,2,0,L|210:224,1,80,8|0,0:0|0:0,0:0:0:0:
179,324,267980,5,0,0:0:0:0:
273,309,268162,1,0,0:0:0:0:
273,309,268253,1,0,0:0:0:0:
273,309,268344,1,8,0:0:0:0:
366,287,268526,1,0,0:0:0:0:
458,262,268708,2,0,L|492:104,2,160,0|8|0,0:0|0:0|0:0,0:0:0:0:
399,362,269617,5,0,0:0:0:0:
318,310,269798,1,8,0:0:0:0:
310,214,269980,1,4,2:0:0:0:
256,192,270071,12,0,272162,0:0:0:0:
256,192,273071,12,0,273617,0:0:0:0:
264,34,273798,6,0,P|260:112|316:167,1,160,4|8,0:0|0:0,0:0:0:0:
349,79,274343,1,0,0:0:0:0:
248,350,274525,2,0,P|252:272|196:217,1,160,0|8,0:0|0:0,0:0:0:0:
163,305,275070,1,0,0:0:0:0:
345,338,275252,6,0,P|390:282|383:197,1,160,0|8,0:0|0:0,0:0:0:0:
284,129,275798,1,0,0:0:0:0:
175,180,275979,1,0,0:0:0:0:
247,46,276161,1,0,0:0:0:0:
247,46,276252,1,0,0:0:0:0:
247,46,276343,1,8,0:0:0:0:
344,205,276525,1,0,0:0:0:0:
498,81,276707,6,0,P|460:72|424:52,1,80,4|0,0:0|0:0,0:0:0:0:
228,60,277070,2,0,P|266:69|302:89,1,80,8|0,0:0|0:0,0:0:0:0:
344,205,277434,1,0,0:0:0:0:
186,194,277616,1,0,0:0:0:0:
264,35,277798,1,8,0:0:0:0:
473,75,277979,1,0,0:0:0:0:
452,303,278161,6,0,P|369:293|325:235,1,160,4|8,0:0|0:0,0:0:0:0:
426,131,278707,2,0,L|418:211,1,80
336,308,279070,1,0,0:0:0:0:
212,280,279252,1,8,0:0:0:0:
100,344,279434,1,0,0:0:0:0:
47,177,279616,5,4,0:0:0:0:
131,267,279798,1,0,0:0:0:0:
131,267,279888,1,0,0:0:0:0:
131,267,279979,2,0,P|157:237|171:199,1,80,8|0,0:0|0:0,0:0:0:0:
111,99,280343,1,0,0:0:0:0:
257,202,280525,1,0,0:0:0:0:
46,276,280707,1,8,0:0:0:0:
237,45,280888,1,0,0:0:0:0:
451,315,281070,6,0,P|374:328|318:273,1,160,0|8,0:0|0:0,0:0:0:0:
61,69,281616,2,0,P|138:56|194:111,1,160
116,187,282161,5,8,0:0:0:0:
221,276,282343,1,0,0:0:0:0:
221,276,282434,1,0,0:0:0:0:
221,276,282525,2,0,P|276:266|310:215,1,120,4|0,0:0|0:0,0:0:0:0:
317,186,282888,2,0,L|384:231,1,80,8|0,0:0|0:0,0:0:0:0:
472,342,283252,1,0,0:0:0:0:
441,163,283434,1,0,0:0:0:0:
302,267,283616,1,8,0:0:0:0:
270,151,283798,1,0,0:0:0:0:
181,231,283979,5,4,0:0:0:0:
353,160,284161,1,0,0:0:0:0:
353,160,284252,1,0,0:0:0:0:
353,160,284343,1,8,0:0:0:0:
386,342,284525,1,0,0:0:0:0:
512,170,284707,5,0,0:0:0:0:
346,199,284888,1,0,0:0:0:0:
186,155,285070,1,8,0:0:0:0:
31,195,285252,1,0,0:0:0:0:
219,349,285434,6,0,P|263:289|258:204,1,160,4|8,0:0|0:0,0:0:0:0:
142,153,285979,1,0,0:0:0:0:
87,286,286161,2,0,L|168:272,1,80
293,292,286525,1,8,0:0:0:0:
257,62,286707,5,0,0:0:0:0:
257,62,286798,1,0,0:0:0:0:
257,62,286888,2,0,P|260:103|274:141,1,80,0|0,0:0|0:0,0:0:0:0:
401,211,287252,1,8,0:0:0:0:
373,66,287434,2,0,L|215:40,1,160
102,101,287979,1,8,0:0:0:0:
248,176,288161,1,0,0:0:0:0:
144,344,288343,6,0,P|144:300|160:268,1,80,4|0,0:0|0:0,0:0:0:0:
288,120,288707,2,0,P|288:164|272:196,1,80,8|0,0:0|0:0,0:0:0:0:
172,180,289070,1,0,0:0:0:0:
368,232,289252,1,0,0:0:0:0:
264,104,289434,1,8,0:0:0:0:
176,328,289616,1,0,0:0:0:0:
464,200,289798,6,0,P|388:184|332:236,1,160,4|8,0:0|0:0,0:0:0:0:
424,352,290343,2,0,P|422:308|416:272,1,80
340,80,290707,1,0,0:0:0:0:
224,204,290888,1,8,0:0:0:0:
144,88,291070,1,0,0:0:0:0:
84,172,291252,5,4,0:0:0:0:
244,92,291434,1,0,0:0:0:0:
244,92,291525,1,0,0:0:0:0:
244,92,291616,1,8,0:0:0:0:
292,300,291798,1,0,0:0:0:0:
440,128,291979,5,0,0:0:0:0:
192,8,292161,1,0,0:0:0:0:
72,256,292343,1,8,0:0:0:0:
320,376,292525,1,0,0:0:0:0:
275,36,292707,6,0,P|221:91|144:84,1,160,0|8,0:0|0:0,0:0:0:0:
236,348,293252,2,0,P|292:292|368:300,1,160
320,376,293798,5,8,0:0:0:0:
224,232,293979,1,0,0:0:0:0:
72,316,294161,1,12,0:0:0:0:
112,152,294343,2,0,L|120:192,2,40,0|0|8,0:0|0:0|0:0,0:0:0:0:
240,40,294707,1,0,0:0:0:0:
436,188,294888,2,0,P|396:196|360:176,1,80,8|0,0:0|0:0,0:0:0:0:
348,160,295161,1,0,0:0:0:0:
332,140,295252,2,0,P|288:128|256:136,1,80,8|0,0:0|0:0,0:0:0:0:
176,236,295616,5,12,0:0:0:0:
368,48,295798,1,0,0:0:0:0:
336,308,295979,1,8,0:0:0:0:
192,80,296161,1,0,0:0:0:0:
448,204,296343,2,0,L|288:204,2,160,8|8|4,0:0|0:0|0:0,0:0:0:0:
344,332,297252,5,0,0:0:0:0:
344,332,297343,1,0,0:0:0:0:
344,332,297434,1,8,0:0:0:0:
216,168,297616,1,0,0:0:0:0:
92,344,297798,1,0,0:0:0:0:
220,352,297979,1,0,0:0:0:0:
320,268,298161,1,8,0:0:0:0:
344,144,298343,1,0,0:0:0:0:
292,28,298525,5,0,0:0:0:0:
192,240,298707,1,0,0:0:0:0:
192,240,298798,1,0,0:0:0:0:
192,240,298888,1,8,0:0:0:0:
404,340,299070,1,0,0:0:0:0:
440,124,299252,1,0,0:0:0:0:
280,296,299434,1,0,0:0:0:0:
280,296,299525,1,0,0:0:0:0:
280,296,299616,1,8,0:0:0:0:
108,136,299798,1,0,0:0:0:0:
256,28,299979,6,0,P|244:72|220:96,1,80,4|0,0:0|0:0,0:0:0:0:
324,272,300343,2,0,P|336:228|360:204,1,80,8|0,0:0|0:0,0:0:0:0:
512,224,300707,1,0,0:0:0:0:
424,352,300888,1,0,0:0:0:0:
296,260,301070,1,8,0:0:0:0:
368,160,301252,1,0,0:0:0:0:
360,336,301434,6,0,P|284:356|216:320,1,160,4|8,0:0|0:0,0:0:0:0:
164,224,301979,1,0,0:0:0:0:
220,112,302161,2,0,L|272:172,1,80
320,24,302525,2,0,L|344:104,1,80,8|0,0:0|0:0,0:0:0:0:
440,80,302888,5,4,0:0:0:0:
264,184,303070,1,0,0:0:0:0:
264,184,303161,1,0,0:0:0:0:
264,184,303252,1,8,0:0:0:0:
448,268,303434,1,0,0:0:0:0:
328,80,303616,1,0,0:0:0:0:
340,284,303798,1,0,0:0:0:0:
340,284,303888,1,0,0:0:0:0:
340,284,303979,1,8,0:0:0:0:
508,168,304161,1,0,0:0:0:0:
344,52,304343,5,0,0:0:0:0:
152,112,304525,1,0,0:0:0:0:
152,112,304616,1,0,0:0:0:0:
152,112,304707,1,8,0:0:0:0:
104,304,304888,1,0,0:0:0:0:
276,328,305070,2,0,L|244:252,1,80
404,112,305434,2,0,L|372:188,1,80,8|0,0:0|0:0,0:0:0:0:
376,308,305798,5,4,0:0:0:0:
216,244,305979,1,0,0:0:0:0:
216,244,306070,1,0,0:0:0:0:
216,244,306161,1,8,0:0:0:0:
424,144,306343,1,0,0:0:0:0:
252,96,306525,2,0,P|240:56|248:20,1,80
352,280,306888,2,0,P|332:316|296:336,1,80,8|0,0:0|0:0,0:0:0:0:
112,320,307252,5,4,0:0:0:0:
132,156,307434,1,0,0:0:0:0:
272,84,307616,1,8,0:0:0:0:
388,148,307798,1,0,0:0:0:0:
400,252,307979,5,0,0:0:0:0:
316,48,308161,1,0,0:0:0:0:
112,132,308343,1,8,0:0:0:0:
196,336,308525,1,8,0:0:0:0:
472,188,308707,5,4,0:0:0:0:
332,112,308888,1,0,0:0:0:0:
304,124,308979,1,0,0:0:0:0:
276,136,309070,1,8,0:0:0:0:
132,68,309252,1,0,0:0:0:0:
92,224,309434,2,0,L|48:224,4,40,0|0|0|0|8,0:0|0:0|0:0|0:0|0:0,0:0:0:0:
224,316,309979,1,0,0:0:0:0:
352,216,310161,5,0,0:0:0:0:
196,188,310343,1,0,0:0:0:0:
340,116,310525,1,8,0:0:0:0:
196,200,310707,1,0,0:0:0:0:
268,48,310888,1,0,0:0:0:0:
196,212,311070,1,0,0:0:0:0:
168,32,311252,1,8,0:0:0:0:
196,224,311434,1,0,0:0:0:0:
76,88,311616,5,4,0:0:0:0:
232,120,311798,1,0,0:0:0:0:
232,120,311888,1,0,0:0:0:0:
232,120,311979,1,8,0:0:0:0:
372,40,312161,1,0,0:0:0:0:
448,180,312343,2,0,L|480:208,4,40,0|0|0|0|8,0:0|0:0|0:0|0:0|0:0,0:0:0:0:
312,92,312888,1,0,0:0:0:0:
152,108,313070,5,4,0:0:0:0:
76,248,313252,1,0,0:0:0:0:
140,100,313434,1,8,0:0:0:0:
220,252,313616,1,0,0:0:0:0:
128,92,313798,1,0,0:0:0:0:
308,148,313979,1,0,0:0:0:0:
116,84,314161,1,8,0:0:0:0:
280,12,314343,1,0,0:0:0:0:
256,192,314525,12,4,320343,0:0:0:0:
