osu file format v12

[General]
AudioFilename: Meltdown.mp3
AudioLeadIn: 0
PreviewTime: 67900
Countdown: 0
SampleSet: None
StackLeniency: 0.7
Mode: 0
LetterboxInBreaks: 1
WidescreenStoryboard: 1

[Editor]
DistanceSpacing: 1.2
BeatDivisor: 4
GridSize: 4

[Metadata]
Title:Meltdown
TitleUnicode:Meltdown
Artist:Namine Ritsu
ArtistUnicode:Namine Ritsu
Creator:ertyukjh010
Version:Hard
Source:iroha
Tags:vocaloid vocaloid2 utau kuma Kagamine Rin niconicodouga nicovideo
BeatmapID:365309
BeatmapSetID:99538

[Difficulty]
HPDrainRate:6
CircleSize:4
OverallDifficulty:6
ApproachRate:7
SliderMultiplier:1.4
SliderTickRate:2

[Events]
//Background and Video events
0,0,"Meltdown.jpg",0,0
//Break Periods
//Storyboard Layer 0 (Background)
//Storyboard Layer 1 (Fail)
//Storyboard Layer 2 (Pass)
//Storyboard Layer 3 (Foreground)
//Storyboard Sound Samples
//Background Colour Transformations
3,100,163,162,255

[TimingPoints]
6890,363.636363636364,4,1,1,40,1,0
19980,-100,4,2,1,50,0,0
28708,-100,4,1,1,30,0,0
31435,-100,4,1,1,30,0,0
31617,-100,4,1,1,40,0,0
54344,-100,4,1,1,20,0,0
54890,-100,4,1,1,40,0,0
67071,-100,4,2,1,10,0,0
67980,-100,4,1,1,30,0,0
68708,363.636363636364,4,1,1,40,1,0
68708,-100,4,1,1,50,0,1
91980,-100,4,2,1,60,0,0
102162,-100,4,1,1,20,0,0
103071,-100,4,1,1,30,0,0
103617,-100,4,1,1,40,0,0
139071,-100,4,2,1,10,0,0
139980,-100,4,1,1,30,0,0
140708,363.636363636364,4,1,1,40,1,0
140708,-100,4,1,1,50,0,1
163980,-100,4,2,1,60,0,0
186526,-100,4,2,1,40,0,0
187253,-200,4,2,1,40,0,0
233798,-200,4,2,1,50,0,0
259253,-100,4,1,1,40,0,0
272162,-100,4,2,1,10,0,0
273798,363.636363636364,4,1,1,40,1,0
273798,-100,4,1,1,50,0,1
308707,-100,4,1,1,40,0,0
320343,-100,4,1,1,60,0,0

[Colours]
Combo1 : 255,255,151
Combo2 : 187,255,255
Combo3 : 255,66,66

[HitObjects]
416,220,6889,1,0,0:0:0:0:
344,264,7071,1,0,0:0:0:0:
260,248,7253,2,0,L|248:288,2,35
196,196,7617,1,0,0:0:0:0:
124,152,7799,2,0,L|112:112,4,35
56,200,8344,6,0,P|52:268|96:324,1,140
260,340,9071,2,0,L|332:340,1,70
364,264,9435,2,0,L|292:264,1,70
220,220,9799,1,0,0:0:0:0:
228,136,9980,1,0,0:0:0:0:
292,84,10162,1,0,0:0:0:0:
376,88,10344,1,0,0:0:0:0:
428,152,10526,2,0,P|436:220|400:280,1,140
240,324,11253,5,0,0:0:0:0:
176,168,11617,1,0,0:0:0:0:
12,132,11980,2,0,P|40:112|64:84,1,70
136,44,12344,2,0,P|172:40|208:40,1,70
280,76,12708,1,0,0:0:0:0:
252,156,12890,1,0,0:0:0:0:
336,140,13071,1,0,0:0:0:0:
308,220,13253,1,0,0:0:0:0:
392,204,13435,2,0,P|456:168|476:108,1,140
340,12,14162,5,0,0:0:0:0:
252,156,14526,1,0,0:0:0:0:
388,252,14890,2,0,L|364:320,1,70
448,316,15253,2,0,L|472:248,1,70
468,164,15617,1,0,0:0:0:0:
468,164,15799,1,0,0:0:0:0:
392,132,15980,1,0,0:0:0:0:
392,132,16162,1,0,0:0:0:0:
328,188,16344,1,0,0:0:0:0:
328,188,16526,1,0,0:0:0:0:
248,160,16708,1,0,0:0:0:0:
248,160,16890,1,0,0:0:0:0:
180,212,17071,6,0,P|168:280|208:336,1,140
376,320,17799,2,0,L|424:268,1,70
344,240,18162,2,0,L|368:172,1,70
284,172,18526,2,0,L|296:104,1,70
212,112,18890,2,0,L|216:40,1,70
132,52,19253,5,0,0:0:0:0:
64,100,19435,1,0,0:0:0:0:
52,184,19617,1,0,0:0:0:0:
96,256,19799,1,0,0:0:0:0:
176,276,19980,6,0,L|216:216,1,70
292,68,20526,1,0,0:0:0:0:
240,132,20708,2,0,L|168:132,1,70
32,228,21253,1,0,0:0:0:0:
160,340,21617,1,0,0:0:0:0:
296,244,21980,1,0,0:0:0:0:
364,192,22162,2,0,P|400:180|432:176,1,70
472,252,22526,2,0,P|444:272|424:300,1,70
352,348,22890,6,0,P|312:344|284:328,1,70
212,180,23435,1,0,0:0:0:0:
264,248,23617,2,0,P|300:236|328:212,1,70
356,52,24162,1,0,0:0:0:0:
468,176,24526,1,0,0:0:0:0:
384,324,24890,1,0,0:0:0:0:
300,312,25071,2,0,P|264:300|232:284,1,70
188,216,25435,2,0,P|148:212|116:220,1,70
40,188,25799,6,0,P|20:156|12:120,1,70
156,40,26344,1,0,0:0:0:0:
96,100,26526,2,0,P|120:124|156:140,1,70
316,104,27071,1,0,0:0:0:0:
316,272,27435,1,0,0:0:0:0:
148,260,27799,1,0,0:0:0:0:
196,192,27980,2,0,P|200:152|200:120,1,70
260,64,28344,2,0,P|280:96|308:116,1,70
388,104,28708,5,0,0:0:0:0:
460,144,28890,1,0,0:0:0:0:
448,228,29071,1,0,0:0:0:0:
304,316,29435,1,0,0:0:0:0:
240,260,29617,1,0,0:0:0:0:
252,176,29799,1,0,0:0:0:0:
328,140,29980,2,0,L|468:140,1,140
436,60,30526,2,0,L|296:60,1,140
128,192,31435,5,0,0:0:0:0:
188,252,31617,2,0,P|256:252|304:204,1,140
