osu file format v7

[General]
AudioFilename: Namine Ritsu - E.F.B -Kokyuu no Hyouketsu-.mp3
AudioLeadIn: 0
PreviewTime: 43005
Countdown: 0
SampleSet: Soft
StackLeniency: 0.7
Mode: 0
LetterboxInBreaks: 1

[Editor]
DistanceSpacing: 1.5
BeatDivisor: 4
GridSize: 8

[Metadata]
Title:E.F.B -Kokyuu no Hyouketsu-
Artist:Namine Ritsu
Creator:Suck
Version:Insane
Source:
Tags:VOCALOID 49937400

[Difficulty]
HPDrainRate:6
CircleSize:4
OverallDifficulty:7
SliderMultiplier:1.6
SliderTickRate:0.5

[Events]
//Background and Video events
0,0,"BG.jpg"
//Break Periods
2,71917,77460
2,159345,162103
//Storyboard Layer 0 (Background)
//Storyboard Layer 1 (Fail)
//Storyboard Layer 2 (Pass)
//Storyboard Layer 3 (Foreground)
//Storyboard Sound Samples
//Background Colour Transformations
3,100,163,162,255

[TimingPoints]
1861,428.571428571429,4,2,0,50,1,0
11933,-200,4,2,0,40,0,0
12790,-200,4,2,0,60,0,0
13648,-200,4,2,0,80,0,0
14505,-200,4,2,0,100,0,0
15362,-100,4,1,0,50,0,0
20398,-100,4,2,0,80,0,0
21040,-100,4,1,0,50,0,0
21790,-100,4,2,0,80,0,0
22648,-100,4,1,0,50,0,0
27468,-200,4,1,0,50,0,0
29075,-100,4,1,0,50,0,0
31753,-200,4,1,0,50,0,0
32396,-100,4,1,0,50,0,0
49648,-100,4,2,0,80,0,0
51362,-100,4,1,0,50,0,0
109646,-200,4,1,0,50,0,0
110503,-100,4,1,0,50,0,0
125183,-100,4,2,0,80,0,0
132040,-200,4,2,0,80,0,0
135361,-100,4,2,0,80,0,0
166219,-100,4,2,0,40,0,0
167076,-100,4,2,0,60,0,0
167933,-100,4,2,0,80,0,0
168790,-100,4,2,0,100,0,0
169648,-100,4,1,0,50,0,0
176505,-100,4,2,0,80,0,0
178219,-200,4,1,0,50,0,0
179075,-100,4,1,0,50,0,0
179932,-200,4,1,0,50,0,0
181539,-100,4,1,0,50,0,0
186790,-100,4,2,0,80,0,0
188612,-100,4,1,0,50,0,0
195469,-100,4,2,0,40,0,0
197076,-100,4,2,0,60,0,0
198790,-100,4,2,0,80,0,0
200505,-100,4,2,0,100,0,0
202219,-100,4,1,0,100,0,0

[Colours]
Combo1 : 0,0,0
Combo2 : 128,0,0
Combo3 : 128,0,64
Combo4 : 0,0,64

[HitObjects]
40,88,1646,1,2
72,64,1753,1,2
112,48,1860,2,0,B|192:24|272:56,1,160,2|8
400,344,2717,2,0,B|320:368|240:336,1,160,0|8
352,32,3574,2,0,B|400:104|344:184,2,160,8|0|8
192,32,4646,1,2
152,40,4753,1,2
120,56,4860,1,2
88,80,4967,1,2
72,112,5074,1,2
72,272,5288,6,0,B|80:344|160:352,2,120,2|0|2
232,272,6146,2,0,B|224:200|144:192,2,120,2|0|2
256,192,7003,12,0,8288
32,32,8717,6,0,B|200:32,1,160,0|8
480,352,9574,2,0,B|312:352,1,160,0|8
256,304,10431,5,2
256,224,10860,1,2
256,144,11288,1,2
256,64,11717,1,2
256,64,12146,6,0,B|168:64,1,80,0|8
320,136,13003,2,0,B|408:136,1,80,0|8
168,208,13860,2,0,B|80:208,1,80,0|8
400,296,14717,2,0,B|488:296,1,80,0|8
200,136,15574,6,2,B|120:104|40:136,1,160,0|2
43,134,16431,1,8
43,134,16860,1,8
312,336,17288,6,2,B|392:368|472:336,1,160
468,337,18146,1,8
468,337,18574,1,8
320,32,19003,6,2,B|488:32,1,160
192,352,19860,2,2,B|24:352,1,160
176,280,20503,5,2
32,208,20717,1,2
96,64,20931,1,2
256,96,21146,1,0
256,96,21253,1,0
256,96,21360,1,0
256,96,21467,1,0
256,96,21574,1,8
96,96,22003,5,2
416,96,22431,1,2
24,96,22860,1,0
24,96,22967,1,0
24,96,23074,1,0
24,96,23288,1,8
488,96,23717,1,0
488,96,23824,1,0
488,96,23931,1,0
488,96,24146,1,8
336,288,24574,5,0
176,288,25003,1,8
368,288,25431,1,0
144,288,25860,1,8
400,288,26288,1,0
96,288,26717,2,0,B|96:216|152:184,2,120,8|0|0
256,288,27575,2,2,B|304:272|328:216|320:192|272:192|248:248|304:248|328:248|336:240|376:216|384:160,1,240
96,32,29288,5,8
96,32,29503,2,0,B|40:104|80:184,1,160
152,280,30146,2,0,B|184:312|232:288,2,80,8|0|0
152,200,30788,1,0
168,200,30896,1,0
184,200,31003,1,8
256,160,31217,2,0,B|280:144|296:168,4,40
400,232,31861,6,0,B|432:264|400:312,1,80,8|0
404,78,32503,1,0
404,78,32717,1,8
104,80,33145,1,0
104,80,33574,5,8
256,352,34003,1,0
112,272,34431,1,8
80,248,34538,1,0
64,208,34645,1,0
64,168,34753,1,0
88,136,34860,1,0
224,56,35288,1,8
224,56,35395,1,0
224,56,35503,1,0
224,56,35610,1,0
224,56,35717,1,0
464,272,36145,6,0,B|464:320|424:336,2,80,8|0|0
48,112,37003,2,0,B|48:64|88:48,2,80,8|0|0
464,272,37860,6,0,B|512:192|464:120,1,160,8|0
48,112,38717,2,0,B|0:192|48:264,1,160,8|0
336,56,39574,2,0,B|256:8|184:56,1,160,8|0
176,328,40431,2,0,B|256:376|328:328,1,160,8|0
256,192,41288,12,0,42574
376,64,43003,5,0
392,72,43110,1,0
408,80,43217,1,0
424,88,43324,1,0
440,96,43431,1,8
360,232,43860,6,0,B|320:304,1,80,0|0
168,248,44288,2,0,B|208:176,1,80,8|0
96,64,44717,5,0
80,56,44824,1,0
64,48,44931,1,0
48,40,45038,1,0
32,32,45145,1,8
352,32,45574,5,0
448,160,45788,2,0,B|472:168|464:192,2,40,0|0|8
480,320,46431,6,0,B|400:272|328:320,1,160,0|8
32,64,47288,2,0,B|112:112|184:64,1,160,0|8
336,352,48145,6,0,B|302:318,1,40
386,312,48360,2,0,B|344:290,1,40
426,261,48574,2,0,B|379:253,1,40,8|0
444,199,48788,2,0,B|397:207,1,40
449,137,49003,2,0,B|406:158,1,40
192,168,49431,1,8
480,352,49860,5,2
320,352,50074,1,2
160,352,50288,1,2
32,32,50717,1,2
192,32,50931,1,2
352,32,51145,1,2
72,192,51574,2,2,B|112:256|72:312,2,120
160,328,52431,6,8,B|240:304,1,80
264,144,52860,2,8,B|184:120,1,80
32,72,53288,6,0,L|112:32|272:32,1,240
424,32,54145,2,0,L|472:56|472:128,2,120,8|0|8
336,168,55003,1,0
328,184,55110,1,0
320,200,55217,1,0
312,216,55324,1,0
304,232,55431,1,0
296,248,55538,1,0
288,264,55645,1,0
280,280,55753,1,0
272,296,55860,1,8
112,296,56074,5,0
32,160,56289,2,0,B|16:144|32:120,2,40
112,296,56717,2,0,B|150:372|246:364,1,160,0|8
365,257,57574,2,0,B|412:186|357:107,1,160,0|8
224,21,58431,2,0,B|139:16|98:103,2,160,0|0|8
224,20,59717,1,8
480,240,60145,6,2,B|390:265|375:352,1,160
32,144,61003,2,2,B|121:118|136:31,1,160
32,336,61860,2,0,B|120:336,1,80,0|8
200,200,62288,2,0,B|200:288,1,80,0|8
288,152,62717,2,0,B|376:152,1,80,0|8
480,32,63145,2,0,B|480:120,1,80,0|8
480,112,63574,5,0
480,112,64003,1,8
376,224,64431,1,0
360,216,64538,1,0
344,208,64645,1,0
232,160,64860,1,0
248,152,64967,1,0
264,144,65074,1,0
376,96,65288,1,8
376,96,65717,1,0
272,40,65931,1,0
160,88,66146,1,0
144,80,66253,1,0
128,72,66360,1,0
112,64,66467,1,0
96,56,66574,1,8
256,32,67003,5,2
416,192,67431,1,2
256,352,67860,1,2
96,192,68288,1,2
112,176,68396,1,2
128,160,68503,1,2
256,192,68717,12,0,71717
96,40,78360,5,0
48,104,78574,1,0
128,104,78788,1,0
168,104,78896,1,0
208,104,79003,2,0,B|272:176|192:264,1,160
448,232,79860,5,0
240,112,80288,1,0
443,303,80717,1,0
180,151,81146,1,0
384,342,81574,1,0
176,222,82003,1,0
400,136,82431,6,0,L|464:192|464:272,1,160,0|0
112,248,83288,2,0,L|48:192|48:112,1,160
384,32,84146,2,0,L|298:32|246:92,1,160,0|0
32,360,85003,2,0,L|117:359|169:299,1,160,0|0
392,224,85860,5,0
384,240,85967,1,0
376,256,86074,1,0
368,272,86181,1,0
360,288,86288,1,8
176,160,86717,1,0
192,168,86824,1,0
208,176,86931,1,0
312,112,87146,1,8
296,104,87253,1,0
280,96,87360,1,0
168,56,87574,6,0,B|88:96|104:192,1,160,0|8
304,328,88431,2,0,B|224:288|240:192,1,160,0|8
472,264,89288,6,0,B|384:264,2,80,0|0|8
32,192,90146,2,0,B|120:192,2,80,0|0|8
472,120,91003,2,0,B|384:120,2,80,0|0|8
32,48,91860,2,0,B|120:48,2,80,0|0|8
176,240,92717,6,0,B|212:163|296:138,1,160,0|8
416,344,93574,1,0
424,328,93681,1,0
432,312,93788,1,0
440,296,93896,1,0
448,280,94003,1,4
216,216,94432,1,0
208,200,94539,1,0
200,184,94646,1,0
192,168,94754,1,0
184,152,94861,1,4
400,40,95288,6,2,B|448:40|472:72,1,80
112,344,95717,2,2,B|64:344|40:312,1,80
400,344,96146,2,2,B|448:344|470:313,1,80
111,39,96574,2,2,B|64:40|41:70,1,80
256,192,97003,1,8
256,192,97431,1,8
256,192,97860,12,0,98717
56,120,99146,6,2,B|208:64,1,160
456,264,100003,2,2,B|304:320,1,160
305,319,100860,1,8
48,128,101288,6,2,B|128:152,1,80
280,112,101717,2,2,B|200:88,1,80
304,216,102146,1,0
288,224,102253,1,0
272,232,102360,1,0
256,240,102467,1,0
240,248,102574,1,8
480,32,103003,6,0,B|430:43|435:88,2,80,8|0|8
184,160,103860,2,0,B|151:120|113:145,2,80,8|0|8
440,352,104717,6,0,B|392:352,2,40
408,280,105038,2,0,B|361:267,2,40
384,200,105360,2,0,B|342:176,2,40
392,120,105681,2,0,B|358:86,2,40
472,96,106003,1,8
472,96,106431,6,2,B|504:176|464:256,1,160
466,251,107288,1,8
466,251,107717,1,8
40,96,108146,2,2,B|8:176|48:256,1,160
45,251,109003,1,8
45,251,109431,1,8
176,352,109861,6,0,B|264:352,1,80
256,32,110717,1,0
256,192,111146,1,0
256,192,111574,12,0,112860
424,160,113288,5,0
416,144,113396,1,0
408,128,113503,1,0
400,112,113610,1,0
392,96,113717,1,8
168,328,114146,1,0
184,320,114253,1,0
200,312,114360,1,0
216,304,114467,1,0
232,296,114574,1,8
40,40,115003,6,0,B|56:80|96:96,1,80,0|8
256,120,115431,2,0,B|240:80|200:64,1,80,0|8
360,88,115860,2,0,B|376:128|416:144,1,80,0|8
312,272,116288,5,0
288,304,116396,1,0
256,320,116503,1,0
216,328,116610,1,0
176,320,116717,2,0,B|96:272|24:336,1,160
28,332,117574,1,8
160,40,118003,5,0
160,40,118431,2,0,B|227:100|307:52,1,160
347,44,118967,1,0
387,52,119074,1,0
419,68,119181,1,0
443,100,119288,1,8
32,352,119931,5,0
128,224,120146,1,0
144,232,120253,1,0
160,240,120360,1,0
320,240,120574,1,0
312,224,120681,1,0
304,208,120788,1,0
456,160,121003,5,0
308,97,121217,1,0
246,244,121431,1,0
393,307,121646,1,0
240,352,121860,6,0,B|319:314,1,80,0|0
152,288,122288,2,0,B|66:265,2,80
214,56,123146,1,0
445,118,123574,5,0
391,352,124003,1,0
152,288,124431,1,0
152,288,124860,1,4
152,288,124967,1,4
152,288,125074,1,4
200,176,125288,6,0,B|123:153,1,80,0|8
192,56,125717,2,0,B|268:33,1,80,0|8
344,128,126146,2,0,B|274:166,1,80,0|8
392,200,126574,2,0,B|464:240,1,80,0|8
432,120,127003,2,0,B|408:40,1,80,0|8
288,56,127431,2,0,B|208:40,1,80,0|8
120,128,127860,5,2
128,144,127967,1,2
136,160,128074,1,2
144,176,128181,1,2
152,192,128288,1,2
160,208,128396,1,2
168,224,128503,1,2
288,248,128717,5,2
328,256,128824,1,2
360,232,128931,1,2
360,232,129146,1,2
360,232,129360,1,2
312,136,129574,5,2
288,104,129681,1,2
296,64,129788,1,2
296,64,130003,1,2
296,64,130217,1,2
184,32,130431,5,2
144,40,130538,1,2
120,72,130646,1,2
120,72,130860,1,2
120,72,131074,1,2
168,184,131288,5,2
200,208,131396,1,2
216,248,131503,1,2
200,288,131610,1,2
168,312,131717,1,2
128,320,131824,1,2
88,304,131931,1,2
88,144,132146,6,0,B|48:72,1,80,0|0
320,312,133003,2,0,B|248:352,1,80,0|4
424,40,133860,2,0,B|464:112,1,80
136,256,134717,2,0,B|216:232,1,80,0|4
368,48,135575,6,2,B|424:112,1,80
304,112,136003,2,2,B|248:176,1,80
368,176,136431,2,2,B|424:240,1,80
304,240,136860,2,2,B|248:304,1,80
112,224,137288,6,0,B|32:192,1,80,0|4
360,216,137717,2,0,B|440:232,1,80,0|4
198,40,138146,2,0,B|144:102,1,80,0|4
335,356,138574,2,0,B|408:320,1,80,0|4
456,256,139003,5,2
456,256,139217,1,2
480,176,139431,1,2
480,176,139646,1,2
464,96,139860,1,2
464,96,140074,1,2
416,32,140288,1,2
416,32,140503,1,2
256,32,140717,5,4
112,96,141146,1,4
256,160,141574,1,4
112,224,142003,1,4
216,344,142431,6,0,B|296:320|328:232,1,160
360,160,143074,1,0
440,136,143288,2,0,B|384:73|291:81,1,160
212,83,143931,1,0
152,136,144146,2,0,B|112:168|136:208,2,80
216,184,144788,1,0
280,232,145003,2,0,B|320:200|296:160,2,80
288,72,145860,6,0,L|367:92|404:165,1,160
402,161,146503,1,0
224,312,146717,2,0,L|144:291|107:218,1,160
109,222,147360,1,0
96,144,147574,5,0
96,144,147896,1,0
128,72,148217,1,0
128,72,148431,1,0
200,40,148646,1,0
200,40,148753,1,0
200,40,148860,1,0
360,40,149288,6,0,B|448:56|472:152,1,160
152,344,150146,2,0,B|64:328|40:232,1,160
320,80,151003,5,0
85,298,151431,1,0
372,30,151860,1,0
33,347,152288,1,0
128,40,152717,6,0,B|128:128,2,80
384,344,153574,2,0,B|384:256,2,80
280,224,154217,5,0
280,224,154431,2,0,B|200:208|176:112,1,160
312,32,155074,2,0,B|360:27|386:61,1,80
464,200,155503,2,0,B|488:216|472:240,2,40
344,304,156146,5,2
344,304,156574,1,2
272,344,156788,1,2
192,336,157003,1,2
192,336,157431,1,2
120,296,157646,1,2
72,232,157860,2,2,B|16:144|80:80,1,160
440,152,158717,2,2,B|496:240|432:304,1,160
176,88,163003,6,0,B|128:72|104:112,2,80
328,128,163860,2,0,B|400:176|384:272,1,160
384,267,164503,1,0
232,328,164717,5,2
463,265,165146,1,2
401,34,165574,1,2
169,96,166003,1,2
32,296,166431,6,0,B|96:352|184:328,1,160,0|8
360,160,167288,2,0,B|422:217|407:307,1,160,0|8
192,208,168146,2,0,B|107:194|69:112,1,160,0|8
296,32,169003,2,0,B|211:37|165:116,1,160,0|8
440,288,169860,6,0,B|368:328,1,80
216,296,170288,1,8
448,72,170717,2,0,B|368:48,1,80
216,88,171146,1,8
96,192,171574,5,0
408,280,172003,1,8
408,280,172217,2,0,B|325:310,1,80
317,312,172538,1,0
302,318,172646,1,0
287,323,172753,1,0
272,329,172860,1,8
40,112,173288,6,0,L|104:56|184:56,1,160,0|8
178,56,173931,1,0
472,272,174146,2,0,L|408:328|328:328,1,160,0|8
333,328,174788,1,0
32,216,175003,5,0
48,208,175110,1,0
64,200,175217,1,0
80,192,175324,1,0
96,184,175431,1,0
112,176,175538,1,0
128,168,175646,1,0
144,160,175753,1,0
160,152,175860,1,8
304,88,176074,2,0,B|328:96|320:120,2,40
120,352,176717,5,2
272,296,176931,1,2
400,192,177146,1,2
80,200,177574,1,2
208,96,177788,1,2
360,40,178003,1,2
40,72,178431,2,8,B|88:72|112:40,1,80
192,352,179289,6,8,B|112:320|104:224,1,160
400,96,180146,2,8,B|480:72,1,80
80,344,181003,2,8,B|42:269,1,80
44,272,181646,1,0
44,272,181860,2,8,B|80:200|176:192,1,160
175,192,182503,1,0
175,192,182717,1,8
480,296,183146,1,8
296,40,183574,5,8
40,232,184003,1,8
40,232,184217,1,0
40,232,184431,2,8,B|96:296|184:296,1,160
472,160,185288,6,0,B|392:136,1,80,8|0
248,200,185717,2,0,B|168:224,1,80,8|0
56,112,186146,1,0
72,112,186253,1,0
88,112,186360,1,0
104,112,186467,1,0
120,112,186574,1,8
432,32,187003,5,2
360,72,187217,1,2
320,144,187431,1,2
80,352,187860,1,2
152,312,188074,1,2
192,240,188288,1,2
192,240,188503,1,2
56,128,188717,5,0
72,136,188824,1,0
88,144,188931,1,0
104,152,189038,1,0
120,160,189146,1,0
136,168,189253,1,0
152,176,189360,1,0
168,184,189467,1,0
184,192,189574,1,8
464,40,190003,5,0
336,336,190431,1,0
320,328,190538,1,0
304,320,190646,1,0
288,312,190753,1,0
272,304,190860,1,8
96,40,191288,5,0
192,168,191503,1,0
176,168,191611,1,0
160,168,191717,1,0
144,168,191824,1,0
128,168,191931,1,0
112,168,192038,1,0
96,168,192146,1,8
384,312,192574,2,0,B|402:234|485:184,1,160,0|0
479,188,193431,5,8
167,108,193860,1,0
455,252,194288,1,0
143,172,194717,1,8
431,36,195146,1,0
415,44,195253,1,0
399,52,195360,1,0
280,160,195574,5,2
296,168,195681,1,2
312,176,195788,1,2
328,184,195896,1,2
344,192,196003,1,2
360,200,196110,1,2
376,208,196217,1,2
392,216,196324,1,2
408,224,196431,1,2
424,232,196538,1,2
440,240,196646,1,2
456,248,196753,1,2
472,256,196860,1,2
192,96,197288,5,2
209,92,197396,1,2
227,88,197503,1,2
244,85,197610,1,2
262,81,197717,1,2
279,78,197824,1,2
297,74,197931,1,2
314,70,198038,1,2
332,67,198146,1,2
349,63,198253,1,2
367,60,198360,1,2
384,56,198467,1,2
402,52,198574,1,2
280,344,199003,5,2
319,355,199110,1,2
355,355,199217,1,2
394,348,199324,1,2
427,326,199431,1,2
455,298,199538,1,2
476,267,199646,1,2
480,228,199753,1,2
473,189,199860,1,2
457,152,199967,1,2
429,124,200074,1,2
399,105,200181,1,2
360,92,200288,1,2
151,291,200717,5,2
112,278,200824,1,2
82,259,200931,1,2
54,231,201038,1,2
38,194,201146,1,2
31,156,201253,1,2
35,116,201360,1,2
56,85,201467,1,2
84,57,201574,1,2
117,35,201681,1,2
156,28,201788,1,2
192,28,201896,1,2
232,40,202003,1,2
136,264,202431,5,4
480,96,203074,1,4
464,88,203181,1,4
448,80,203288,1,4
216,144,203717,1,4
200,152,203824,1,4
184,160,203931,1,4
